#TITLE:Astrum;
#SUBTITLE:;
#ARTIST:Yooh;
#TITLETRANSLIT:;
#SUBTITLETRANSLIT:;
#ARTISTTRANSLIT:;
#GENRE:Hard Renaissance;
#CREDIT:;
#BANNER:;
#BACKGROUND:;
#LYRICSPATH:;
#CDTITLE:cdtitle.png;
#MUSIC:Astrum.ogg;
#OFFSET:-1.298230;
#SAMPLESTART:22.054987;
#SAMPLELENGTH:10.378378;
#SELECTABLE:YES;
#BPMS:0.000000=185.000000
;
#STOPS:
;
#BGCHANGES:;
#KEYSOUNDS:;
#ATTACKS:;

//---------------dance-single - ----------------
#NOTES:
     dance-single:
     :
     Challenge:
     15:
     0.717997,0.852490,0.422538,0.296518,0.522613,678.000000,621.000000,57.000000,40.000000,0.000000,0.000000,0.717997,0.852490,0.422538,0.296518,0.522613,678.000000,621.000000,57.000000,40.000000,0.000000,0.000000:
0000
0000
0000
0000
,
0000
0000
0000
0000
,
0000
0000
0000
0000
,
0000
0000
0000
0000
,
0000
0000
0000
0000
,
0000
0000
0000
0000
,
0000
0000
0000
0000
,
0000
0000
0000
0000
,
1000
0100
0010
0100
0001
0000
0101
0000
,
0010
1100
0002
2003
,
3001
0100
0010
0100
1000
0000
1100
0000
,
0010
0000
0101
0000
2000
0000
3100
0010
,
0001
0000
0000
0001
0000
0000
0011
0000
0100
0000
0000
0100
0000
0000
0110
0000
,
1000
0000
0000
1000
0000
0000
1010
0000
0100
0000
0000
0100
0000
0000
0110
0000
,
0001
0100
0001
0000
1000
0100
1000
0000
0001
0100
0001
0100
0020
0000
0000
0000
,
1030
0000
0000
0000
0000
0000
0000
0000
0001
0010
0100
1000
0100
0010
0001
0000
,
1000
0000
0000
0010
0000
0000
0100
0000
1000
0000
0100
0000
0010
0000
1000
0000
,
0001
0000
0000
0010
0000
0000
0100
0000
0001
0000
0100
0000
0010
0000
0001
0000
,
1000
0000
0000
1000
0010
0000
0000
0010
0100
0000
0000
0100
0001
0000
0000
0001
,
1000
0000
0100
0010
0100
0000
0010
0001
1000
0000
0010
0000
0100
0000
0001
0000
,
0010
0000
0000
1000
0000
0000
0010
0000
0100
0000
1000
0000
0001
0000
1000
0000
,
0010
0000
0000
0001
0000
0000
0010
0000
0100
0000
0001
0000
1000
0000
0001
0000
,
0010
0000
0100
1000
0100
0000
1000
0001
0100
0000
0010
0000
1000
0000
0001
0000
,
0011
0000
0000
0000
1100
0000
0000
0000
0001
0100
0010
0100
0001
0000
1000
0000
,
0001
0000
0000
0010
0000
0000
0100
0000
0001
0000
0100
0000
0010
0000
0001
0000
,
1000
0000
0000
0010
0000
0000
0100
0000
1000
0000
0100
0000
0010
0000
1000
0000
,
0001
0000
0000
0001
0010
0000
0000
0010
0100
0000
0000
0100
1000
0000
0000
1000
,
0001
0000
0100
0010
0100
0000
0010
1000
0001
0000
0010
0000
0100
0000
1000
0000
,
2100
0000
0000
0001
0000
0000
3010
0000
0001
0000
0010
0000
0100
0000
0001
0000
,
0102
0000
0000
1000
0000
0000
0013
0000
1000
0000
0010
0000
0100
0000
1000
0000
,
0001
0000
0100
0000
0010
0000
1000
0000
0100
0010
0100
0010
0001
1000
0001
1000
,
0200
0000
0000
0000
0310
0100
1001
0000
,
0001
0000
0100
0010
0000
0100
0001
0000
0100
0010
0000
0100
,
0001
1010
0011
1010
,
1000
0000
0100
0010
0000
0100
1000
0000
0100
0010
0000
0100
,
1000
0011
1001
0101
,
1000
0000
0010
0001
0000
0010
1000
0000
0010
0001
0000
0010
,
1000
1010
0011
1010
,
0001
0000
0010
1000
0000
0010
0001
0000
0100
1000
0000
0100
,
0002
0000
0000
0000
1000
0000
0000
0000
1003
0000
0000
0000
0001
1000
0001
1000
,
0001
0010
1000
0010
0001
0010
1000
0010
,
0001
0010
0001
0000
0011
0000
0000
0000
0101
0000
0000
0000
1100
0000
0000
0000
,
1000
0010
0001
0010
1000
0010
0001
0010
,
1000
0010
1000
0000
1010
0000
0000
0000
1100
0000
0000
0000
0101
0000
0000
0000
,
0001
0010
1000
0010
0001
0100
1000
0100
,
0001
0010
0011
0000
1010
0000
1001
0000
,
1000
0100
1000
0000
0001
0100
0001
0000
1000
0100
1000
0100
0020
0000
0000
0000
,
0031
0000
0000
0000
0000
0000
0000
0000
1000
0010
0100
0001
0100
0010
1000
0000
,
0200
0000
0000
0000
,
0320
0000
0000
0000
,
0031
0010
0100
1000
,
0002
0000
0000
0000
,
2003
0000
0000
0000
,
3020
0000
0000
0000
,
0032
0000
0000
0000
,
0023
0000
0000
0000
0130
0010
1000
0100
,
0020
0000
0000
0000
0130
0010
0001
0100
,
0020
0000
0000
0000
0130
0010
1000
0001
,
0010
0100
1000
0001
,
0200
0000
0000
0000
0301
0100
1000
0100
,
0002
0000
0000
1000
0000
0000
1003
0000
1000
0000
0100
0000
0001
0000
0100
0000
,
2000
0000
0000
0001
0000
0000
3001
0000
0001
0000
0100
0000
1000
0000
0100
0000
,
0002
0000
0000
0013
0000
0000
0100
0000
2000
0000
0000
3010
0000
0000
0100
0000
,
0002
0000
0000
1000
0000
0000
1003
0000
1001
0000
0000
1001
0000
0000
1001
0000
,
2001
0000
0000
3020
0000
0000
0032
0000
2003
0000
0000
3200
0000
0000
0302
0000
,
0023
0000
0000
2030
0000
0000
3002
0000
0203
0000
0310
0000
0100
0000
1000
0000
,
0010
0000
0001
0010
0000
0100
0010
0000
0100
0000
0001
0000
1000
0000
0001
0000
,
0010
0000
1000
0010
0000
0100
0010
0000
0100
0000
1000
0000
0010
0000
0100
0000
,
0001
0000
0000
0001
0010
0000
0000
0010
1000
0000
0000
1000
0100
0000
0000
0100
,
0001
0000
1000
0100
0010
0000
0001
0100
0010
0000
1000
0000
0001
0000
0010
0000
,
0100
0000
0001
0100
0000
0010
0100
0000
0010
0000
0001
0000
1000
0000
0010
0000
,
0100
0000
1000
0100
0000
0010
0100
0000
0010
0000
1000
0000
0001
0000
0010
0000
,
0100
0000
1000
0001
0100
0000
0010
1000
0001
0000
0010
0000
0100
0000
1000
0000
,
1010
0000
0000
0000
0101
0000
0000
0000
1000
0010
0100
0001
1000
0000
0001
0000
,
0010
0000
1000
0010
0000
1000
0010
0000
0100
0000
0001
0000
0100
0000
1000
0000
,
0010
0000
0001
0010
0000
0001
0010
0000
0100
0000
1000
0000
0100
0000
0001
0000
,
1000
0000
0000
1000
0100
0000
0000
0100
0001
0000
0000
0001
0010
0000
0000
0010
,
1000
0000
0001
0010
0100
0000
1000
0010
0100
0000
0001
0000
1000
0000
0100
0000
,
0210
0000
0000
0001
0000
0000
0310
0000
1000
0000
0010
0000
0001
0000
0100
0000
,
0210
0000
0000
1000
0000
0000
0310
0000
0001
0000
0010
0000
1000
0010
1000
0010
,
1000
0000
0001
0000
0010
0000
0100
0000
1000
0001
1000
0001
0100
0010
0100
0010
,
0200
0000
0000
0000
0310
0100
1001
0000
,
0001
0000
0010
0001
0000
0100
0001
0000
0010
0001
0000
0100
,
0001
0011
0101
1100
,
1000
0000
0010
1000
0000
0100
1000
0000
0010
1000
0000
0100
,
1000
1010
1100
0101
,
0001
0000
0010
1000
0000
0010
0001
0000
0100
1000
0000
0100
,
0001
1001
0110
1001
,
1000
0000
1000
0010
0000
0010
0001
0000
0001
0100
0000
0100
,
2000
0000
0000
0000
0001
0000
0000
0000
3001
0000
0000
0000
1000
0001
1000
0001
,
1000
0100
0001
1000
0010
0001
1000
0100
,
0010
0001
0010
0000
0011
0000
0000
0000
1000
0001
1000
0000
1010
0000
0000
0000
,
0001
0100
1000
0001
0010
1000
0001
0100
,
0010
1000
0010
0000
1010
0000
0000
0000
0001
1000
0001
0000
0011
0000
0000
0000
,
1000
0100
0001
0100
1000
0010
0001
0010
,
1010
1000
1001
0000
0011
0001
1001
0000
,
0001
0100
0001
0000
1000
0100
1000
0000
0001
0010
0001
1000
0020
0000
0000
0000
,
1030
0000
0000
0000
0000
0000
0000
0000
0001
0010
0100
1000
0001
1000
0001
0100
,
0020
0000
0000
0000
,
0000
0000
0000
0000
,
0130
0000
0000
0000
;

//---------------dance-single - ----------------
#NOTES:
     dance-single:
     :
     Hard:
     12:
     0.569738,0.630101,0.630101,0.311344,0.103781,538.000000,453.000000,85.000000,42.000000,0.000000,0.000000,0.569738,0.630101,0.630101,0.311344,0.103781,538.000000,453.000000,85.000000,42.000000,0.000000,0.000000:
0000
0000
0000
0000
,
0000
0000
0000
0000
,
0000
0000
0000
0000
,
0000
0000
0000
0000
,
0000
0000
0000
0000
,
0000
0000
0000
0000
,
0000
0000
0000
0000
,
0000
0000
0000
0000
,
1000
0100
0010
0001
1000
0000
1100
0000
,
0001
0011
1000
1000
,
0001
0100
0010
1000
0001
0000
0101
0000
,
1000
1010
0001
0001
,
1000
0000
0000
1000
0000
0000
1000
0000
0100
0000
0000
0100
0000
0000
0100
0000
,
0010
0000
0000
0010
0000
0000
0010
0000
0001
0000
0000
0001
0000
0000
0001
0000
,
0100
0010
0100
0010
2000
0000
3002
0000
,
0013
0000
0000
0000
0010
0100
1000
0001
,
1000
0000
0000
0010
0000
0000
1000
0000
0010
0000
0100
0000
0001
0000
0000
0000
,
0010
0000
0000
0001
0000
0000
0010
0000
0100
0000
1000
0000
0001
0000
0000
0000
,
0101
1001
1100
1001
,
0001
0100
0001
0100
0010
1000
0100
0000
,
0001
0000
0000
0100
0000
0000
1000
0000
0001
0000
1000
0000
0001
0000
0000
0000
,
0100
0000
0000
1000
0000
0000
0100
0000
0001
0000
1000
0000
0001
0000
0000
0000
,
1000
0100
0010
0001
0100
0010
1000
0000
,
0101
0000
0101
0000
1000
0001
1000
0000
,
0001
0000
0000
0010
0000
0000
0001
0000
0010
0000
0100
0000
1000
0000
0000
0000
,
0010
0000
0000
1000
0000
0000
0010
0000
0100
0000
0001
0000
1000
0000
0000
0000
,
1100
1001
0101
1001
,
1000
0100
1000
0100
0010
0001
0100
0000
,
2010
0000
0000
0010
0000
0000
0010
0000
3010
0000
0000
0000
1001
0000
0000
0000
,
0012
0000
0000
0010
0000
0000
0010
0000
0013
0000
0000
0000
1001
0000
0000
0000
,
1000
0010
1000
0010
0001
0010
1000
0001
,
0020
0000
0000
0000
1030
0010
0001
0000
,
0011
0011
0011
0011
,
0012
1000
1000
0103
,
0101
0101
0101
0101
,
1002
0100
0010
1003
,
1010
1010
1010
1010
,
2010
0001
0001
3100
,
1100
1100
1100
1100
,
1200
0320
0032
2003
,
3001
0100
0001
0100
0001
0100
0001
0100
,
1000
1100
0110
0101
,
1000
0100
1000
0100
1000
0100
1000
0100
,
0001
1100
0011
1001
,
1000
0001
0100
0000
0001
1000
0100
0000
,
1000
0010
0100
0000
0001
0010
0100
0000
,
0010
0100
0010
0100
2000
0000
3002
0000
,
0103
0000
0000
0000
0100
0010
1000
0001
,
0020
0000
0000
0000
,
0230
0000
0000
0000
,
0310
0001
1000
0001
,
0200
0000
0000
0000
,
0320
0000
0000
0000
,
2030
0000
0000
0000
,
3002
0000
0000
0000
,
2003
0000
0000
0000
3001
0010
0100
1000
,
0020
0000
0000
0000
1030
0010
0100
0001
,
0020
0000
0000
0000
0130
1000
0001
1000
,
0010
0100
0001
1000
,
0200
0000
0000
0000
0310
0001
0100
0010
,
2000
0000
0000
0010
0000
0000
0010
0000
0010
0000
0000
0000
3001
0000
1000
0000
,
0002
0000
0000
0010
0000
0000
0010
0000
0010
0000
0000
0000
1003
0000
0001
0000
,
1000
0000
0000
0010
0000
0000
0100
0000
0001
0000
0000
0010
0000
0000
0100
0000
,
2000
0000
0000
0000
0000
0000
0000
0000
3001
0000
0000
1000
0000
0000
0001
0000
,
0100
0000
0000
0100
0000
0000
0100
0000
0010
0000
0000
0010
0000
0000
0010
0000
,
1000
0000
0000
1000
0000
0000
1000
0000
2002
0000
0000
0000
3003
0000
0000
0000
,
0001
0000
0000
0010
0000
0000
1000
0000
0010
0000
0001
0000
1000
0000
0000
0000
,
0010
0000
0000
0001
0000
0000
0010
0000
1000
0000
0001
0000
0010
0000
0000
0000
,
1100
0011
0101
1010
,
1000
0100
1000
0100
0010
0001
0100
0000
,
1000
0000
0000
0100
0000
0000
0010
0000
1000
0000
0001
0000
1000
0000
0000
0000
,
0100
0000
0000
0001
0000
0000
0100
0000
0010
0000
0001
0000
1000
0000
0000
0000
,
0001
0100
0010
1000
0100
0010
0001
0000
,
1100
0000
1100
0000
0001
1000
0001
0000
,
1000
0000
0000
0010
0000
0000
0001
0000
0010
0000
1000
0000
0001
0000
0000
0000
,
1000
0000
0000
0100
0000
0000
0001
0000
0100
0000
1000
0000
0001
0000
0000
0000
,
0101
1010
1100
0011
,
0001
0100
0001
0100
0010
1000
0100
0000
,
0012
0000
0000
0010
0000
0000
1000
0000
1003
0000
0000
0000
1001
0000
0000
0000
,
2010
0000
0000
0010
0000
0000
0001
0000
3001
0000
0000
0000
1001
0000
0000
0000
,
0001
0010
0001
0010
1000
0010
0001
1000
,
0020
0000
0000
0000
0031
0010
1000
0000
,
1010
0011
1010
0011
,
2010
0001
0001
3100
,
1100
0101
1100
0101
,
2001
0100
0010
3001
,
0011
1010
0011
1010
,
0012
1000
1000
0103
,
0101
1100
0101
1100
,
0102
2003
3200
0320
,
0031
0010
0100
0010
0001
0010
0100
0010
,
1000
1010
0110
0011
,
1000
0010
0100
0010
1000
0010
0100
0010
,
0001
1010
0101
1001
,
0001
1000
0100
0000
1000
0001
0100
0000
,
0001
0010
0100
0000
1000
0010
0100
0000
,
0010
0100
0010
0100
0002
0000
2003
0000
,
3100
0000
0000
0000
0100
1000
0001
0100
,
0020
0000
0000
0000
,
0000
0000
0000
0000
,
0130
0000
0000
0000
;

//---------------dance-single - ----------------
#NOTES:
     dance-single:
     :
     Medium:
     9:
     0.418302,0.555972,0.385474,0.200150,0.000000,395.000000,343.000000,52.000000,27.000000,0.000000,0.000000,0.418302,0.555972,0.385474,0.200150,0.000000,395.000000,343.000000,52.000000,27.000000,0.000000,0.000000:
0000
0000
0000
0000
,
0000
0000
0000
0000
,
0000
0000
0000
0000
,
0000
0000
0000
0000
,
0000
0000
0000
0000
,
0000
0000
0000
0000
,
0000
0000
0000
0000
,
0000
0000
0000
0000
,
1000
0100
0110
0000
,
1000
0000
0001
0100
,
0110
0000
0001
0000
,
1000
0100
0010
0001
,
1001
0000
0101
0000
,
1001
0000
1100
0000
,
1000
0010
1000
0001
,
0020
0000
0000
0000
0130
0010
0100
0000
,
1000
0000
0010
0000
0100
0001
1000
0000
,
0001
0000
0010
0000
0100
1000
0001
0000
,
1000
1010
0001
0011
,
1000
0100
1000
0100
0010
0000
0110
0000
,
1000
0000
1000
0000
0001
0100
0010
0000
,
1000
0000
1000
0000
0100
0010
0001
0000
,
1000
0010
1000
0000
0001
0010
0001
0010
,
0100
1000
0010
1000
,
0001
0000
0010
0000
0100
1000
0001
0000
,
1000
0000
0010
0000
0100
0001
1000
0000
,
0001
0011
1000
1010
,
0001
0100
0001
0100
0010
0000
0110
0000
,
1000
0010
1000
0000
0010
0000
0100
0000
,
0001
0010
0001
0000
0010
0000
0100
0000
,
1000
0000
0001
0000
1000
0001
1000
0000
,
2002
0000
0000
3003
,
0001
0100
0001
0100
,
0110
0000
0110
0000
,
1000
0010
1000
0010
,
0110
0000
1001
0000
,
1000
0100
1000
0100
,
0110
0000
0110
0000
,
0001
0010
0001
0010
,
0110
0000
1001
1000
,
0001
0100
0010
1000
,
0001
0011
1100
0011
,
1000
0010
0100
0001
,
1000
1100
0101
1100
,
0001
0100
0001
0000
0100
0000
0010
0000
,
1000
0010
1000
0000
0100
0000
0010
0000
,
0001
1000
0010
0100
,
0002
0000
0000
0000
1003
0001
1000
0000
,
0200
0000
0000
0000
,
0320
0000
0000
0000
,
0031
0010
0100
1000
,
0002
0000
0000
0000
,
0203
0000
0000
0000
,
0320
0000
0000
0000
,
2030
0000
0000
0000
,
3002
0000
1003
0001
,
0020
0000
0031
1000
,
0020
0000
1030
0001
,
0010
0100
0010
0100
,
2000
0000
3010
0100
,
0001
0001
0010
0100
,
1000
1000
0010
0100
,
0001
1000
0001
1000
,
0002
0000
1003
0100
,
0022
0033
0202
0303
,
2020
3030
2200
3300
,
0001
0000
0010
0000
1000
0010
0001
0000
,
1000
0000
0010
0000
0001
0010
1000
0000
,
0001
0101
1000
1100
,
0001
0100
0001
0100
0010
0000
0110
0000
,
0001
0000
0010
0000
0100
1000
0010
0000
,
1000
0000
0010
0000
0100
0001
0010
0000
,
0100
0010
0100
0000
1000
0001
1000
0001
,
0100
0010
1000
0001
,
1000
0000
0100
0000
0001
0100
1000
0000
,
0001
0000
0100
0000
1000
0100
0001
0000
,
1000
1010
0001
0011
,
1000
0100
1000
0100
0010
0000
0110
0000
,
0001
0010
0001
0000
0010
0000
0100
0000
,
1000
0010
1000
0000
0010
0000
0100
0000
,
0001
0000
1000
0000
0001
1000
0001
0000
,
2002
0000
0000
3003
,
1000
0100
0010
0001
,
0110
0000
0110
0000
,
0001
0010
0100
1000
,
0011
0000
1010
0000
,
0001
0100
0010
1000
,
0110
0000
0110
0000
,
1000
0010
0100
0001
,
1010
0000
0011
0001
,
1000
0010
0001
0010
,
1000
1010
0101
1010
,
0001
0010
1000
0010
,
0001
0101
1100
0101
,
1000
0100
1000
0000
0100
0000
0010
0000
,
0001
0010
0001
0000
0100
0000
0010
0000
,
1000
0001
0010
0100
,
2000
0000
0000
0000
3001
1000
0001
0000
,
0200
0000
0000
0000
,
0000
0000
0000
0000
,
0310
0000
0000
0000
;

//---------------dance-single - ----------------
#NOTES:
     dance-single:
     :
     Easy:
     6:
     0.283810,0.370648,0.118607,0.192737,0.000000,268.000000,252.000000,16.000000,26.000000,0.000000,0.000000,0.283810,0.370648,0.118607,0.192737,0.000000,268.000000,252.000000,16.000000,26.000000,0.000000,0.000000:
0000
0000
0000
0000
,
0000
0000
0000
0000
,
0000
0000
0000
0000
,
0000
0000
0000
0000
,
0000
0000
0000
0000
,
0000
0000
0000
0000
,
0000
0000
0000
0000
,
0000
0000
0000
0000
,
1000
1000
0100
0000
,
0010
0000
0001
0001
,
0100
0000
0010
0000
,
1000
0001
1000
0000
,
0100
0000
0100
0000
,
0010
0000
0010
0000
,
0100
1000
0001
1000
,
0002
0000
0000
0003
,
1000
0010
1000
0000
,
1000
0010
1000
0000
,
0010
0100
0001
1000
,
0100
0000
0110
0000
,
0001
1000
0010
0000
,
1000
0001
0010
0000
,
0100
1000
0001
0100
,
0010
1000
1000
0000
,
0001
0010
0001
0000
,
0001
0010
0001
0000
,
0010
0100
1000
0001
,
0100
0000
0110
0000
,
1000
1000
0010
0000
,
0001
0001
0010
0000
,
1000
1000
0001
0001
,
2002
0000
0000
3003
,
1000
1000
1000
1000
,
0100
0000
0110
0000
,
0001
0001
0001
0001
,
0010
0000
1001
0000
,
0001
0001
0001
0001
,
0100
0000
0110
0000
,
1000
1000
1000
1000
,
0010
0000
1001
0001
,
0010
0100
0010
0100
,
0010
0001
0001
0000
,
0100
0010
0100
0010
,
1000
0001
0001
0000
,
1000
0100
1000
0001
,
0100
0001
1000
0000
,
0100
0010
0100
0010
,
0200
0000
0000
0300
,
2000
0000
0000
0000
,
3002
0000
0000
0000
,
1003
0000
0010
0000
,
0200
0000
0000
0000
,
0302
0000
0000
0000
,
2003
0000
0000
0000
,
3200
0000
0000
0000
,
0320
0000
0031
0000
,
2002
0000
3003
0000
,
2002
0000
3003
0000
,
0001
0000
0100
0000
,
0020
0000
0030
0000
,
1000
1000
0001
0000
,
0001
0001
1000
0000
,
0001
0010
0100
1000
,
0002
0000
0000
0003
,
0200
0000
0320
0000
,
0230
0000
0320
2030
,
3001
0010
0100
0000
,
0100
0010
0001
0000
,
0010
0001
0100
0001
,
0010
0000
0110
0000
,
1000
0010
0100
0000
,
0001
0010
0100
0000
,
1000
0010
0100
0001
,
1000
0001
0001
0000
,
1000
0100
0010
0000
,
0010
0100
1000
0000
,
0100
1000
0010
0100
,
0001
0000
1001
0000
,
0001
0001
0010
0000
,
1000
1000
0010
0000
,
0001
0001
1000
1000
,
2002
0000
0000
3003
,
0001
0001
0001
0001
,
0010
0000
0011
0000
,
0001
0001
0001
0001
,
0100
0000
1001
0000
,
1000
1000
1000
1000
,
0010
0000
1010
0000
,
1000
1000
1000
1000
,
0100
0000
1100
0001
,
1000
0010
0100
0001
,
1000
0100
0100
0000
,
0010
0001
1000
0010
,
0100
0001
0001
0000
,
0010
0100
0010
0100
,
1000
0001
1000
0001
,
1000
0010
0100
0001
,
2000
0000
0000
3000
,
0200
0000
0000
0000
,
0000
0000
0000
0000
,
0310
0000
0000
0000
;

//---------------dance-single - ----------------
#NOTES:
     dance-single:
     :
     Beginner:
     2:
     0.138728,0.222389,0.103781,0.148259,0.000000,131.000000,117.000000,14.000000,20.000000,0.000000,0.000000,0.138728,0.222389,0.103781,0.148259,0.000000,131.000000,117.000000,14.000000,20.000000,0.000000,0.000000:
// measure 0
0000
0000
0000
0000
,  // measure 1
0000
0000
0000
0000
,  // measure 2
0000
0000
0000
0000
,  // measure 3
0000
0000
0000
0000
,  // measure 4
0000
0000
0000
0000
,  // measure 5
0000
0000
0000
0000
,  // measure 6
0000
0000
0000
0000
,  // measure 7
0000
0000
0000
0000
,  // measure 8
1000
0000
0000
0000
,  // measure 9
0100
0000
0000
0000
,  // measure 10
0010
0000
0000
0000
,  // measure 11
0001
0000
0000
0000
,  // measure 12
0100
0000
0100
0000
,  // measure 13
0100
0000
0100
0000
,  // measure 14
0200
0000
0300
0000
,  // measure 15
1001
0000
0000
0000
,  // measure 16
0001
0000
0000
0000
,  // measure 17
0001
0000
0000
0000
,  // measure 18
0010
0000
0001
0000
,  // measure 19
0100
0000
0000
0000
,  // measure 20
0010
0000
0000
0000
,  // measure 21
0010
0000
0000
0000
,  // measure 22
1000
0000
0001
0000
,  // measure 23
0001
0000
0000
0000
,  // measure 24
1000
0000
0000
0000
,  // measure 25
1000
0000
0000
0000
,  // measure 26
0010
0000
1000
0000
,  // measure 27
0100
0000
0000
0000
,  // measure 28
1001
0000
0000
0000
,  // measure 29
1001
0000
0000
0000
,  // measure 30
0010
0000
0010
0000
,  // measure 31
1001
0000
0000
0000
,  // measure 32
0002
0000
0003
0000
,  // measure 33
0001
0000
0001
0000
,  // measure 34
0200
0000
0300
0000
,  // measure 35
0100
0000
0100
0000
,  // measure 36
0020
0000
0030
0000
,  // measure 37
0010
0000
0010
0000
,  // measure 38
2000
0000
3000
0000
,  // measure 39
1000
0000
0001
0000
,  // measure 40
1001
0000
0000
0000
,  // measure 41
0010
0000
0010
0000
,  // measure 42
1001
0000
0000
0000
,  // measure 43
0100
0000
0100
0000
,  // measure 44
1000
0000
0001
0000
,  // measure 45
1000
0000
0001
0000
,  // measure 46
0200
0000
0300
0000
,  // measure 47
1001
0000
0000
0000
,  // measure 48
0002
0000
0003
0000
,  // measure 49
0002
0000
0003
0000
,  // measure 50
0020
0000
0030
0000
,  // measure 51
0200
0000
0300
0000
,  // measure 52
2000
0000
3000
0000
,  // measure 53
2000
0000
3000
0000
,  // measure 54
0020
0000
0030
0000
,  // measure 55
0200
0000
0300
0000
,  // measure 56
0001
0000
0000
0000
,  // measure 57
1000
0000
0000
0000
,  // measure 58
0100
0000
0000
0000
,  // measure 59
0010
0000
0000
0000
,  // measure 60
0001
0000
0000
0000
,  // measure 61
0001
0000
0000
0000
,  // measure 62
1000
0000
0001
0000
,  // measure 63
2000
0000
3000
0000
,  // measure 64
1001
0000
0000
0000
,  // measure 65
0000
0000
0000
0000
,  // measure 66
1000
0000
0000
0000
,  // measure 67
0010
0000
0000
0000
,  // measure 68
0100
0000
0001
0000
,  // measure 69
0010
0000
0000
0000
,  // measure 70
0100
0000
0000
0000
,  // measure 71
0100
0000
0000
0000
,  // measure 72
1000
0000
0001
0000
,  // measure 73
1000
0000
0000
0000
,  // measure 74
0001
0000
0000
0000
,  // measure 75
0010
0000
0000
0000
,  // measure 76
0100
0000
1000
0000
,  // measure 77
0010
0000
0000
0000
,  // measure 78
1001
0000
0000
0000
,  // measure 79
1001
0000
0000
0000
,  // measure 80
0010
0000
0010
0000
,  // measure 81
1001
0000
0000
0000
,  // measure 82
2000
0000
3000
0000
,  // measure 83
1000
0000
1000
0000
,  // measure 84
0200
0000
0300
0000
,  // measure 85
0100
0000
0100
0000
,  // measure 86
0020
0000
0030
0000
,  // measure 87
0010
0000
0010
0000
,  // measure 88
0002
0000
0003
0000
,  // measure 89
0001
0000
1000
0000
,  // measure 90
1001
0000
0000
0000
,  // measure 91
0010
0000
0010
0000
,  // measure 92
1001
0000
0000
0000
,  // measure 93
0100
0000
0100
0000
,  // measure 94
0001
0000
1000
0000
,  // measure 95
0001
0000
1000
0000
,  // measure 96
0200
0000
0300
0000
,  // measure 97
1001
0000
0000
0000
,  // measure 98
0000
0000
0000
0000
,  // measure 99
0000
0000
0000
0000
,  // measure 100
0010
0000
0000
0000
;
