#VERSION:0.83;
#TITLE:Antigravity;
#SUBTITLE:;
#ARTIST:t+pazolite;
#TITLETRANSLIT:;
#SUBTITLETRANSLIT:;
#ARTISTTRANSLIT:;
#GENRE:Hardcore Dance Speed;
#ORIGIN:;
#CREDIT:;
#BANNER:Antigravity.png;
#BACKGROUND:Antigravity-bg.png;
#PREVIEWVID:;
#JACKET:Antigravity-jacket.png;
#CDIMAGE:;
#DISCIMAGE:;
#LYRICSPATH:;
#CDTITLE:cdtitle.png;
#MUSIC:Antigravity.ogg;
#OFFSET:-1.334000;
#SAMPLESTART:53.225891;
#SAMPLELENGTH:17.297302;
#SELECTABLE:YES;
#DISPLAYBPM:111.000000:222.000000;
#BPMS:0.000=111.000,
14.000=444.000,
15.000=222.000,
79.000=111.000,
95.000=222.000;
#STOPS:14.000=0.236,
14.250=0.236,
14.500=0.236,
14.750=0.236,
154.750=0.811;
#DELAYS:;
#WARPS:;
#TIMESIGNATURES:0.000=4=4;
#TICKCOUNTS:0.000=4;
#COMBOS:0.000=1;
#SPEEDS:0.000=1.000=0.000=0;
#SCROLLS:0.000=1.000,
154.750=0.000,
155.000=2.000,
155.250=1.000,
155.500=0.500,
156.000=1.000,
291.000=2.000,
291.250=1.000,
291.500=0.500,
292.000=1.000;
#FAKES:;
#LABELS:0.000=Song Start;
#BGCHANGES:-2.000=Antigravity.mp4=1.000=1=0=1===CrossFade==,
99999=-nosongbg-=1.000=0=0=0 // don't automatically add -songbackground-
;
#KEYSOUNDS:;
#ATTACKS:
;

//---------------dance-single - ----------------
#NOTEDATA:;
#CHARTNAME:;
#STEPSTYPE:dance-single;
#DESCRIPTION:;
#CHARTSTYLE:;
#DIFFICULTY:Hard;
#METER:15;
#RADARVALUES:0.740821,0.741004,0.497146,0.634289,0.115715,605.000000,547.000000,58.000000,74.000000,0.000000,0.000000,0.000000,0.000000,0.000000,0.740821,0.741004,0.497146,0.634289,0.115715,605.000000,547.000000,58.000000,74.000000,0.000000,0.000000,0.000000,0.000000,0.000000;
#CREDIT:;
#OFFSET:-1.334000;
#BPMS:0.000000=111.000000
,14.000000=444.000000
,15.000000=222.000000
,79.000000=111.000000
,95.000000=222.000000
;
#STOPS:14.000000=0.236486
,14.250000=0.236486
,14.500000=0.236486
,14.750000=0.236486
,154.500000=0.810809
;
#DELAYS:;
#WARPS:;
#TIMESIGNATURES:0.000000=4=4
;
#TICKCOUNTS:0.000000=4
;
#COMBOS:0.000000=1
;
#SPEEDS:0.000000=1.000000=0.000000=0
;
#SCROLLS:0.000000=1.000000
,154.500000=0.000000
,155.000000=2.000000
,155.250000=1.000000
,155.500000=0.500000
,156.000000=1.000000
,291.000000=4.000000
,291.250000=0.500000
,292.000000=1.000000
;
#FAKES:;
#LABELS:0.000000=Song Start
;
#DISPLAYBPM:111.000000:222.000000;
#NOTES:
0000
0000
0000
0000
,
0000
0000
0000
0000
,
1000
0100
0010
0000
0001
0100
0010
0000
,
1000
0000
0100
0000
0010
0000
0002
0000
2000
0000
0000
3003
0001
0000
0100
0000
,
0001
0100
0001
1000
0100
2000
0000
3001
,
0100
0001
0010
0000
1001
0000
0001
0100
,
0010
0000
1000
0000
0001
0000
1000
0000
0100
0000
0020
0000
0000
0000
0230
0300
,
0020
0030
0200
0300
1000
0000
0001
0000
0100
0000
0010
0000
1000
0000
0001
0000
,
1000
0001
0010
0001
1000
0020
0000
1030
,
0010
1000
0100
0000
1001
0000
1000
0010
,
0100
0001
0010
0100
1000
0000
1001
0000
,
1001
0000
1000
0010
0100
0001
1000
0100
,
1000
0100
1000
0001
0100
0002
0000
1003
,
0100
1000
0010
0000
1001
0000
1000
0100
,
0010
0000
0001
0000
1000
0000
0001
0000
0100
0000
0020
0000
0000
0000
0230
0300
,
0020
0030
0200
0300
0001
0000
1000
0000
0100
0000
0010
0000
0001
0000
1000
0000
,
0001
1000
0010
1000
0001
0020
0000
0031
,
0010
0001
0100
0000
1001
0000
0001
0100
,
0010
1000
0100
0010
0001
1000
0010
0100
,
0001
1000
0001
0000
0010
0000
0012
1000
,
2000
0000
0000
0000
3003
0000
1000
0001
1000
0000
0010
0000
2010
0000
0001
0000
,
0002
0000
0000
0000
3003
0000
0001
1000
0001
0000
0010
0000
0012
0000
1000
0000
,
2000
0000
0000
0000
3003
0000
1000
0001
1000
0000
0010
0000
1010
0000
0110
0000
,
0202
0000
0000
0000
0303
0000
0001
1000
0001
0000
1000
0000
0200
0000
0000
0000
,
0010
0000
1000
1300
0000
1100
0000
0000
,
1000
0001
1000
0000
0001
0000
0200
0000
,
0010
0000
0001
0301
0000
0101
0000
0000
,
0001
1000
0001
0000
0010
0000
0012
0000
,
1000
0000
0103
0010
0000
0010
2010
0000
,
0001
0000
3100
0010
0000
0010
0011
0000
,
1000
0002
0003
0100
0010
2000
0000
3010
,
1000
0010
1000
0100
0010
0001
2000
0000
,
3001
0100
0001
0000
1000
0000
0002
0000
,
1003
0100
1000
0000
0001
0000
2000
0000
,
3001
0100
1000
0000
0100
0000
0002
0000
,
1003
0100
0001
0000
0100
0000
2100
0000
,
3001
0012
1003
2010
,
3001
0000
0102
0000
1003
0000
0001
0010
,
0100
0000
0000
0000
1000
0000
0000
0000
0001
0000
0000
0000
0010
0000
0000
0000
0100
0000
0000
0000
2000
0000
0000
0000
0000
3000
0000
0000
0000
0000
0000
0000
,
0001
0000
0100
0000
0001
0000
0100
0000
0010
0000
0000
0100
0000
0000
2000
0000
,
0000
3100
0010
0100
0001
0000
1000
0001
,
1000
0000
0100
0000
1000
0000
0100
0000
0010
0000
0000
0100
0000
0000
0002
0000
,
0000
0103
0010
0100
1000
0000
0001
0001
,
1000
0000
0010
0000
1000
0000
0010
0000
0100
0000
0000
0010
0000
0000
0002
0000
,
0000
0013
0100
0010
1000
0000
0001
1000
,
0001
0010
0100
1000
0001
0100
0010
2000
,
0000
3010
1000
0200
0001
0000
1300
0000
,
0001
0000
0100
0000
0010
0000
0100
0000
1000
0000
0000
0001
0000
0000
0020
0000
,
0000
0130
0010
1000
0002
0000
1003
1000
,
0001
0000
0010
0000
0100
0000
0010
0000
1000
0000
0000
0001
0000
0000
0200
0000
,
0000
0310
0100
1000
0001
1000
1001
0000
,
0001
0000
0100
0000
0001
0000
0100
0000
1000
0000
0000
0100
0000
0000
0101
0000
,
0000
0000
0001
0000
1000
0000
0100
0000
0001
0000
0000
0100
0000
0000
1100
0000
,
0000
1000
0001
0100
0010
1000
0001
0000
,
2000
3000
0200
0300
0020
0030
0002
0003
,
0011
1100
0011
1000
,
1010
0000
0101
0000
1010
1000
0001
1000
,
1100
0011
1100
0001
,
1000
0010
1000
0010
0200
0302
0023
0030
,
0001
0100
0010
0100
0001
0010
0100
0010
,
0001
0100
0010
0100
0001
0010
1000
0010
,
0001
0100
0010
1000
0001
1000
0100
0010
,
0011
0000
1100
0000
0001
0010
0100
1000
,
1001
0000
0000
1001
0000
0000
0001
0000
0100
0000
0000
0000
1001
0000
0000
0000
,
1001
0000
0000
0000
0001
0000
0010
0000
0001
0000
0000
0100
0000
0000
0001
0000
,
1001
0000
0000
1001
0000
0000
1000
0000
0100
0000
0000
0000
1001
0000
0000
0000
,
1001
0000
1000
0010
1000
0100
0010
0000
,
0001
0000
0000
0010
0000
0000
0001
0000
0000
0100
0000
0000
0110
0000
0000
0000
,
1000
0000
0000
0010
0000
0000
1000
0000
0000
0100
0000
0000
0110
0000
0000
0000
,
0001
0010
0001
0010
0001
0100
2000
0000
,
3001
0010
1000
0010
1000
0100
0001
0100
,
1000
0000
0002
0000
0203
0000
0320
0000
2030
0000
3000
0002
0000
0003
0020
0000
,
0000
0000
0031
1001
,
0001
0000
0100
0000
0001
0000
0100
0000
0010
0000
0000
0001
0000
0000
0022
0000
,
0033
0010
0100
0010
1000
0000
0001
0001
,
1000
0000
0100
0000
1000
0000
0100
0000
0010
0000
0000
1000
0000
0000
2020
0000
,
3030
0010
0100
0010
0001
0000
1000
0001
,
1000
0010
0100
0001
1000
0100
0010
0002
,
0000
0013
0001
0200
1000
0000
0301
0000
,
1000
0000
0100
0000
0001
0000
1000
0000
0010
0000
0000
0001
0000
0000
2002
0000
,
3003
1000
0100
0010
0002
0000
1003
0000
,
0001
0000
0100
0000
1000
0000
0001
0000
0010
0000
0000
1000
0000
0000
2002
0000
,
3003
0001
0100
0001
1000
0100
0110
0000
,
0001
0000
0010
0000
0001
0000
0010
0000
1000
0000
0000
0010
0000
0000
0011
0000
,
0000
0000
0001
0000
1000
0000
0010
0000
0001
0000
0000
0010
0000
0000
1010
0000
,
0000
0001
1000
0100
0010
0001
0010
0100
,
1000
0000
0001
0100
0020
0000
1030
0000
,
1001
0000
0000
1001
0000
0000
0001
0000
1000
0000
0200
0000
0000
0000
0310
0000
,
1001
0000
0000
0000
0001
0000
1000
0000
0001
0000
0000
0200
0000
0000
0010
0000
,
0310
0000
1001
0000
0100
0010
1001
0000
,
1000
0100
0001
1000
0010
0001
0200
0000
,
1300
0000
0000
0000
;

//---------------dance-single - ----------------
#NOTEDATA:;
#CHARTNAME:;
#STEPSTYPE:dance-single;
#DESCRIPTION:;
#CHARTSTYLE:;
#DIFFICULTY:Medium;
#METER:12;
#RADARVALUES:0.557146,0.741004,0.377145,0.685718,0.085715,455.000000,411.000000,44.000000,80.000000,0.000000,0.000000,0.000000,0.000000,0.000000,0.557146,0.741004,0.377145,0.685718,0.085715,455.000000,411.000000,44.000000,80.000000,0.000000,0.000000,0.000000,0.000000,0.000000;
#CREDIT:;
#OFFSET:-1.334000;
#BPMS:0.000000=111.000000
,14.000000=222.000000
,79.000000=111.000000
,95.000000=222.000000
;
#STOPS:14.000000=0.810811
,155.000000=0.810813
;
#DELAYS:;
#WARPS:;
#TIMESIGNATURES:0.000000=4=4
;
#TICKCOUNTS:0.000000=4
;
#COMBOS:0.000000=1
;
#SPEEDS:0.000000=1.000000=0.000000=0
;
#SCROLLS:0.000000=1.000000
;
#FAKES:;
#LABELS:0.000000=Song Start
;
#DISPLAYBPM:111.000000:222.000000;
#NOTES:
0000
0000
0000
0000
,
0000
0000
0000
0000
,
1000
0100
0010
0000
0001
0100
0010
0000
,
1000
0000
0000
0000
0100
0000
0000
0000
0010
0000
0000
0000
0002
0000
0000
0000
2000
3003
0000
0000
0000
0000
0000
0000
0001
0000
0000
0000
0000
0000
0000
0000
,
0100
0000
0001
0000
1000
0200
0000
1300
,
0010
1000
1001
0001
,
0010
0000
0000
0000
0100
0000
0000
0000
1000
0000
0002
0000
0000
0000
0203
0300
,
0020
0030
0200
0300
0001
0000
0000
0000
1000
0000
0000
0000
0001
0000
0000
0000
,
0010
0000
0001
0000
1000
0020
0000
1030
,
0100
1000
1001
0001
,
0100
0000
0001
0100
0010
1000
0002
0003
,
2000
3000
0002
0003
1000
0001
1000
0000
,
0100
0000
1000
0000
0001
0200
0000
0301
,
0010
0001
1001
1000
,
0010
0000
0000
0000
0100
0000
0000
0000
0001
0000
2000
0000
0000
0000
3200
0300
,
0020
0030
0200
0300
1000
0000
0000
0000
0001
0000
0000
0000
1000
0000
0000
0000
,
0010
0000
1000
0000
0001
0020
0000
0031
,
0100
0001
1001
1000
,
0100
0000
0010
0000
0001
0100
0010
0000
,
1000
0100
0010
0000
0001
0000
0012
0010
,
2000
0000
0000
0000
3003
0000
0001
0100
0010
0000
1000
0000
2010
0000
0010
0000
,
0002
0000
0000
0000
3003
0000
1000
0100
0010
0000
0001
0000
0012
0000
0010
0000
,
2000
0000
0000
0000
3003
0000
0001
0100
0010
0000
0100
0000
0110
0000
0110
0000
,
2002
0000
0000
0000
3003
0000
1000
0001
1000
0000
0100
0000
0020
0000
0000
0000
,
0230
0000
0310
0001
0000
0011
0000
0000
,
0001
1000
0001
0000
0100
0000
0020
0000
,
0230
0000
0310
1000
0000
1010
0000
0000
,
1000
0001
1000
0000
0100
0000
0012
0000
,
1000
1003
0000
2010
,
0001
3001
0000
0011
,
0000
1010
0000
0001
0010
0200
0000
0000
,
0010
0010
0310
0100
,
1000
1000
0001
0100
,
0001
0001
1000
0100
,
0010
0010
0001
0100
,
0010
0010
1000
0002
,
0013
0020
0130
0200
,
1300
2000
3001
2000
,
3020
0000
0000
0000
0000
0000
0000
0000
0230
0000
0000
0000
0000
0000
0000
0000
0302
0000
0000
0000
0000
0000
0000
0000
0000
0003
0000
0000
0000
0000
0000
0000
,
1000
0000
0000
0000
1000
0000
0000
0000
0100
0000
0000
0010
0000
0000
0002
0000
,
0000
0103
0010
0000
0100
0010
1000
0000
,
0001
0000
0000
0000
0001
0000
0000
0000
0100
0000
0000
0010
0000
0000
2000
0000
,
0000
3100
0010
0000
0001
1000
0001
0000
,
0100
0000
0000
0000
0100
0000
0000
0000
0010
0000
0000
1000
0000
0000
0002
0000
,
0000
1003
0100
0000
0010
0001
1000
0000
,
0001
0000
0100
0000
0001
0100
0010
2000
,
0000
0000
3010
1000
0100
0000
0110
0000
,
0001
0000
0000
0000
0001
0000
0000
0000
1000
0000
0000
0010
0000
0000
0002
0000
,
0000
0013
1000
0000
0001
1000
0001
0000
,
1000
0000
0000
0000
1000
0000
0000
0000
0001
0000
0000
0010
0000
0000
2000
0000
,
0000
3010
0001
0000
1001
0000
1001
0000
,
0001
0000
0000
0000
0100
0000
0000
0000
0010
0000
0000
1000
0000
0000
2010
0000
,
0000
0000
0000
0000
3100
0000
0000
0000
0010
0000
0000
0001
0000
0000
0012
0000
,
0000
0000
0103
0000
0010
0100
0001
0000
,
2000
0000
0000
3000
,
0001
0001
0001
0011
,
1000
0000
1000
0000
0100
0010
0001
0000
,
1000
1000
1000
1010
,
0002
0000
0203
0000
0320
2030
3002
0003
,
1000
1100
0001
0101
,
1000
0000
1100
0000
0001
0000
1000
0010
,
1000
0000
0001
0000
0010
0100
0010
0000
,
0200
2300
3002
0203
,
0320
0000
0130
0101
,
1010
0000
0000
0000
0010
0000
1000
0000
0100
0000
0000
0010
0000
0000
0100
0000
,
0020
0000
0130
1100
,
0011
0000
0010
0001
0100
0010
1000
0000
,
2010
0000
0000
0001
0000
0000
3100
0010
,
0002
0000
0000
1000
0000
0000
0103
0010
,
2000
3200
0302
2003
,
3010
0000
0001
0000
1000
0100
1000
0100
,
0010
0000
0000
0000
0001
0000
0000
0000
0100
0000
0000
0010
0000
0000
2000
0000
,
0000
0000
3000
0110
,
1001
0000
0000
0000
1000
0000
0000
0000
0100
0000
0000
0010
0000
0000
0002
0000
,
0000
0103
0010
0000
1000
0001
1000
0000
,
0100
0000
0000
0000
0100
0000
0000
0000
0010
0000
0000
0001
0000
0000
2000
0000
,
0000
3001
0100
0000
0010
1000
0001
0000
,
1000
0000
0100
0000
1000
0100
0010
0002
,
0000
0000
0013
0001
0100
0000
0110
0000
,
1000
0000
0000
0000
1000
0000
0000
0000
0001
0000
0000
0010
0000
0000
2000
0000
,
0000
3001
0100
0000
1000
0100
1000
0000
,
0001
0000
0000
0000
0001
0000
0000
0000
1000
0000
0000
0010
0000
0000
0002
0000
,
0000
1003
0100
0000
0101
0000
0101
0000
,
1000
0000
0000
0000
0100
0000
0000
0000
0010
0000
0000
0001
0000
0000
0012
0000
,
0000
0000
0000
0000
0103
0000
0000
0000
0010
0000
0000
1000
0000
0000
2010
0000
,
0000
0000
3100
0000
0010
0100
1000
0000
,
0002
0003
0101
1010
,
2001
0000
0000
3100
0010
0100
0000
0000
,
1002
0000
0000
0000
0000
0000
0103
0000
0010
0000
0000
0100
0000
0000
0000
0000
,
2001
3010
2001
3100
,
2000
0000
3010
1000
0100
1000
0010
0000
,
0100
0000
0000
0000
;

//---------------dance-single - ----------------
#NOTEDATA:;
#CHARTNAME:;
#STEPSTYPE:dance-single;
#DESCRIPTION:;
#CHARTSTYLE:;
#DIFFICULTY:Easy;
#METER:9;
#RADARVALUES:0.371023,0.390002,0.257144,0.522860,0.000000,303.000000,273.000000,30.000000,61.000000,0.000000,0.000000,0.000000,0.000000,0.000000,0.371023,0.390002,0.257144,0.522860,0.000000,303.000000,273.000000,30.000000,61.000000,0.000000,0.000000,0.000000,0.000000,0.000000;
#CREDIT:;
#OFFSET:-1.334000;
#BPMS:0.000000=111.000000
,14.000000=222.000000
,79.000000=111.000000
,95.000000=222.000000
;
#STOPS:14.000000=0.810811
,155.000000=0.810813
;
#DELAYS:;
#WARPS:;
#TIMESIGNATURES:0.000000=4=4
;
#TICKCOUNTS:0.000000=4
;
#COMBOS:0.000000=1
;
#SPEEDS:0.000000=1.000000=0.000000=0
;
#SCROLLS:0.000000=1.000000
;
#FAKES:;
#LABELS:0.000000=Song Start
;
#DISPLAYBPM:111.000000:222.000000;
#NOTES:
0000
0000
0000
0000
,
0000
0000
0000
0000
,
1000
0100
1000
0100
,
0010
0000
0000
0000
0000
0000
0000
0000
0002
0000
0000
0000
0000
0000
0000
0000
2000
3003
0000
0000
0000
0000
0000
0000
0001
0000
0000
0000
0000
0000
0000
0000
,
0100
0000
0001
0000
0000
0200
0000
0000
,
0310
1000
0000
0001
,
0010
0000
0001
0000
0000
0020
0000
0000
,
0130
1000
0000
0001
,
0001
0000
0100
0000
0000
0020
0000
0000
,
1030
0001
0000
1000
,
0100
0010
0001
0200
,
0000
0301
0001
1000
,
0100
0000
1000
0000
0000
0200
0000
0000
,
0310
0001
0000
1000
,
0010
0000
1000
0000
0000
0020
0000
0000
,
0130
0001
0000
1000
,
1000
0000
0100
0000
0000
0020
0000
0000
,
0031
1000
0000
0001
,
0100
0001
0100
0010
,
1000
0100
0000
1002
,
0200
0303
0100
2001
,
0200
3300
0100
1002
,
0200
0303
0100
1010
,
0022
0033
1000
0001
,
0000
0000
0100
0000
0000
0020
0000
0000
,
0130
0010
0000
1000
,
0000
0000
0100
0000
0000
0020
0000
0000
,
0130
0010
0000
0012
,
0000
1003
0000
2010
,
0000
3001
0000
0011
,
0000
1010
0000
0000
0000
0101
0000
0000
,
1000
0100
0010
0001
,
0001
0001
0000
0100
,
0100
0100
0000
1000
,
1000
1000
0000
0010
,
0010
0010
0000
0002
,
0003
2000
3000
0002
,
0003
2000
3000
0002
,
2003
3002
2003
3000
,
1000
0000
0100
0000
0010
0000
0000
0002
,
0000
0013
0100
1000
,
0001
0000
0100
0000
0010
0000
0000
2000
,
0000
3010
0100
0001
,
1000
0000
0100
0000
0010
0000
0000
0002
,
0000
0013
0100
1000
,
0001
0000
0100
0000
0010
0000
0000
2010
,
0000
0001
3001
0000
,
0001
0000
0010
0000
0100
0000
0000
0002
,
0000
0103
0010
0001
,
1000
0000
0010
0000
0100
0000
0000
2000
,
0000
3100
0010
1000
,
0001
0000
0010
0000
0100
0000
0000
0210
,
0000
0000
1300
0000
0010
0000
0000
0210
,
0000
0301
1000
0001
,
0020
0000
0000
0030
,
0001
0001
0101
0000
,
1000
1000
1100
0000
,
0001
0001
0011
0000
,
1000
0010
2002
3003
,
0001
0100
0001
1000
,
0100
1000
0001
0100
,
0010
1000
0100
0010
,
0002
0000
1000
1003
,
0001
0000
0101
0000
,
0001
0100
1010
0000
,
1000
0000
1100
0000
,
1000
0100
0010
0001
,
0022
0000
0033
1000
,
2020
0000
3030
0001
,
0020
0230
0320
0030
,
0002
0023
0230
2300
,
3001
0000
0100
0000
0010
0000
0000
0200
,
0000
0000
0300
1001
,
1000
0000
0100
0000
0010
0000
0000
0002
,
0000
0013
0100
1000
,
0001
0000
0100
0000
0010
0000
0000
2000
,
0000
3010
0100
0001
,
1000
0000
0100
0000
0010
0000
0000
0012
,
0000
1000
1003
0000
,
1000
0000
0010
0000
0001
0000
0000
2000
,
0000
3100
0001
1000
,
0001
0000
0010
0000
1000
0000
0000
0002
,
0000
0103
1000
0001
,
1000
0000
0010
0000
0100
0000
0000
0210
,
0000
0000
0301
0000
0010
0000
0000
0210
,
0000
1300
0001
1000
,
0020
0000
0000
0030
,
1010
1000
0001
0000
,
0011
0001
1000
0000
,
1001
0000
0110
0000
,
1000
0010
0001
0100
,
1000
0000
0000
0000
;

//---------------dance-single - ----------------
#NOTEDATA:;
#CHARTNAME:;
#STEPSTYPE:dance-single;
#DESCRIPTION:;
#CHARTSTYLE:;
#DIFFICULTY:Beginner;
#METER:5;
#RADARVALUES:0.222858,0.342859,0.128572,0.205715,0.000000,182.000000,167.000000,15.000000,24.000000,0.000000,0.000000,0.000000,0.000000,0.000000,0.222858,0.342859,0.128572,0.205715,0.000000,182.000000,167.000000,15.000000,24.000000,0.000000,0.000000,0.000000,0.000000,0.000000;
#CREDIT:;
#OFFSET:-1.334000;
#BPMS:0.000000=222.000000
;
#STOPS:;
#DELAYS:;
#WARPS:;
#TIMESIGNATURES:0.000000=4=4
;
#TICKCOUNTS:0.000000=4
;
#COMBOS:0.000000=1
;
#SPEEDS:0.000000=1.000000=0.000000=0
;
#SCROLLS:0.000000=1.000000
;
#FAKES:;
#LABELS:0.000000=Song Start
;
#DISPLAYBPM:111.000000:222.000000;
#NOTES:
0000
0000
0000
0000
,
0000
0000
0000
0000
,
0000
0000
0000
0000
,
0000
0000
0000
0000
,
1000
0000
0000
0000
,
0001
0000
0000
0000
,
1000
0000
0000
0000
,
0200
0000
0000
0300
,
0100
0000
0010
0000
,
0100
0000
0010
0000
,
0001
0000
1000
0000
,
0002
0000
0003
0000
,
0001
0000
0100
0000
,
0010
0000
1000
0000
,
0100
0000
0010
0000
,
0001
0000
0001
0000
,
0100
0000
0010
0000
,
0100
0000
0010
0000
,
1000
0000
0001
0000
,
2000
0000
3000
0000
,
1000
0000
0100
0000
,
0010
0000
0001
0000
,
1000
0000
0010
0000
,
0100
0000
0001
0000
,
0010
0000
0020
0000
,
0030
0000
0001
0000
,
0010
0000
0020
0000
,
0030
0000
0001
0000
,
0010
0000
0020
0000
,
0030
0000
0001
0000
,
0100
0000
0002
0000
,
0003
0000
0001
0000
,
0010
0000
0100
0000
,
2000
0000
3000
0000
,
0010
0000
0100
0000
,
0002
0000
0003
0000
,
1001
0000
0000
0000
,
1001
0000
0000
0000
,
1001
0000
1001
0000
,
1001
0000
0000
0000
,
2000
0000
3000
0000
,
0200
0000
0300
0000
,
0020
0000
0030
0000
,
0002
0000
0003
0000
,
0100
0000
0010
0000
,
0100
0000
0010
0000
,
0200
0000
0000
0000
,
0300
0000
0000
0000
,
0001
0000
0001
0000
,
0010
0000
0100
0000
,
1000
0000
1000
0000
,
0010
0000
0100
0000
,
0001
0000
0001
0000
,
0010
0000
0100
0000
,
1000
0000
0001
0000
,
0200
0000
0300
0010
,
0010
0000
1000
0000
,
0001
0000
0001
0000
,
0010
0000
0100
0000
,
1000
0000
0001
0000
,
0100
0000
0010
0000
,
1001
0000
0010
0000
,
1001
0000
0010
0010
,
0000
0000
0000
0000
,
1000
0000
1000
0000
,
0001
0000
0001
0000
,
1000
0000
1000
0000
,
2002
0000
0000
3003
,
0001
0001
0001
0000
,
1000
1000
1000
0000
,
0001
0001
0001
0000
,
0200
0000
0320
0000
,
1030
0000
0000
0000
,
0110
0000
0000
0000
,
1001
0000
0000
0000
,
0110
0000
0000
0001
,
0002
0000
0003
1000
,
2000
0000
3000
0100
,
0200
0000
0300
0000
,
0100
0100
0100
0000
,
0010
0000
0001
0000
,
0200
0000
0000
0300
,
0001
0000
0001
0000
,
0010
0000
0100
0000
,
1000
0000
1000
0000
,
0010
0000
0100
0000
,
0001
0000
1000
0000
,
0200
0000
0300
0010
,
0010
0000
0001
0000
,
1000
0000
1000
0000
,
0010
0000
0100
0000
,
0001
0000
1000
0000
,
0100
0000
0010
0000
,
1001
0000
0010
0000
,
1001
0000
0010
0010
,
0010
0000
0100
0000
,
1001
0000
0000
0000
,
1001
0000
0000
0000
,
0001
0000
0100
0000
,
1000
0000
0010
0000
,
0001
0000
0000
0000
;

//---------------dance-single - You Got Boost Power!----------------
#NOTEDATA:;
#CHARTNAME:;
#STEPSTYPE:dance-single;
#DESCRIPTION:You Got Boost Power!;
#CHARTSTYLE:;
#DIFFICULTY:Edit;
#METER:18;
#RADARVALUES:1.035924,1.014006,0.505717,0.754290,0.831433,846.000000,787.000000,59.000000,88.000000,0.000000,0.000000,0.000000,0.000000,0.000000,1.035924,1.014006,0.505717,0.754290,0.831433,846.000000,787.000000,59.000000,88.000000,0.000000,0.000000,0.000000,0.000000,0.000000;
#CREDIT:;
#OFFSET:-1.334000;
#BPMS:0.000000=111.000000
,14.000000=444.000000
,15.000000=222.000000
,79.000000=111.000000
,95.000000=222.000000
;
#STOPS:14.000000=0.236486
,14.250000=0.236486
,14.500000=0.236486
,14.750000=0.236486
,154.750000=0.810813
;
#DELAYS:;
#WARPS:;
#TIMESIGNATURES:0.000000=4=4
;
#TICKCOUNTS:0.000000=4
;
#COMBOS:0.000000=1
;
#SPEEDS:0.000000=1.000000=0.000000=0
;
#SCROLLS:0.000000=1.000000
,154.750000=0.000000
,155.000000=2.000000
,155.250000=1.000000
,155.500000=0.500000
,156.000000=1.000000
,291.000000=4.000000
,291.250000=0.500000
,292.000000=1.000000
;
#FAKES:;
#LABELS:0.000000=Song Start
;
#DISPLAYBPM:111.000000:222.000000;
#NOTES:
// measure 0
0000
0000
0000
0000
,  // measure 1
0000
0000
0000
0000
,  // measure 2
0001
0000
0100
0000
0110
0000
1000
0010
0000
1000
0100
0000
0110
0000
0001
0010
,  // measure 3
0001
0000
1000
0000
0001
0100
0010
2000
0002
0000
0000
3003
1000
0000
0100
0000
,  // measure 4
1000
0000
0001
0100
0001
0000
1000
0000
0001
0000
0020
0000
0000
0000
0031
0000
,  // measure 5
1000
0010
1000
0010
1000
0000
0001
1000
0100
0000
0000
0000
0010
0000
0001
0000
,  // measure 6
0100
0000
0010
0000
1000
0010
1000
0000
0100
0000
0020
0000
0000
0000
0032
2003
,  // measure 7
3002
2003
3002
0003
0100
0001
1000
0001
0100
0000
0001
0000
0010
0100
1000
0000
,  // measure 8
1000
0000
0010
0100
0001
0000
0001
0000
1000
0000
0200
0000
0000
0000
1300
0000
,  // measure 9
0001
0100
0001
0100
0001
0000
1000
0001
0010
0000
0000
0000
0001
0000
0010
0000
,  // measure 10
0100
0000
1000
0000
0001
0100
0010
0000
1000
0000
0001
0000
0012
0000
0003
0000
,  // measure 11
2010
3000
0012
1003
1000
1000
0001
0100
,  // measure 12
0001
0000
1000
0100
1000
0000
0001
0000
1000
0000
0020
0000
0000
0000
1030
0000
,  // measure 13
0001
0010
0100
1000
0001
0000
1000
0001
0100
0000
0000
0000
0010
0000
1000
0000
,  // measure 14
0100
0000
0010
0000
0001
1000
0001
0000
0100
0000
0020
0000
0000
0000
2030
3002
,  // measure 15
2003
3002
2003
3000
0100
1000
0001
1000
0100
0000
1000
0000
0010
0100
0001
0000
,  // measure 16
0001
0000
0010
0100
1000
0000
1000
0000
0001
0000
0200
0000
0000
0000
0301
0000
,  // measure 17
1000
0100
0010
0001
1000
0000
0001
1000
0010
0000
0000
0000
1000
0000
0010
0000
,  // measure 18
0100
0000
0001
0000
1000
0100
1000
0100
0010
0001
0010
0100
1000
0000
0001
0000
,  // measure 19
1000
0010
0100
0000
0010
0000
0021
0100
,  // measure 20
2000
0000
0000
0000
3030
0000
0001
0010
0100
0000
0010
0000
1020
0000
0100
0000
,  // measure 21
0002
0000
0000
0000
0033
0000
1000
0010
0100
0000
0010
0000
0021
0000
0100
0000
,  // measure 22
2000
0000
0000
0000
3030
0000
0001
0010
0100
0000
0010
0000
1010
0000
0011
0000
,  // measure 23
2002
0000
0000
0000
3003
0000
1000
0010
0200
0000
0302
0000
1003
0000
0001
0000
,  // measure 24
1000
0100
0010
0200
0000
0001
0000
0310
,  // measure 25
0100
1000
0001
0010
0100
0100
1000
0001
,  // measure 26
1000
0010
0100
0020
0000
0001
0000
0130
,  // measure 27
0010
1000
0001
0100
0010
0010
1000
0001
,  // measure 28
1000
0100
0001
0200
0000
1300
1001
0000
,  // measure 29
0001
0100
1000
0200
0000
0301
1001
0000
,  // measure 30
0110
0000
0001
1000
0001
0000
0010
0000
0100
0000
0210
0000
0000
0000
0010
0000
,  // measure 31
0010
0000
0010
0000
0310
0000
0100
0010
0001
0000
1000
0000
0020
0000
0000
0000
,  // measure 32
0130
0010
1000
0000
2010
0000
3100
0000
,  // measure 33
0100
0010
0001
0000
0012
0000
0103
0000
,  // measure 34
0100
0010
0001
0000
2010
0000
3100
0000
,  // measure 35
0100
0010
1000
0000
0011
0000
1000
1000
,  // measure 36
0010
1000
0100
0100
0010
0001
0100
0100
,  // measure 37
0010
0000
1000
0000
0001
0000
0001
0000
1000
0000
0100
0000
0010
0001
0010
0001
,  // measure 38
1000
0000
0010
0000
1000
0000
0010
0000
0100
0000
0001
0000
0100
0000
0001
0000
1000
0000
0010
0000
0100
0000
0002
0000
0000
0003
0000
0000
0000
0000
0000
0000
,  // measure 39
0001
0000
1000
0000
0100
0000
0001
0000
0100
0000
0010
0100
0020
0000
1000
0000
,  // measure 40
0000
0000
1030
0010
0100
0000
0010
0000
0001
0000
0010
0000
0100
0000
1000
0000
,  // measure 41
0001
0100
0001
0000
0100
0000
1000
0000
0100
0000
0010
0100
0020
0000
0001
0000
,  // measure 42
0000
0000
0031
0010
0100
0000
0010
0100
0001
0000
1000
0000
0001
0000
0001
0000
,  // measure 43
1000
0100
1000
0000
0100
0000
0001
0000
0100
0000
0010
0100
0020
0000
1000
0000
,  // measure 44
0000
0000
1030
0010
0100
0000
0010
0000
0001
0000
1000
0000
0010
0000
0100
0000
,  // measure 45
0001
1000
0001
0000
0010
0000
0100
1000
0001
0100
0001
0100
0010
0000
2000
0000
,  // measure 46
0000
3010
1000
0200
0001
0000
1300
0000
,  // measure 47
1000
0000
0010
0100
0010
0000
0001
0000
1000
0000
0100
0010
0200
0000
0001
0000
,  // measure 48
0000
0000
0310
1000
0001
0000
0010
0000
0100
0000
1000
0001
0100
0000
0010
0000
,  // measure 49
1000
0000
0100
0010
0100
0000
0001
0000
1000
0000
0010
0100
0020
0000
0001
0000
,  // measure 50
0000
0000
0130
1000
0001
0000
1000
0001
0100
0000
0010
0000
1000
0000
1000
0000
,  // measure 51
0001
0000
1000
0100
1000
0000
0100
0000
0001
0000
0000
0110
0000
0000
1001
0000
,  // measure 52
0000
0000
0001
0100
0010
0100
0010
0100
1000
0000
0000
0110
0000
0000
1001
0000
,  // measure 53
0000
0000
1000
0100
0010
0001
0010
0001
1000
0001
0010
0001
0100
0000
0000
0000
,  // measure 54
0202
0303
2020
3030
2200
3300
0022
0033
,  // measure 55
1000
0010
1000
0000
0010
1000
0010
0000
0100
0010
1000
0010
1000
0000
0001
0000
,  // measure 56
1000
0100
1000
0000
0100
1000
0100
0000
0010
0001
1000
0001
0100
0000
0100
0000
,  // measure 57
0001
0010
0001
0000
0010
0001
0010
0000
0100
0010
0001
0010
0001
0000
1000
0000
,  // measure 58
0001
0100
0020
0000
1030
0100
0020
0000
0031
0100
0010
1000
0002
0000
0003
0000
,  // measure 59
1000
0100
1000
0000
0001
0100
0001
0000
0010
0100
0010
0100
1000
0000
0001
0000
,  // measure 60
0100
0010
0100
0000
0001
1000
0001
0000
1000
0100
0010
0001
1000
0000
1000
0000
,  // measure 61
0001
0100
0001
0000
1000
0100
1000
0000
0010
0100
0001
1000
0100
0000
0010
0000
,  // measure 62
0220
0000
0330
0000
2002
0000
3003
0000
0001
0100
0010
1000
0001
0100
0010
1000
,  // measure 63
0001
0000
0000
1001
0000
0000
0001
1000
0100
0000
0000
0000
1001
0000
0000
0000
,  // measure 64
1001
0000
0000
0000
0001
1000
0010
1000
0100
0000
0000
0011
0000
0000
1100
0000
,  // measure 65
1001
0000
0000
1001
0000
0000
1000
0001
0100
0000
0000
0000
1001
0000
0000
0000
,  // measure 66
1001
0000
0000
0000
1000
0001
0010
0001
0100
0000
0001
1000
0100
0000
0010
0000
,  // measure 67
0011
0000
0000
1001
0000
0000
0101
0000
0000
0110
0000
0000
1010
0000
0010
0000
,  // measure 68
1010
0000
0000
1001
0000
0000
1100
0000
0000
0110
0000
0000
0011
0000
0010
0000
,  // measure 69
0002
0203
2300
3002
0023
2030
3200
0300
,  // measure 70
0010
0001
0010
0001
1000
0010
0100
0001
1000
0100
1000
0001
0100
0001
1000
0100
,  // measure 71
0010
0000
0002
0000
2003
0000
3002
0000
0203
0000
0300
0002
0000
0003
0020
0000
,  // measure 72
0130
0000
0010
0100
0010
0000
0100
1000
0001
1000
0010
1000
0002
0000
0000
0000
,  // measure 73
1003
0001
1000
0000
0100
0000
0010
0000
0100
0000
0001
0100
0020
0000
1000
0000
,  // measure 74
0000
0000
1030
0010
0100
0000
0010
0100
1000
0000
0001
0000
1000
0000
1000
0000
,  // measure 75
0001
0100
0001
0000
0100
0000
0010
0000
0100
0000
1000
0100
0020
0000
0001
0000
,  // measure 76
0000
0000
0031
0010
0100
0000
0010
0000
1000
0000
0001
0000
0010
0000
0100
0000
,  // measure 77
1000
0001
1000
0000
0010
0000
0100
0001
1000
0100
1000
0100
0010
0000
0002
0000
,  // measure 78
0000
0013
0001
0200
1000
0000
0301
0000
,  // measure 79
0001
0000
0010
0100
0010
0000
1000
0000
0001
0000
0100
0010
0100
0000
2200
0000
,  // measure 80
3300
0000
0001
1000
0010
0000
0100
0000
0001
0000
1000
0001
0010
0000
0100
0000
,  // measure 81
1000
0000
0010
0100
0010
0000
0001
0000
1000
0000
0100
0010
0100
0000
0202
0000
,  // measure 82
0303
0000
1000
0001
1000
0000
0001
0010
0100
1000
0010
0100
0001
0000
0000
0000
,  // measure 83
1000
0000
0001
0010
0001
0000
0010
0000
1000
0000
0000
0110
0000
0000
1001
0000
,  // measure 84
0000
0000
1000
0010
0100
0010
0100
0010
0001
0000
0000
0110
0000
0000
1001
0000
,  // measure 85
0000
0000
0001
0010
0100
1000
0100
1000
0010
0100
0001
1000
0100
0000
0010
0001
,  // measure 86
1000
0000
0001
0100
0020
0000
1030
0000
,  // measure 87
1010
0000
0000
1010
0000
0000
0001
1000
0100
0000
1100
0000
0000
0000
0001
0000
,  // measure 88
0011
0000
0000
0000
0001
0010
0001
1000
0001
0100
0000
0101
0000
0000
1000
0000
,  // measure 89
0001
0010
0000
0100
1000
0000
0001
0100
0000
0010
1000
0001
1000
0100
0000
0010
,  // measure 90
0001
0000
1000
0010
0100
0001
0000
0010
0001
1000
0010
1000
0200
0000
0320
0000
,  // measure 91
0031
0000
0000
0000
;

//---------------dance-single - ----------------
#NOTEDATA:;
#CHARTNAME:;
#STEPSTYPE:dance-single;
#DESCRIPTION:;
#CHARTSTYLE:;
#DIFFICULTY:Challenge;
#METER:18;
#RADARVALUES:1.044496,1.014006,0.565718,0.737147,0.870005,853.000000,787.000000,66.000000,86.000000,9.000000,0.000000,0.000000,0.000000,0.000000,1.044496,1.014006,0.565718,0.737147,0.870005,853.000000,787.000000,66.000000,86.000000,9.000000,0.000000,0.000000,0.000000,0.000000;
#CREDIT:;
#OFFSET:-1.334000;
#BPMS:0.000000=111.000000
,14.000000=444.000000
,15.000000=222.000000
,79.000000=111.000000
,95.000000=222.000000
;
#STOPS:14.000000=0.236486
,14.250000=0.236486
,14.500000=0.236486
,14.750000=0.236486
,154.750000=0.810813
;
#DELAYS:;
#WARPS:;
#TIMESIGNATURES:0.000000=4=4
;
#TICKCOUNTS:0.000000=4
;
#COMBOS:0.000000=1
;
#SPEEDS:0.000000=1.000000=0.000000=0
;
#SCROLLS:0.000000=1.000000
,154.750000=0.000000
,155.000000=2.000000
,155.250000=1.000000
,155.500000=0.500000
,156.000000=1.000000
,291.000000=4.000000
,291.250000=0.500000
,292.000000=1.000000
;
#FAKES:;
#LABELS:0.000000=Song Start
;
#DISPLAYBPM:111.000000:222.000000;
#NOTES:
// measure 0
0000
0000
0000
0000
,  // measure 1
0000
0000
0000
0000
,  // measure 2
0001
0000
0100
0000
0110
0000
1000
0010
0000
1000
0100
0000
0110
0000
0001
0010
,  // measure 3
0001
0000
1000
0000
0001
0100
0010
2000
0002
0000
0000
3003
1000
0000
0100
0000
,  // measure 4
1000
0000
0001
0100
0001
0000
1000
0000
0001
0000
0020
0000
0000
0000
0031
0000
,  // measure 5
1000
0010
1000
0010
1000
0000
0001
1000
0100
0000
0000
0000
0010
0000
0001
0000
,  // measure 6
0100
0000
0010
0000
1000
0010
1000
0000
0100
0000
0020
0000
0000
0000
0032
2003
,  // measure 7
3002
2003
3002
0003
0100
0001
1000
0001
0100
0000
0001
0000
0010
0100
1000
0000
,  // measure 8
1000
0000
0010
0100
0001
0000
0001
0000
1000
0000
0200
0000
0000
0000
1300
0000
,  // measure 9
0001
0100
0001
0100
0001
0000
1000
0001
0010
0000
0000
0000
0001
0000
0010
0000
,  // measure 10
0100
0000
1000
0000
0001
0100
0010
0000
1000
0000
0001
0000
0012
0000
0003
0000
,  // measure 11
2010
3000
0012
1003
1000
1000
0001
0100
,  // measure 12
0001
0000
1000
0100
1000
0000
0001
0000
1000
0000
0020
0000
0000
0000
1030
0000
,  // measure 13
0001
0010
0100
1000
0001
0000
1000
0001
0100
0000
0000
0000
0010
0000
1000
0000
,  // measure 14
0100
0000
0010
0000
0001
1000
0001
0000
0100
0000
0020
0000
0000
0000
2030
3002
,  // measure 15
2003
3002
2003
3000
0100
1000
0001
1000
0100
0000
1000
0000
0010
0100
0001
0000
,  // measure 16
0001
0000
0010
0100
1000
0000
1000
0000
0001
0000
0200
0000
0000
0000
0301
0000
,  // measure 17
1000
0100
0010
0001
1000
0000
0001
1000
0010
0000
0000
0000
1000
0000
0010
0000
,  // measure 18
0100
0000
0001
0000
1000
0100
1000
0100
0010
0001
0010
0100
1000
0000
0001
0000
,  // measure 19
1000
0010
0100
0000
0010
0000
2010
0001
,  // measure 20
0200
0000
0000
0000
3300
0000
1000
0100
0010
0000
0001
0000
0012
0000
1000
0000
,  // measure 21
0200
0000
0000
0000
0303
0000
0001
0100
0010
0000
1000
0000
2010
0000
0001
0000
,  // measure 22
0200
0000
0000
0000
3300
0000
1000
0100
0010
0000
0001
0000
0011
0000
1010
0000
,  // measure 23
2002
0000
0000
0000
3003
0000
1000
0010
0200
0000
0302
0000
1003
0000
0001
0000
,  // measure 24
1000
0100
0010
0200
0000
0001
0000
0310
,  // measure 25
0100
1000
0001
0010
0100
0100
1000
0001
,  // measure 26
1000
0010
0100
0020
0000
0001
0000
0130
,  // measure 27
0010
1000
0001
0100
0010
0010
1000
0001
,  // measure 28
1000
0100
0001
0200
0000
1300
1001
0000
,  // measure 29
0001
0100
1000
0200
0000
0301
1001
0000
,  // measure 30
0110
0000
0001
1000
0001
0000
0010
0000
0100
0000
0210
0000
0000
0000
0010
0000
,  // measure 31
0010
0000
0010
0000
0310
0000
0100
0010
0001
0000
1000
0000
0020
0000
0000
0000
,  // measure 32
0130
0010
1000
0000
2010
0000
3100
0000
,  // measure 33
0100
0010
0001
0000
0012
0000
0103
0000
,  // measure 34
0100
0010
0001
0000
2010
0000
3100
0000
,  // measure 35
0100
0010
1000
0000
0011
0000
1000
1000
,  // measure 36
0010
1000
0100
0100
0010
0001
0100
0100
,  // measure 37
0010
0000
1000
0000
0001
0000
0001
0000
1000
0000
0100
0000
0010
0001
0010
0001
,  // measure 38
1000
0000
0010
0000
1000
0000
0010
0000
0100
0000
0001
0000
0100
0000
0001
0000
1000
0000
0010
0000
0100
0000
0002
0000
0000
0003
0000
0000
0000
0000
0000
0000
,  // measure 39
0001
0000
0100
00M0
0100
0000
1000
0000
0001
0000
0100
0010
1000
0000
2010
0000
,  // measure 40
0000
0000
3010
1000
0100
0000
0010
0000
0001
0000
1000
0000
0010
0000
0100
0000
,  // measure 41
0001
1000
0100
00M0
0100
0000
0001
0000
1000
0000
0100
0010
0001
0000
0012
0000
,  // measure 42
0000
0000
0013
0001
0100
0000
0001
0100
0010
0000
1000
0000
0001
0000
0001
0000
,  // measure 43
1000
0001
0100
00M0
0100
0000
1000
0000
0001
0000
0100
0010
1000
0000
2010
0000
,  // measure 44
0000
0000
3010
1000
0100
0000
0010
0000
0001
0000
1000
0000
0010
0000
0100
0000
,  // measure 45
0001
1000
0001
0000
0010
0000
0100
1000
0001
0100
0001
0100
0010
0000
2000
0000
,  // measure 46
0000
3010
1000
0200
0001
0000
1300
0000
,  // measure 47
0001
0000
0100
0010
1000
0000
0010
0M00
0010
0000
0001
0010
0100
0000
1200
0000
,  // measure 48
0000
0000
0310
0001
1000
0000
0010
0000
0100
0000
0001
1000
0100
0000
0100
0000
,  // measure 49
1000
0000
0100
0010
0001
0000
0010
0M00
0010
0000
1000
0010
0100
0000
0201
0000
,  // measure 50
0000
0000
0310
1000
0100
0000
0010
0001
0100
0000
0010
0000
1000
0000
1000
0000
,  // measure 51
0001
0000
0010
0001
0010
0000
0001
0000
0100
0000
0000
1010
0000
0000
0011
0000
,  // measure 52
0000
0000
0001
1000
0010
1000
0010
1000
0100
0000
0000
0011
0000
0000
1010
0000
,  // measure 53
0000
0000
1000
0001
0010
0001
0010
0001
1000
0001
0010
0001
0100
0000
0000
0000
,  // measure 54
0202
0303
2020
3030
2200
3300
0022
0033
,  // measure 55
1000
0010
1000
0000
0010
1000
0010
0000
0100
0010
1000
0010
1000
0000
0001
0000
,  // measure 56
1000
0100
1000
0000
0100
1000
0100
0000
0010
0001
1000
0001
0100
0000
0100
0000
,  // measure 57
0001
0010
0001
0000
0010
0001
0010
0000
0100
0010
0001
0010
0001
0000
1000
0000
,  // measure 58
0001
0100
0020
0000
1030
0100
0020
0000
0031
0100
0010
1000
0002
0000
0003
0000
,  // measure 59
1000
0100
1000
0000
0001
0100
0001
0000
0010
0100
0010
0100
1000
0000
0001
0000
,  // measure 60
0100
0010
0100
0000
0001
1000
0001
0000
1000
0100
0010
0001
1000
0000
1000
0000
,  // measure 61
0001
0100
0001
0000
1000
0100
1000
0000
0010
0100
0001
1000
0100
0000
0010
0000
,  // measure 62
0220
0000
0330
0000
2002
0000
3003
0000
0001
0100
0010
1000
0001
0100
0010
1000
,  // measure 63
0001
0000
0000
1001
0000
0000
0001
1000
0100
0000
0000
0000
1001
0000
0000
0000
,  // measure 64
1001
0000
0000
0000
0001
1000
0010
1000
0100
0000
0000
0011
0000
0000
1100
0000
,  // measure 65
1001
0000
0000
1001
0000
0000
1000
0001
0100
0000
0000
0000
1001
0000
0000
0000
,  // measure 66
1001
0000
0000
0000
1000
0001
0010
0001
0100
0000
0001
1000
0100
0000
0010
0000
,  // measure 67
0011
0000
0000
1001
0000
0000
0101
0000
0000
0110
0000
0000
1010
0000
0010
0000
,  // measure 68
1010
0000
0000
1001
0000
0000
1100
0000
0000
0110
0000
0000
0011
0000
0010
0000
,  // measure 69
0002
0203
2300
3002
0023
2030
3200
0300
,  // measure 70
0010
0001
0010
0001
1000
0001
0100
0001
1000
0100
1000
0001
0100
0001
1000
0100
,  // measure 71
0010
0000
0002
0000
2003
0000
3002
0000
0203
0000
0300
0002
0000
0003
0020
0000
,  // measure 72
0130
0000
0010
0100
0010
0000
0100
1000
0001
1000
0010
1000
0002
0000
0000
0000
,  // measure 73
1003
0100
0010
000M
0010
0000
0100
0000
0001
0000
0100
0010
1000
0000
2010
0000
,  // measure 74
0000
0000
3010
1000
0100
0000
1000
0100
0010
0000
0001
0000
1000
0000
1000
0000
,  // measure 75
0001
0100
0010
M000
0010
0000
0100
0000
1000
0000
0100
0010
0001
0000
0012
0000
,  // measure 76
0000
0000
0013
0001
0100
0000
0010
0000
1000
0000
0001
0000
0010
0000
0100
0000
,  // measure 77
1000
0001
1000
0000
0010
0000
0100
0001
1000
0100
1000
0100
0010
0000
0002
0000
,  // measure 78
0000
0013
0001
0200
1000
0000
0301
0000
,  // measure 79
1000
0000
0100
0010
0001
0000
0010
0M00
0010
0000
1000
0010
0100
0000
0201
0000
,  // measure 80
0000
0000
0310
1000
0100
0000
0010
0000
0100
0000
0010
0001
0100
0000
0100
0000
,  // measure 81
0001
0000
0100
0010
1000
0000
0010
0M00
0010
0000
0001
0010
0100
0000
1200
0000
,  // measure 82
0000
0000
0310
0001
1000
0000
0001
0100
0010
1000
0100
0010
0001
0000
0000
0000
,  // measure 83
1000
0000
0010
1000
0010
0000
1000
0000
0100
0000
0000
0011
0000
0000
1010
0000
,  // measure 84
0000
0000
1000
0001
0010
0001
0010
0001
0100
0000
0000
1010
0000
0000
0011
0000
,  // measure 85
0000
0000
0001
1000
0010
1000
0010
1000
0001
1000
0010
1000
0100
0000
0010
0001
,  // measure 86
1000
0000
0001
0100
0020
0000
1030
0000
,  // measure 87
1010
0000
0000
1010
0000
0000
0001
1000
0100
0000
1100
0000
0000
0000
0001
0000
,  // measure 88
0011
0000
0000
0000
0001
0010
0001
1000
0001
0100
0000
0101
0000
0000
1000
0000
,  // measure 89
0001
0010
0000
0100
1000
0000
0001
0100
0000
0010
1000
0001
1000
0100
0000
0010
,  // measure 90
0001
0000
1000
0010
0100
0001
0000
0010
0001
1000
0010
1000
0200
0000
0320
0000
,  // measure 91
0031
0000
0000
0000
;
