#VERSION:0.83;
#TITLE:Annoyed Grunt;
#SUBTITLE:;
#ARTIST:Neil Cicierega;
#TITLETRANSLIT:;
#SUBTITLETRANSLIT:;
#ARTISTTRANSLIT:;
#GENRE:D'ohpamine;
#ORIGIN:;
#CREDIT:;
#BANNER:Annoyed Grunt.png;
#BACKGROUND:Annoyed Grunt-bg.png;
#PREVIEWVID:;
#JACKET:Annoyed Grunt-jacket.png;
#CDIMAGE:;
#DISCIMAGE:;
#LYRICSPATH:;
#CDTITLE:cdtitle.png;
#MUSIC:Annoyed Grunt.ogg;
#OFFSET:0.183420;
#SAMPLESTART:30.876072;
#SAMPLELENGTH:16.941181;
#SELECTABLE:YES;
#DISPLAYBPM:85.000000;
#BPMS:0.000=80.250,
8.000=88.150,
8.500=89.000,
9.500=80.000,
9.750=86.000,
10.250=88.000,
10.500=95.000,
11.000=91.000,
12.000=88.000,
13.000=89.500,
14.000=90.000,
15.000=91.000,
16.500=94.500,
17.500=80.000,
19.000=89.300,
20.000=85.000,
112.000=169.000,
120.000=170.750,
128.000=85.000,
144.000=170.110;
#STOPS:;
#DELAYS:;
#WARPS:;
#TIMESIGNATURES:0.000=4=4;
#TICKCOUNTS:0.000=4;
#COMBOS:0.000=1;
#SPEEDS:0.000=1.000=0.000=0;
#SCROLLS:0.000=1.059,
8.000=0.964,
8.500=0.955,
9.500=1.063,
9.750=0.988,
10.250=0.966,
10.500=0.895,
11.000=0.934,
12.000=0.966,
13.000=0.950,
14.000=0.944,
15.000=0.934,
16.500=0.899,
17.500=1.063,
19.000=0.952,
20.000=1.000,
112.000=0.503,
120.000=0.498,
128.000=1.000,
144.000=0.500;
#FAKES:;
#LABELS:0.000=Song Start;
#BGCHANGES:;
#KEYSOUNDS:;
#ATTACKS:
;

//---------------dance-single - ----------------
#NOTEDATA:;
#CHARTNAME:;
#STEPSTYPE:dance-single;
#DESCRIPTION:;
#CHARTSTYLE:;
#DIFFICULTY:Challenge;
#METER:12;
#RADARVALUES:0.515172,0.551741,0.294031,0.769670,0.544822,417.000000,383.000000,34.000000,89.000000,0.000000,0.000000,14.000000,0.000000,0.000000,0.515172,0.551741,0.294031,0.769670,0.544822,417.000000,383.000000,34.000000,89.000000,0.000000,0.000000,14.000000,0.000000,0.000000;
#CREDIT:;
#DISPLAYBPM:85.000000;
#NOTES:
// measure 0
0000
0000
0000
0000
,  // measure 1
0000
0000
0000
0000
,  // measure 2
1000
0000
0000
0000
0100
0000
0000
0000
0010
0000
0000
0000
0001
0000
1000
0000
0000
0000
0001
0000
0100
0000
0010
0000
0100
0010
0100
0000
0010
0000
1000
0000
,  // measure 3
0001
0001
0010
0010
0100
0100
1000
1000
,  // measure 4
0000
0000
1001
0000
0110
0000
2001
0000
0000
0000
0000
0000
0010
0010
0010
3010
,  // measure 5
2000
0000
0000
3100
0000
0010
2000
0000
0000
3010
0000
0100
1000
0001
0000
1000
,  // measure 6
0002
0000
0000
0103
0000
0010
0002
0000
0000
0013
0000
0010
4000
0000
3001
1000
,  // measure 7
0002
0000
0000
0013
0000
0100
0002
0000
0000
0103
0000
0010
0001
1000
0000
0001
,  // measure 8
2000
0000
0000
3010
0000
0100
2000
0000
0000
3100
0000
0100
0004
0000
1003
0001
,  // measure 9
2000
0000
0000
3100
0000
0001
2000
0000
0000
3010
0000
0001
1000
0001
0000
1000
,  // measure 10
0020
0000
0000
0031
0000
1000
0200
0000
0301
0000
1002
0000
0010
0010
0010
0013
,  // measure 11
0001
0010
0000
2000
0000
3000
1000
0010
1000
0010
0000
0002
4000
3003
0001
4000
,  // measure 12
3001
0100
0000
2000
0000
3000
1000
0100
0001
1000
2001
0000
0010
0010
0010
3010
,  // measure 13
0200
0000
0000
0302
0000
2003
0000
3000
0001
0010
0100
1000
0040
0130
0001
0040
,  // measure 14
2030
0000
0000
3010
0001
0000
1000
0010
0100
0001
2001
0000
0100
0100
0100
3100
,  // measure 15
1000
0100
0000
0002
0000
0000
0103
1000
0001
0001
0000
0001
0400
0300
0001
4000
,  // measure 16
3200
0000
0000
0310
0100
0000
0010
0100
1000
0001
1002
0000
0100
0100
0100
0103
,  // measure 17
0001
0100
0010
0100
1000
0000
2200
3300
0202
0303
2002
3003
0022
0033
0001
0010
,  // measure 18
2000
0000
0000
3001
0000
0100
1000
0000
0001
0000
1000
0010
0100
0000
0001
0000
,  // measure 19
1000
0100
0010
0100
0001
0000
0202
0303
2200
3300
2002
3003
2020
3030
1000
0010
,  // measure 20
0002
0000
0000
1003
0000
0100
0001
0000
1000
0000
0001
0100
0010
0000
1000
0000
,  // measure 21
0001
0010
0100
0010
1000
0000
1020
0000
0032
0000
0203
0000
2300
0000
3001
0010
,  // measure 22
1000
4000
3000
0001
0004
0003
0010
0010
0000
0100
0100
0000
1100
0000
1001
0000
,  // measure 23
2000
0000
0000
3010
0000
0100
2000
0000
0000
3100
0000
0010
1000
0001
0000
1000
,  // measure 24
0002
0000
0000
0013
0000
0100
0002
0000
0000
0103
0000
0210
2300
3002
0003
1000
,  // measure 25
0002
0000
0000
0103
0000
0010
0002
0000
0000
0013
0000
0100
0001
1000
0000
0001
,  // measure 26
2000
0000
0000
3100
0000
0010
2000
0000
0000
3010
0000
0120
0032
2003
3000
0001
,  // measure 27
0200
0000
0000
1300
0000
0001
0020
0000
0000
1030
0000
0001
1000
0100
0010
0001
,  // measure 28
0011
0000
0001
0100
0010
0010
0100
1010
,  // measure 29
0000
0010
1000
0001
1000
0100
0001
0100
,  // measure 30
0110
0000
0100
1000
0001
0100
0010
0110
,  // measure 31
0000
0000
2000
0000
3020
0000
0230
0000
0302
0023
0032
0000
0023
0000
0230
0000
,  // measure 32
2300
3010
0020
0130
0200
0301
0002
1003
,  // measure 33
2000
3100
0200
0310
0020
0031
0002
1003
,  // measure 34
1020
0130
2010
3001
1200
0310
2100
3001
,  // measure 35
0021
0000
0130
0000
0012
0000
1003
0000
0101
0000
1002
0000
0010
0010
0010
0013
,  // measure 36
0001
0010
0001
0010
0100
0010
0100
0010
,  // measure 37
0100
1000
0100
1000
0004
0003
1000
0004
,  // measure 38
1003
0010
0100
0001
1000
0100
0010
0001
,  // measure 39
1000
0001
2001
0000
0010
0010
0010
3010
,  // measure 40
1000
0100
0010
0100
1000
0010
0100
0010
,  // measure 41
1000
0100
0010
0100
4000
3000
0001
4000
,  // measure 42
3001
0010
1000
0010
0001
0100
1000
0100
,  // measure 43
0001
1000
1002
0000
0010
0010
0010
0013
,  // measure 44
0100
0000
0000
0000
;
