#VERSION:0.83;
#TITLE:1st Samurai;
#SUBTITLE:;
#ARTIST:sampling masters MEGA;
#TITLETRANSLIT:;
#SUBTITLETRANSLIT:;
#ARTISTTRANSLIT:;
#GENRE:Oedo Techno;
#ORIGIN:;
#CREDIT:;
#BANNER:1st Samurai.png;
#BACKGROUND:1st Samurai-bg.png;
#PREVIEWVID:;
#JACKET:1st Samurai-jacket.png;
#CDIMAGE:;
#DISCIMAGE:;
#LYRICSPATH:;
#CDTITLE:cdtitle.png;
#MUSIC:1st Samurai.ogg;
#OFFSET:-0.353695;
#SAMPLESTART:55.210835;
#SAMPLELENGTH:10.971436;
#SELECTABLE:YES;
#BPMS:0.000=175.000,
268.000=198.345,
270.000=200.000;
#STOPS:;
#DELAYS:;
#WARPS:;
#TIMESIGNATURES:0.000=4=4;
#TICKCOUNTS:0.000=4;
#COMBOS:0.000=1;
#SPEEDS:0.000=1.000=0.000=0;
#SCROLLS:0.000=1.143,
267.000=0.000,
270.000=1.000;
#FAKES:;
#LABELS:0.000=Song Start;
#BGCHANGES:;
#KEYSOUNDS:;
#ATTACKS:
;

//---------------dance-single - ----------------
#NOTEDATA:;
#CHARTNAME:;
#STEPSTYPE:dance-single;
#DESCRIPTION:;
#CHARTSTYLE:;
#DIFFICULTY:Challenge;
#METER:17;
#RADARVALUES:0.919819,1.105172,0.319776,0.483985,1.011184,745.000000,708.000000,37.000000,56.000000,54.000000,0.000000,0.000000,0.000000,0.000000,0.919819,1.105172,0.319776,0.483985,1.011184,745.000000,708.000000,37.000000,56.000000,54.000000,0.000000,0.000000,0.000000,0.000000;
#CREDIT:;
#OFFSET:-0.353695;
#BPMS:0.000000=175.000000
,268.000000=198.345001
,270.000000=200.000000
;
#STOPS:;
#DELAYS:;
#WARPS:;
#TIMESIGNATURES:0.000000=4=4
;
#TICKCOUNTS:0.000000=4
;
#COMBOS:0.000000=1
;
#SPEEDS:0.000000=1.000000=0.000000=0
;
#SCROLLS:0.000000=1.143000
,267.000000=0.000000
,270.000000=1.000000
;
#FAKES:;
#LABELS:0.000000=Song Start
;
#NOTES:
0000
0000
0000
0000
,
0000
0000
0000
0000
,
0000
0000
0000
0000
,
0000
0000
0000
0000
,
0001
0000
1000
0100
0010
0000
0100
0000
1000
0000
0001
0100
0010
0000
0000
0000
,
1000
0000
0010
0100
0001
0000
1000
0000
0001
0000
0010
0100
1000
0000
0000
0000
,
0100
0000
0010
0001
1000
0000
0010
0000
0100
0000
0001
1000
0100
0000
0000
0000
,
0010
0000
0001
1000
0010
0000
0100
0010
1000
0001
1000
0001
0010
0000
0010
0000
,
0001
0000
0001
0010
0100
0000
0010
0000
0010
0000
0100
0010
0001
0000
0000
0000
,
1000
0000
1000
0010
0100
0000
0010
0000
0010
0000
0100
0010
1000
0000
0000
0000
,
0001
0000
0001
0010
0100
0000
0100
0000
1000
0000
1000
0010
0100
0000
0100
0000
,
0001
0100
0001
0000
1000
0100
1000
0000
0001
0100
0010
1000
0001
0000
0000
0000
,
1000
0000
0001
0010
0000
0001
0010
0000
0100
0000
0010
0000
0210
0000
2300
0000
,
3002
1000
1000
1000
1000
1000
1000
1003
,
0001
0000
1000
0010
0000
1000
0010
0000
0100
0000
0010
0000
0210
0000
0302
0000
,
2003
0001
0001
0001
0001
0001
0001
3001
,
2001
0000
3100
0010
0000
0010
0002
0000
0103
0000
0010
0000
2010
0000
3002
0000
,
0023
0000
0100
0000
0100
0000
0100
0000
0100
0000
0100
0000
0130
0010
0100
0000
,
1002
0000
0103
0010
0000
0010
2000
0000
3100
0000
0010
0000
0012
0000
2003
0000
,
3010
0000
0010
1000
0100
0000
0010
0000
0010
0001
0100
0000
0100
0000
0000
0000
,
0010
0000
1000
0010
1000
0000
0001
0000
1000
0100
1000
0100
0010
0000
0100
0000
,
1000
0000
0001
0010
0001
0000
1000
0000
0001
0100
0001
0100
0010
0000
1000
0000
,
0001
0000
0100
0010
0100
0000
0001
0000
0100
0001
0010
0001
0100
0000
0001
0000
,
1000
0000
0100
0010
0100
0000
1000
0000
0100
1000
0010
1000
0100
0000
0010
0000
,
0002
0010
0000
1003
0001
0100
0001
0000
0100
0000
0120
0000
0000
1000
0000
0000
,
2030
0010
0000
3001
1000
0100
1000
0000
0100
0000
0120
0000
0000
0001
0000
0000
,
0032
0010
0000
1003
0001
0100
0001
0000
2000
0010
0000
3001
1000
0100
1000
0000
,
0002
0010
0000
1003
0001
0100
0010
0000
0100
0000
0110
0000
0000
1001
0000
0000
,
2000
0100
0000
3010
1000
0010
0100
0000
0010
0000
0210
0000
0000
0001
0000
0000
,
0302
0100
0000
0013
0001
0010
0100
0000
0010
0000
0210
0000
0000
1000
0000
0000
,
2300
0100
0000
3010
1000
0010
0100
0000
0002
0100
0000
0013
0001
0010
0100
0000
,
2000
0100
0000
3010
1000
0010
0100
0000
0001
1000
0001
1000
0100
0010
0100
0010
,
0001
0000
1002
0000
0000
0103
0110
0000
,
1000
0000
2001
0000
0000
3100
0010
0100
,
0010
1001
0010
1001
,
0001
0100
0001
0100
0001
0000
1000
0100
1000
0001
0100
0001
1000
0100
1000
0001
,
0100
0000
0010
0000
0100
0001
0000
1000
0000
0100
0000
0010
0100
0000
1000
0000
,
0001
0000
0100
0000
0010
1000
0000
0100
0000
0010
0000
0001
0100
0000
0010
0000
,
1010
1000
0001
0000
0011
0001
1000
0000
,
1000
0010
1000
0010
1000
0000
0001
0010
0001
1000
0010
1000
0001
0010
0001
1000
,
0010
1000
0001
1000
0100
0000
M0MM
0000
0100
0001
1000
0001
0010
0000
MM0M
0000
,
0010
1000
0001
1000
0100
0000
M0MM
0000
0100
0001
1000
0001
0010
0000
MM0M
0000
,
0010
1000
0001
1000
0100
1000
0001
1000
0010
1000
0001
1000
0100
1000
0001
1000
,
0010
1000
0001
1000
0100
0000
M0MM
0000
0100
0001
1000
0001
0010
0000
MM0M
0000
,
0010
0000
1000
0200
0010
0000
1000
0000
1300
0000
0001
0200
0010
0000
0001
0000
,
0301
0000
1000
0020
0100
0000
1000
0000
1030
0000
0001
0020
0100
0000
0001
0000
,
0031
0000
1000
0002
0100
0000
1000
0000
1003
0000
0001
2000
0100
0000
0001
0000
,
3002
0000
1000
0000
1000
0000
1000
0000
1000
0000
1003
0000
1001
0000
1000
0001
,
0100
0000
0000
0000
0110
0000
0100
0001
1000
0000
0001
1000
0100
0000
0010
0100
,
0010
0000
0000
0000
0110
0000
0100
1000
0001
0000
1000
0001
0100
0000
0010
0100
,
0010
0000
0000
0000
0110
0000
0100
0001
0010
0000
0100
1000
0010
0000
0100
0000
,
0001
0010
0001
0010
0100
0010
0100
0010
0100
1000
0100
1000
0001
0000
1000
0000
,
0010
1000
0001
1000
0100
1000
0001
1000
0010
1000
0001
1000
0100
0010
0001
1000
,
0001
0100
0001
1000
0001
0010
0001
1000
0001
0100
0001
1000
0001
0010
0100
1000
,
0010
1000
0001
1000
0100
0010
0001
0010
0100
1000
0001
1000
0010
0100
0001
1000
,
0100
0010
0001
1000
0010
0100
0001
1000
0100
0010
0001
0010
0100
1000
0001
0100
,
0010
1000
0001
1000
0010
0000
MM0M
0000
0010
0001
1000
0001
0010
0000
MM0M
0000
,
0010
1000
0001
1000
0100
0000
M0MM
0000
0100
0001
1000
0001
0010
0000
MM0M
0000
,
0010
0100
0001
0100
0010
0000
MM0M
0000
0010
0100
1000
0100
0010
0000
MM0M
0000
,
0010
1000
0100
1000
0010
0000
MM0M
0000
0010
0001
0100
0001
0010
0000
MM0M
0000
,
0010
1000
0001
1000
0100
0000
0010
0100
0010
0001
1000
0001
0100
0000
0010
0100
,
0001
1000
0100
0010
0001
0000
0010
0100
1000
0001
0100
0010
1000
0000
0001
1000
,
0200
0010
0000
0000
0320
0001
0000
0000
0032
1000
0000
0000
2003
0010
0000
0000
,
3002
0100
0000
0000
2003
0100
0000
0000
3002
0010
0000
0000
2003
0000
0010
0000
,
3001
1000
1010
0001
1000
0001
0011
1000
,
0001
1000
1010
0001
1000
0001
0011
1000
,
0020
0200
0000
0000
,
0000
0000
0300
0030
,
0010
1000
0001
1000
0100
0000
M0MM
0000
0100
0001
1000
0001
0010
0000
MM0M
0000
,
0010
1000
0001
1000
0100
0000
M0MM
0000
0100
0001
1000
0001
0010
0000
MM0M
0000
,
0020
1000
0000
0000
2030
0100
0000
0000
3200
0010
0000
0000
0320
0001
0000
0000
,
0032
0100
0000
0000
2003
0100
0000
0000
3002
0010
0000
0000
2003
0000
0010
0000
,
3001
0100
1010
0001
1000
0100
0011
1000
,
0001
0100
1010
0001
1000
0100
0011
1000
,
1001
0000
0000
0000
1000
0010
0100
0001
1000
0100
0010
0001
1000
0010
0100
0001
,
0010
0000
0110
0000
0000
0000
1100
0000
0000
0000
0000
0000
,
0011
0000
0101
0000
,
1010
0000
0100
0000
;

//---------------dance-single - ----------------
#NOTEDATA:;
#CHARTNAME:;
#STEPSTYPE:dance-single;
#DESCRIPTION:;
#CHARTSTYLE:;
#DIFFICULTY:Medium;
#METER:12;
#RADARVALUES:0.533372,0.602821,0.380274,0.371632,0.000000,432.000000,388.000000,44.000000,43.000000,0.000000,0.000000,0.000000,0.000000,0.000000,0.533372,0.602821,0.380274,0.371632,0.000000,432.000000,388.000000,44.000000,43.000000,0.000000,0.000000,0.000000,0.000000,0.000000;
#CREDIT:;
#OFFSET:-0.353695;
#BPMS:0.000000=175.000000
,268.000000=198.345001
,270.000000=200.000000
;
#STOPS:;
#DELAYS:;
#WARPS:;
#TIMESIGNATURES:0.000000=4=4
;
#TICKCOUNTS:0.000000=4
;
#COMBOS:0.000000=1
;
#SPEEDS:0.000000=1.000000=0.000000=0
;
#SCROLLS:0.000000=1.143000
,267.000000=0.000000
,270.000000=1.000000
;
#FAKES:;
#LABELS:0.000000=Song Start
;
#NOTES:
0000
0000
0000
0000
,
0000
0000
0000
0000
,
0000
0000
0000
0000
,
0000
0000
0000
0000
,
1000
0100
1000
0000
0001
0100
0001
0000
,
1000
0100
0010
0000
0001
0100
0010
0000
,
1000
0010
1000
0000
0001
0010
0001
0000
,
1000
0100
0010
0001
0100
0010
1000
0000
,
0001
0100
1000
0000
1000
0100
0001
0000
,
1000
0100
0001
0000
0001
0100
1000
0000
,
0001
0100
0010
0000
1000
0100
0010
0000
,
0001
0100
0001
0100
1000
0100
0001
0000
,
1002
0010
2003
0010
,
3001
0100
0010
0100
0010
0100
0010
0100
,
0002
0100
2003
0100
,
3001
0010
0100
0010
0100
0010
0100
0010
,
0002
0000
1000
2003
0000
0001
3001
0000
,
1000
0010
0100
0001
1000
0010
1000
0100
,
0020
0000
0100
0230
0000
0010
0310
0000
,
0001
0010
0100
1000
0010
0100
0001
0000
,
1000
0010
0001
0000
0001
0010
1000
0000
,
1000
0100
0001
0000
0001
0100
1000
0000
,
0001
0010
1000
0000
1000
0010
0001
0000
,
0001
0100
1000
0000
1000
0100
0001
0000
,
1002
0000
0013
0001
0200
0001
0000
0010
,
0310
0000
0010
1000
0200
1000
0000
0010
,
0310
1100
0010
0101
,
0010
0000
1100
0000
1000
0002
0000
0000
,
0103
0000
0100
0001
0020
0001
0000
0100
,
0130
0000
0100
1000
0020
1000
0000
0100
,
0130
1010
0100
0011
,
0100
0000
1010
0000
0001
1000
0100
0010
,
0001
1002
0000
0103
,
0010
2001
0000
3100
,
0110
0001
0110
1000
,
0002
0000
0003
2000
0000
3000
0001
0000
,
1000
0010
1000
0010
0100
0001
0010
0000
,
0001
0010
0001
0010
0100
1000
0010
0000
,
0100
1001
0010
1001
,
2000
0000
3000
0002
0000
0003
1000
0000
,
0001
0001
0010
0000
1000
1000
0010
0000
,
0001
0001
0100
0000
1000
1000
0100
0000
,
0101
1010
1100
0011
,
1000
1000
0010
0000
0001
0001
0010
0000
,
1000
0100
1000
0000
0001
0100
0001
0000
,
1000
0010
1000
0000
0001
0010
0001
0000
,
1000
0010
0100
0001
1000
0100
0010
0001
,
0200
0000
0000
0310
,
2010
0000
3001
1000
0100
0000
0110
0000
,
0012
0000
1003
0001
0100
0000
0110
0000
,
2010
0000
3001
1000
0100
0000
1000
0001
,
0200
0000
0010
0000
0310
0000
0100
0010
,
1010
1001
0011
0110
,
1100
1001
0101
0110
,
1010
0101
0011
1100
,
1010
0101
0011
1100
,
0001
0001
0010
0000
1000
1000
0010
0000
,
0001
0001
0100
0000
1000
1000
0100
0000
,
0001
0001
0010
0000
0010
0010
1000
0000
,
1000
1000
0100
0000
0100
0100
0001
0000
,
1000
0100
0010
0000
0001
0100
0010
0000
,
0100
0001
0010
0000
0100
1000
0010
0000
,
2000
3020
0032
0023
,
2030
0000
3200
0000
0302
0000
0103
1000
,
0001
0010
0001
0010
0100
1000
0100
1000
,
0001
0010
0001
0010
0100
1000
0001
0100
,
0020
0200
0000
0000
,
0000
0000
0300
0030
,
1000
1000
0010
0000
0001
0001
0010
0000
,
1000
1000
0100
0000
0001
0001
0100
0000
,
2000
3020
0032
2003
,
3200
0000
0302
0000
0023
0000
1030
0010
,
0001
1000
0100
0010
0001
1000
0100
0010
,
0001
1000
0010
1000
0001
0010
0001
1000
,
0020
0200
0000
0330
,
1010
0000
0101
0000
,
0011
0000
1100
0000
,
1001
0000
0100
0000
;

//---------------dance-single - ----------------
#NOTEDATA:;
#CHARTNAME:;
#STEPSTYPE:dance-single;
#DESCRIPTION:;
#CHARTSTYLE:;
#DIFFICULTY:Easy;
#METER:9;
#RADARVALUES:0.412375,0.569331,0.259278,0.674122,0.000000,334.000000,304.000000,30.000000,78.000000,0.000000,0.000000,0.000000,0.000000,0.000000,0.412375,0.569331,0.259278,0.674122,0.000000,334.000000,304.000000,30.000000,78.000000,0.000000,0.000000,0.000000,0.000000,0.000000;
#CREDIT:;
#OFFSET:-0.353695;
#BPMS:0.000000=175.000000
,268.000000=198.345001
,270.000000=200.000000
;
#STOPS:;
#DELAYS:;
#WARPS:;
#TIMESIGNATURES:0.000000=4=4
;
#TICKCOUNTS:0.000000=4
;
#COMBOS:0.000000=1
;
#SPEEDS:0.000000=1.000000=0.000000=0
;
#SCROLLS:0.000000=1.143000
,267.000000=0.000000
,270.000000=1.000000
;
#FAKES:;
#LABELS:0.000000=Song Start
;
#NOTES:
0000
0000
0000
0000
,
0000
0000
0000
0000
,
0000
0000
0000
0000
,
0000
0000
0000
0000
,
1000
0100
0010
0001
,
1000
1000
0001
0001
,
1000
0010
0100
0001
,
0010
0100
0010
0000
2002
0000
3003
0000
,
0001
0100
1000
0100
,
0001
0100
1000
0100
,
0001
0001
1000
1000
,
0001
1000
0100
0000
2002
0000
3003
0000
,
2000
0100
3002
0010
,
1003
1000
1000
1000
,
0002
0100
2003
0010
,
3001
0001
0001
0001
,
0022
0000
0033
2200
0000
3300
0001
0000
,
0100
0000
0100
0000
0100
0010
0100
0000
,
2020
0000
3030
0202
0000
0303
1000
0000
,
1001
0000
0001
1000
0001
0000
1001
0000
,
1000
0000
0100
0000
0010
0100
0010
0000
,
0001
0000
0100
0000
0010
0100
0010
0000
,
1000
0000
0001
0000
1000
0001
0010
0000
,
0001
0000
1000
0000
0001
1000
0010
0000
,
2000
0000
0010
0000
3010
1000
0000
1000
,
0002
0000
0010
0000
0013
0001
0000
0001
,
2000
0010
3002
0010
,
2003
3010
1001
0000
,
2000
0000
0100
0000
3001
1000
0000
1000
,
0002
0000
0100
0000
1003
0001
0000
0001
,
2000
0100
3002
0100
,
2003
0000
0100
0000
3001
1000
0001
1000
,
0001
0220
0000
0330
,
0010
2002
0000
3003
,
1000
0000
0001
0000
,
2000
0000
3000
0002
0000
0003
1000
0000
,
0001
0000
0010
0000
0001
0010
0100
0000
,
1000
0000
0010
0000
1000
0010
0100
0000
,
0010
0000
0010
0000
,
2000
0000
3000
0002
0000
0003
1000
0000
,
0001
0010
0001
0000
1000
0010
1000
0000
,
0001
0010
0001
0000
1000
0010
1000
0000
,
0002
0023
0230
2300
,
3001
0100
0001
0000
1000
0100
1000
0000
,
0001
0001
0100
0100
,
0010
0010
1000
1000
,
0100
0100
0010
0010
,
0200
0000
0000
0310
,
0002
0000
0013
0001
0100
0000
0010
0000
,
2000
0000
3010
1000
0100
0000
0010
0000
,
0002
0000
0013
0001
0100
0000
0010
0000
,
0220
0000
0330
0110
,
2000
3020
0032
0023
,
2030
3200
0302
0203
,
2300
3020
0032
0023
,
2030
3200
0302
0203
,
1300
0100
1000
0000
0001
0100
0001
0000
,
1000
0001
0100
0000
0001
1000
0100
0000
,
0010
0100
1000
0000
0010
0100
0001
0000
,
0100
0001
0010
0000
0100
1000
0010
0000
,
1000
0010
1000
0000
0001
0010
0001
0000
,
1000
0100
1000
0000
0001
0100
0001
0000
,
2000
3020
0230
0302
,
2003
3200
0320
0031
,
1000
1010
0001
0101
,
1000
1100
0001
0011
,
2000
0002
0000
0000
,
0000
0000
0003
3000
,
1000
0010
1000
0000
0001
0010
0001
0000
,
1000
0100
1000
0000
0001
0100
0001
0000
,
2000
3200
0320
0032
,
0203
0320
2030
3001
,
0011
0011
1100
1100
,
1010
1010
0101
0101
,
2000
0002
0000
3003
,
1100
0000
0011
0000
,
0101
0000
1010
0000
,
1001
0000
0100
0000
;

//---------------dance-single - ----------------
#NOTEDATA:;
#CHARTNAME:;
#STEPSTYPE:dance-single;
#DESCRIPTION:;
#CHARTSTYLE:;
#DIFFICULTY:Beginner;
#METER:6;
#RADARVALUES:0.274094,0.334901,0.241993,0.216065,0.000000,222.000000,194.000000,28.000000,25.000000,0.000000,0.000000,0.000000,0.000000,0.000000,0.274094,0.334901,0.241993,0.216065,0.000000,222.000000,194.000000,28.000000,25.000000,0.000000,0.000000,0.000000,0.000000,0.000000;
#CREDIT:;
#OFFSET:-0.353695;
#BPMS:0.000000=175.000000
,268.000000=198.345001
,270.000000=200.000000
;
#STOPS:;
#DELAYS:;
#WARPS:;
#TIMESIGNATURES:0.000000=4=4
;
#TICKCOUNTS:0.000000=4
;
#COMBOS:0.000000=1
;
#SPEEDS:0.000000=1.000000=0.000000=0
;
#SCROLLS:0.000000=1.143000
,268.000000=1.000000
;
#FAKES:;
#LABELS:0.000000=Song Start
;
#NOTES:
0000
0000
0000
0000
,
0000
0000
0000
0000
,
0000
0000
0000
0000
,
0000
0000
0000
0000
,
1000
0010
1000
0000
,
0001
0000
1000
0000
,
0001
0010
0001
0000
,
0010
0010
0010
0000
,
0001
0100
0010
0000
,
1000
0100
0010
0000
,
0001
0000
1000
0000
,
0001
1000
0001
0000
,
0200
0000
0300
0000
,
0100
0100
0100
0100
,
0020
0000
0030
0000
,
0010
0010
0010
0010
,
2000
3000
0002
0003
,
1000
1000
1000
1000
,
0002
0003
2000
3000
,
0001
1000
0001
0000
,
1000
0100
0010
0000
,
0001
1000
0010
0000
,
0100
0001
1000
0000
,
0100
0010
0001
0000
,
1000
1000
0010
0000
,
1000
1000
0010
0000
,
1000
0010
1000
0010
,
1000
1000
0010
0000
,
0001
0001
0010
0000
,
0001
0001
0010
0000
,
0001
0010
0001
0010
,
0001
0001
0010
0000
,
0000
2000
0000
3000
,
0000
0002
0000
0003
,
1001
0000
1001
0000
,
2002
0000
0000
3003
0000
0000
0000
0000
,
0001
0100
0010
0000
,
1000
0100
0010
0000
,
1001
0000
1001
0000
,
2002
0000
0000
3003
0000
0000
0000
0000
,
0101
0000
1010
0000
,
1100
0000
0011
0000
,
0001
0001
0001
0001
,
0110
0000
1001
0000
,
1000
0010
0100
0000
,
0010
0100
0001
0000
,
0100
0001
1000
0000
,
0200
0000
0300
0000
,
0010
0000
0001
0000
,
1000
0000
0010
0000
,
0100
0000
0001
0000
,
1001
0000
0000
0000
,
0010
0010
0010
0010
,
0010
0010
0010
0010
,
0010
0010
0010
0010
,
0010
0010
0010
0010
,
1001
0000
0110
0000
,
1001
0000
0110
0000
,
1010
0000
0101
0000
,
0011
0000
1100
0000
,
0001
0001
1000
1000
,
0001
0001
1000
1000
,
0002
0000
0203
0000
,
0320
0000
2030
0000
,
3100
0100
0100
0100
,
0100
0100
0100
0100
,
0000
2002
0000
3003
,
0000
0000
0000
0000
,
0001
0001
1000
1000
,
0001
0001
1000
1000
,
0002
0000
0203
0000
,
0320
0000
2030
0000
,
3100
0100
0100
0100
,
0100
0100
0100
0100
,
0000
2002
0000
3003
,
1100
0000
0011
0000
,
0101
0000
1010
0000
,
1001
0000
0100
0000
;

//---------------dance-single - ----------------
#NOTEDATA:;
#CHARTNAME:;
#STEPSTYPE:dance-single;
#DESCRIPTION:;
#CHARTSTYLE:;
#DIFFICULTY:Hard;
#METER:15;
#RADARVALUES:0.770425,0.870741,0.319776,0.432130,0.604982,624.000000,587.000000,37.000000,50.000000,0.000000,0.000000,0.000000,0.000000,0.000000,0.770425,0.870741,0.319776,0.432130,0.604982,624.000000,587.000000,37.000000,50.000000,0.000000,0.000000,0.000000,0.000000,0.000000;
#CREDIT:;
#OFFSET:-0.353695;
#BPMS:0.000000=175.000000
,268.000000=198.345001
,270.000000=200.000000
;
#STOPS:;
#DELAYS:;
#WARPS:;
#TIMESIGNATURES:0.000000=4=4
;
#TICKCOUNTS:0.000000=4
;
#COMBOS:0.000000=1
;
#SPEEDS:0.000000=1.000000=0.000000=0
;
#SCROLLS:0.000000=1.143000
,267.000000=0.000000
,270.000000=1.000000
;
#FAKES:;
#LABELS:0.000000=Song Start
;
#NOTES:
// measure 0
0000
0000
0000
0000
,  // measure 1
0000
0000
0000
0000
,  // measure 2
0000
0000
0000
0000
,  // measure 3
0000
0000
0000
0000
,  // measure 4
1000
0100
0001
0100
1000
0001
1001
0000
,  // measure 5
0001
0100
1001
0000
1000
0100
1001
0000
,  // measure 6
0001
0100
1000
0100
0001
1000
1001
0000
,  // measure 7
1000
0000
0100
0000
0010
0000
0001
0000
1000
0001
1000
0001
1000
0000
0000
0000
,  // measure 8
0001
0000
0010
0001
0010
0000
0001
0000
1000
0000
0001
0100
0001
0000
0000
0000
,  // measure 9
1000
0000
0010
1000
0010
0000
1000
0000
0001
0000
1000
0100
1000
0000
0000
0000
,  // measure 10
0001
0000
0100
0001
0100
0000
0001
0000
1000
0000
0100
1000
0100
0000
1000
0000
,  // measure 11
0001
0100
0001
0000
1000
0100
1000
0000
0001
0100
0001
0100
0010
0000
0000
0000
,  // measure 12
1000
0100
1000
0000
0001
0010
1000
0010
,  // measure 13
0002
1000
1000
1000
1000
1000
1000
1003
,  // measure 14
0001
0100
0001
0000
1000
0010
0001
0010
,  // measure 15
2000
0001
0001
0001
0001
0001
0001
3001
,  // measure 16
2000
0000
0100
3002
0000
0010
1003
0001
,  // measure 17
0200
0000
0010
0000
0010
0000
0010
0000
0010
0000
0010
0000
0310
0100
0010
0000
,  // measure 18
2000
0000
0010
3002
0000
0100
1003
0001
,  // measure 19
0010
0000
0010
0100
0010
0000
0100
0000
0100
0010
0100
0000
1001
0000
0000
0000
,  // measure 20
1000
0010
0110
0010
1000
0100
0110
0000
,  // measure 21
0001
0010
1100
0000
1000
0010
0101
0000
,  // measure 22
0001
0010
0110
0010
0001
0100
0110
0000
,  // measure 23
0100
0010
1001
0000
0001
0010
0100
1000
,  // measure 24
0002
0100
0000
1003
0001
0000
1000
0000
0100
0000
0120
0000
0000
0130
0000
0000
,  // measure 25
2000
0100
0000
3001
1000
0000
0001
0000
0100
0000
0120
0000
0000
0130
0000
0000
,  // measure 26
0002
0100
0000
1003
0001
0000
1000
0000
2000
0100
0000
3001
1000
0000
0001
0000
,  // measure 27
0002
0100
0000
1003
0001
0000
1000
0000
0100
0000
0020
0000
0000
0032
0000
0000
,  // measure 28
2003
0010
0000
3100
1000
0000
0001
0000
0010
0000
0210
0000
0000
0310
0000
0000
,  // measure 29
0002
0010
0000
0103
0001
0000
1000
0000
0010
0000
0210
0000
0000
0310
0000
0000
,  // measure 30
2000
0010
0000
3100
1000
0000
1000
0000
0002
0010
0000
0103
0001
0000
0001
0000
,  // measure 31
2000
0010
0000
3100
1000
0000
1000
0000
0100
0010
0001
0000
0100
0010
1000
0000
,  // measure 32
0001
0000
1002
0000
0000
0103
0110
0000
,  // measure 33
1000
0000
2001
0000
0000
3100
0010
0100
,  // measure 34
0010
1001
0010
1001
,  // measure 35
0102
0000
0000
0000
0003
0000
2100
0000
0000
0000
3001
0100
0001
0100
0010
0000
,  // measure 36
1000
0000
0010
0000
0100
0010
0000
1000
0000
0001
0000
0010
0100
0000
0010
0000
,  // measure 37
0001
0000
0010
0000
0100
0010
0000
0001
0000
1000
0000
0010
0100
0000
0010
0000
,  // measure 38
1010
1000
0100
0000
0011
0001
0100
0000
,  // measure 39
2010
0000
0000
0000
3000
0000
0012
0000
0000
0000
1003
0100
1000
0100
0010
0000
,  // measure 40
0001
1000
0010
1000
0001
0000
0000
0000
1000
0001
0010
0001
1000
0000
0000
0000
,  // measure 41
0001
1000
0010
1000
0001
0000
0000
0000
1000
0001
0010
0001
1000
0000
0000
0000
,  // measure 42
0001
0100
0001
0000
1000
0100
1000
0000
0001
0100
0001
0000
1000
0100
1000
0000
,  // measure 43
0001
0100
0010
0100
0001
0000
0000
0000
1000
0100
0010
0100
1000
0000
0000
0000
,  // measure 44
0001
0100
0010
1000
0100
0001
0100
1000
,  // measure 45
0010
0100
0001
1000
0100
0010
1000
0010
,  // measure 46
0001
1000
0010
0100
0010
0001
0010
1000
,  // measure 47
0200
0000
0300
0110
,  // measure 48
1001
0000
0000
1000
0100
0000
0010
0000
1000
0000
0010
0000
0100
0000
1000
0000
,  // measure 49
1001
0000
0000
0001
0100
0000
0010
0000
0001
0000
0010
0000
0100
0000
0001
0000
,  // measure 50
1001
0000
0000
1000
0001
0000
0010
0000
1000
0000
0001
0000
0100
0000
1000
0000
,  // measure 51
0001
0100
0001
0000
1000
0100
1000
0000
0001
0100
0001
0100
0010
0000
0000
0000
,  // measure 52
1000
0010
1000
0000
0010
0100
0010
0000
0100
0001
0100
0000
0001
1000
0001
0000
,  // measure 53
0010
0001
0010
0000
0100
0010
0100
0000
1000
0100
1000
0000
0001
1000
0001
0000
,  // measure 54
0100
0010
1000
0000
0001
0010
0100
0000
1000
0001
0100
0000
0010
1000
0001
0000
,  // measure 55
0010
0100
1000
0000
0010
1000
0100
0000
0010
0001
0100
0000
0010
1000
0001
0000
,  // measure 56
1000
0100
1000
0100
1000
0000
0000
0000
0001
0100
0001
0100
0001
0000
0000
0000
,  // measure 57
1000
0100
1000
0100
0010
0000
0000
0000
0001
0100
0001
0100
0010
0000
0000
0000
,  // measure 58
1000
0100
0010
0100
1000
0000
0000
0000
0001
0100
0010
0100
0001
0000
0000
0000
,  // measure 59
1000
0100
0010
0001
1000
0000
0000
0000
0001
0100
0010
1000
0001
0000
0000
0000
,  // measure 60
0001
0010
0001
0010
0100
0000
1000
0000
0001
0100
0001
0100
0010
0000
1000
0000
,  // measure 61
0100
0010
0100
0010
0001
0000
1000
0000
0010
0100
0010
0100
0001
0000
1000
0000
,  // measure 62
0002
0010
0000
0000
0023
0100
0000
0000
0230
1000
0000
0000
2300
0001
0000
0000
,  // measure 63
3002
0100
0000
0000
2003
0010
0000
0000
3002
0010
0000
0000
2003
0000
0100
0000
,  // measure 64
3001
0010
1000
0010
0001
0100
1000
0100
,  // measure 65
0001
0010
1000
0010
0001
0100
1000
0100
,  // measure 66
0020
0200
0000
0000
,  // measure 67
0000
0000
0300
0030
,  // measure 68
1000
0010
1000
0010
0100
0000
0000
0000
0100
0010
0100
0010
1000
0000
0000
0000
,  // measure 69
0001
0010
0001
0010
0100
0000
0000
0000
0100
0010
0100
0010
0001
0000
0000
0000
,  // measure 70
2000
0100
0000
0000
3200
0010
0000
0000
0320
0001
0000
0000
0032
1000
0000
0000
,  // measure 71
2003
0010
0000
0000
3002
0100
0000
0000
2003
0100
0000
0000
3002
0000
0010
0000
,  // measure 72
1003
0010
0001
1000
0100
0001
0010
1000
,  // measure 73
0001
0100
1000
0010
0001
1000
0100
0001
,  // measure 74
0020
0200
0000
0330
,  // measure 75
0110
0000
1001
0000
0000
0000
0101
0000
0000
0000
0000
0000
,  // measure 76
1010
0000
1100
0000
,  // measure 77
0011
0000
0100
0000
;
