#TITLE:tundramania;
#SUBTITLE:;
#ARTIST:fractilx;
#TITLETRANSLIT:;
#SUBTITLETRANSLIT:;
#ARTISTTRANSLIT:;
#GENRE:Trance;
#CREDIT:;
#BANNER:tundramania.png;
#BACKGROUND:tundramania-bg.png;
#LYRICSPATH:;
#CDTITLE:cdtitle.png;
#MUSIC:tundramania.ogg;
#OFFSET:-0.003175;
#SAMPLESTART:67.605827;
#SAMPLELENGTH:13.521126;
#SELECTABLE:YES;
#BPMS:0.000000=142.000000
;
#STOPS:
;
#BGCHANGES:;
#KEYSOUNDS:;
#ATTACKS:;

//---------------dance-single - ----------------
#NOTES:
     dance-single:
     :
     Challenge:
     12:
     0.464814,0.566809,0.236632,1.335283,0.236632,385.000000,357.000000,28.000000,158.000000,0.000000,0.000000,0.464814,0.566809,0.236632,1.335283,0.236632,385.000000,357.000000,28.000000,158.000000,0.000000,0.000000:
// measure 0
0000
0000
0000
0000
,  // measure 1
0000
0000
0000
0000
,  // measure 2
0000
0000
0000
0000
,  // measure 3
0000
0000
0000
0000
,  // measure 4
2000
0000
3020
0000
0032
0000
0023
0000
0030
1000
0000
0000
0010
0000
0100
0000
,  // measure 5
0010
0000
0000
1000
0000
0000
0010
0000
0000
0100
0000
0000
0010
0000
1000
0000
,  // measure 6
0002
0000
0023
0000
2030
0000
3020
0000
0030
0001
0000
0000
0010
0000
0100
0000
,  // measure 7
0220
0030
0000
0300
,  // measure 8
2000
0000
3020
0000
0032
0000
0023
0000
0030
1000
0000
1000
0100
0000
0010
0000
,  // measure 9
0001
0000
0000
0000
0000
0000
0100
0000
0000
0000
0000
0000
1000
0000
0000
0000
0000
0000
0100
0000
0000
0000
0100
0000
0020
0030
2000
3000
0000
0000
2000
3000
,  // measure 10
0002
0000
0023
0000
2030
0000
3020
0000
0030
0001
0000
0001
0100
0000
0010
0000
,  // measure 11
1000
0000
0000
0100
0000
0000
0001
0000
0000
0100
0000
0100
1000
0001
1000
0000
,  // measure 12
0002
0000
0203
0000
2300
0000
3200
0000
0300
0001
0000
0001
0010
0000
0100
0000
,  // measure 13
1000
0000
0000
0000
0000
0000
0010
0000
0000
0000
0000
0000
0001
0000
0000
0000
0000
0000
0010
0000
0000
0000
0010
0000
0200
0300
0002
0003
0000
0000
0002
0003
,  // measure 14
2000
3200
0302
0203
1300
0010
0100
0001
,  // measure 15
0040
0400
0000
0000
0000
0000
0000
0000
0000
0000
0000
0000
0330
0000
0001
0000
,  // measure 16
0200
2300
3200
0002
0003
0020
0030
2000
,  // measure 17
3000
2000
3000
0020
0030
0002
0303
2000
,  // measure 18
3200
0302
0203
2000
3000
0020
0030
0002
,  // measure 19
0003
0002
0003
0020
0030
2000
3300
0200
,  // measure 20
0302
0203
2300
0020
0030
0002
0003
0002
,  // measure 21
0003
0000
0000
0000
0000
0000
0000
0000
0200
0000
0000
0000
0000
0000
0000
0000
0300
0000
0000
0000
0000
0000
0000
0000
0200
0000
0000
0000
0000
0000
0000
0000
0300
0000
0000
0000
0000
0000
0000
0000
0002
0000
0000
0000
0000
0000
0000
0000
3003
0000
0000
0000
0000
0000
0000
0000
2000
0000
0000
0000
0000
0000
0000
3000
,  // measure 22
0000
0000
0000
0000
0000
0000
0000
0000
0020
0000
0000
0000
0000
0000
0030
0000
0000
0000
0000
0000
0000
0000
0000
0000
0200
0000
0000
0000
0000
0300
0000
0000
0000
0000
0000
0000
0000
0000
0000
0000
0002
0000
0000
0000
0003
0000
0000
0000
0000
0000
0000
0000
0000
0000
0000
0000
0020
0000
0000
0030
0000
0000
0000
0000
,  // measure 23
0000
0000
0000
0000
0000
0000
0000
0000
0200
0000
0300
0000
0000
0000
0000
0000
0000
0000
0000
0000
0000
0000
0000
0000
2000
3000
0000
0000
0000
0000
0000
0000
0000
0000
0000
0000
0000
0000
0000
0000
0001
0000
0000
0000
0000
0000
0000
0000
0000
0000
0000
0000
0000
0000
0000
0000
0000
0000
0000
0000
0000
0000
0000
0000
,  // measure 24
2001
0010
0000
0010
,  // measure 25
3002
0010
2003
0100
,  // measure 26
3002
0000
0100
1000
2003
0000
3200
0000
,  // measure 27
0000
0310
0002
1003
,  // measure 28
0020
1000
0230
0001
,  // measure 29
0320
2030
3200
0302
,  // measure 30
0023
2030
3002
0023
,  // measure 31
0000
0000
0100
0000
0000
0130
0010
0001
,  // measure 32
1000
0000
1000
0100
0001
0000
0001
0010
,  // measure 33
1000
0000
1000
0100
0001
0100
1000
0000
,  // measure 34
0001
0000
0001
0100
1000
0000
1000
0010
,  // measure 35
0001
0000
0001
0100
1000
0100
0001
0000
,  // measure 36
0001
0010
0001
0010
1000
0010
1000
0010
,  // measure 37
1000
0100
1000
0100
0001
0100
0001
0010
,  // measure 38
0004
4000
0000
0000
0000
0000
0000
0000
0000
0000
0000
0000
0000
0000
3003
0000
,  // measure 39
2002
0000
0000
0000
3003
0000
0000
0001
0000
0001
0100
0000
0010
0000
1000
0000
,  // measure 40
0001
0010
0100
0020
0000
2000
3000
0002
,  // measure 41
0003
0000
0200
0000
0330
0000
0220
0000
0330
0000
2002
0000
3003
0000
1000
0001
,  // measure 42
1000
0010
0100
0220
0300
0002
0003
2000
,  // measure 43
3000
0000
0200
0000
0330
0000
2002
0000
3003
0000
0001
0100
0000
0010
1000
0000
,  // measure 44
0001
1000
0100
0210
0000
0002
0003
0020
,  // measure 45
0030
0000
1300
0100
0000
0000
0022
0000
0033
0000
0001
0100
0000
0000
1000
0010
,  // measure 46
1000
0001
0100
0210
0000
2000
3000
0020
,  // measure 47
0330
0000
0001
0100
0000
0000
1000
0010
0000
0000
1000
0100
0000
0000
0001
0010
,  // measure 48
0001
0100
1000
2200
3300
0102
1003
2002
,  // measure 49
3003
0000
0021
0000
0130
0000
2200
0000
3300
0000
0010
0000
0001
0000
1000
0010
,  // measure 50
1000
0100
0001
0202
0303
2100
3001
2002
,  // measure 51
3003
0000
1020
0000
0130
0000
0202
0000
0303
0000
1000
0100
0000
0010
0001
0000
,  // measure 52
1000
0010
0001
0022
0033
0120
1030
2002
,  // measure 53
3003
0000
0001
0010
0000
0000
1000
0100
0000
0000
1000
0010
0000
0000
0001
0100
,  // measure 54
0001
0010
1000
2020
3030
0120
0031
2002
,  // measure 55
3003
0000
0001
0100
0000
0000
0100
1000
0000
0000
1000
0010
0000
0000
0010
0001
,  // measure 56
2000
3020
0032
0023
0030
0002
0103
0002
,  // measure 57
0003
0000
0200
0000
1300
0000
0200
0000
0300
0000
2000
0010
3000
0010
0200
0000
,  // measure 58
0302
0023
2030
3020
0030
2000
3100
2000
,  // measure 59
3000
0000
0200
0000
0301
0000
0200
0000
0300
0000
0002
0010
0003
0010
0200
0000
,  // measure 60
1300
0010
1000
0010
0001
0010
0001
0010
,  // measure 61
1000
0100
1000
0100
0001
0100
1000
0001
,  // measure 62
0400
0040
0000
0000
0000
0000
0000
0000
0000
0000
0000
0000
0000
0000
0330
0000
,  // measure 63
2002
0000
0000
0000
3003
0000
0000
1000
0100
0010
0001
0000
0100
0000
0110
0000
;

//---------------dance-single - ----------------
#NOTES:
     dance-single:
     :
     Hard:
     10:
     0.404448,0.458845,0.177474,0.557776,0.000000,335.000000,314.000000,21.000000,66.000000,0.000000,0.000000,0.404448,0.458845,0.177474,0.557776,0.000000,335.000000,314.000000,21.000000,66.000000,0.000000,0.000000:
// measure 0
0000
0000
0000
0000
,  // measure 1
0000
0000
0000
0000
,  // measure 2
0000
0000
0000
0000
,  // measure 3
0000
0000
0000
0000
,  // measure 4
1000
0100
1000
0100
,  // measure 5
0001
0100
0001
0100
,  // measure 6
1000
0010
1000
0010
,  // measure 7
2002
3000
0000
0003
,  // measure 8
2000
3020
0230
0302
1003
0000
1010
1000
,  // measure 9
0001
0000
1010
0000
0001
0000
1010
1000
,  // measure 10
0002
0023
0230
2300
3001
0000
0011
0001
,  // measure 11
1000
0000
0011
0000
1000
0000
0011
0001
,  // measure 12
2000
3020
0032
0023
1030
0000
0110
0010
,  // measure 13
1000
0000
0110
0000
1000
0000
0110
0100
,  // measure 14
0002
0023
2030
3020
0031
0000
0110
0010
,  // measure 15
0002
0000
1000
0000
0000
0000
1003
0001
,  // measure 16
2000
3020
0230
0302
0000
0010
0000
1000
,  // measure 17
0000
0010
0000
1000
0000
0010
0000
2003
,  // measure 18
3002
0023
0230
2300
0000
0010
0000
0001
,  // measure 19
0000
0010
0000
0001
0000
0010
0000
3002
,  // measure 20
0203
0320
2030
3200
0000
1000
0000
0010
,  // measure 21
0000
0001
0000
0010
0000
1300
0000
0100
,  // measure 22
0000
0001
0000
0100
0000
1000
0000
0100
,  // measure 23
0000
0001
0000
0100
0000
1000
0000
0000
,  // measure 24
2001
0010
0000
0010
,  // measure 25
3002
0010
2003
0100
,  // measure 26
3002
0000
0100
1000
2003
0000
3200
0000
,  // measure 27
0000
0310
0002
1003
,  // measure 28
0020
1000
0230
0001
,  // measure 29
0320
2030
3200
0302
,  // measure 30
0023
2030
3002
0023
,  // measure 31
0000
0000
0100
0000
0000
0130
0010
0001
,  // measure 32
1000
0000
0010
1000
0010
0000
0010
0100
,  // measure 33
0010
0000
1000
0010
0100
0001
0010
0000
,  // measure 34
0001
0000
0010
0001
0010
0000
0010
0100
,  // measure 35
0010
0000
0001
0010
0100
1000
0010
0000
,  // measure 36
1000
0010
1000
0000
0100
1000
0100
0000
,  // measure 37
0010
0001
0010
0000
0001
0100
0001
0000
,  // measure 38
1000
0100
0010
0001
0100
0010
1000
0000
,  // measure 39
2002
0000
0000
3003
,  // measure 40
0001
1000
0100
1000
0000
0100
0001
0100
,  // measure 41
0000
0001
0010
0001
0000
0010
1000
0010
,  // measure 42
0000
1000
0100
1000
0000
0100
0001
0100
,  // measure 43
0000
0001
0010
0001
0000
0010
1000
0010
,  // measure 44
0000
0001
0100
0001
0000
0100
1000
0100
,  // measure 45
0000
1000
0010
1000
0000
0010
0001
0010
,  // measure 46
0000
0001
0100
0001
0000
0100
1000
0100
,  // measure 47
0000
1000
0010
1000
0000
0010
0001
0010
,  // measure 48
0000
1000
0100
0001
0000
0100
0001
0010
,  // measure 49
0000
0001
0010
1000
0000
0010
1000
0100
,  // measure 50
0000
1000
0010
0001
0000
0010
0001
0100
,  // measure 51
0000
0001
0100
1000
0000
0100
1000
0010
,  // measure 52
0000
1000
0100
0001
0000
0010
0001
0100
,  // measure 53
0000
1000
0010
0001
0000
0100
0001
0010
,  // measure 54
0000
1000
0100
0001
0000
1000
0010
0001
,  // measure 55
0000
0001
0100
1000
0000
0001
0010
1000
,  // measure 56
0002
0023
0230
0320
0030
0011
0000
0100
,  // measure 57
0000
1010
0000
0100
0000
0011
0000
0001
,  // measure 58
2000
3020
0230
0320
0030
1010
0000
0001
,  // measure 59
0000
1100
0000
1000
0000
0011
0000
0001
,  // measure 60
2000
3200
0320
0032
0003
0100
0010
1000
,  // measure 61
0000
0100
0010
0001
0000
0100
0010
1000
,  // measure 62
0001
0010
0100
1000
0010
0100
0001
0000
,  // measure 63
2002
0000
3003
0000
0001
1000
0100
0110
;

//---------------dance-single - ----------------
#NOTES:
     dance-single:
     :
     Medium:
     7:
     0.322351,0.431854,0.245084,0.338046,0.000000,267.000000,238.000000,29.000000,40.000000,0.000000,0.000000,0.322351,0.431854,0.245084,0.338046,0.000000,267.000000,238.000000,29.000000,40.000000,0.000000,0.000000:
// measure 0
0000
0000
0000
0000
,  // measure 1
0000
0000
0000
0000
,  // measure 2
0000
0000
0000
0000
,  // measure 3
0000
0000
0000
0000
,  // measure 4
1000
1000
0100
0100
,  // measure 5
0001
0001
0010
0010
,  // measure 6
1000
1000
0100
0100
,  // measure 7
2002
3003
0000
1001
,  // measure 8
0002
0000
0203
0000
0301
0000
0100
0001
,  // measure 9
0010
0000
0001
0000
0010
0000
0001
0001
,  // measure 10
2000
0000
3200
0000
1300
0000
0100
1000
,  // measure 11
0010
0000
1000
0000
0010
0000
1000
1000
,  // measure 12
0002
0000
0203
0000
0310
0000
0100
0001
,  // measure 13
0010
0000
0001
0000
0100
0000
0001
0001
,  // measure 14
2000
0000
3200
0000
0310
0000
0100
1000
,  // measure 15
0020
0000
0100
0130
,  // measure 16
2002
0000
0000
3003
0000
0001
0000
1000
,  // measure 17
0000
0001
0000
0100
0000
0001
0000
0100
,  // measure 18
0000
1000
0000
0100
0000
1000
0000
0100
,  // measure 19
0000
1000
0000
0010
0000
1000
0000
0010
,  // measure 20
0000
0001
0000
0010
0000
0001
0000
0010
,  // measure 21
0000
0001
0000
0100
0000
0001
0000
0100
,  // measure 22
0000
0001
0000
0010
0000
0100
0000
1000
,  // measure 23
0000
0010
0000
0100
0000
0001
0000
0000
,  // measure 24
1001
2000
0000
3000
,  // measure 25
0200
0300
0020
0030
,  // measure 26
0200
0000
0300
2000
3002
0000
2003
0000
,  // measure 27
0000
3000
0002
0003
,  // measure 28
0200
0300
0020
0030
,  // measure 29
2000
3020
0230
0302
,  // measure 30
0023
0230
2300
3002
,  // measure 31
0000
0000
0003
0000
0000
0001
0100
0010
,  // measure 32
1000
1000
0010
0010
,  // measure 33
0100
0100
0001
0001
,  // measure 34
0010
0010
0100
0100
,  // measure 35
1000
1000
0001
0001
,  // measure 36
1000
0010
0001
0010
,  // measure 37
1000
0100
0001
0100
,  // measure 38
2000
0010
0010
3010
,  // measure 39
2002
0000
0000
3003
,  // measure 40
0000
0001
0010
0001
0000
1000
0000
1100
,  // measure 41
0000
0100
0000
0101
0000
0001
0000
1000
,  // measure 42
0000
1000
0010
1000
0000
0001
0000
0101
,  // measure 43
0000
0100
0000
1100
0000
1000
0000
0001
,  // measure 44
0000
1000
0100
1000
0000
0010
0000
1010
,  // measure 45
0000
0010
0000
0011
0000
0001
0000
1000
,  // measure 46
0000
0001
0100
0001
0000
0010
0000
0011
,  // measure 47
0000
0010
0000
1010
0000
1000
0000
0001
,  // measure 48
0000
1000
0100
0010
0000
0100
0000
0011
,  // measure 49
0000
1001
0000
1010
0000
1001
0000
0011
,  // measure 50
0000
0001
0100
0010
0000
1000
0000
0101
,  // measure 51
0000
1001
0000
1100
0000
1001
0000
0101
,  // measure 52
0000
1000
0100
0010
0000
0001
0000
0101
,  // measure 53
0000
1010
0000
1100
0000
0011
0000
1001
,  // measure 54
0000
0001
0100
0010
0000
1000
0100
0010
,  // measure 55
0002
0000
0000
0003
,  // measure 56
1000
0100
1000
0200
0000
0000
0000
1000
,  // measure 57
0000
0010
0000
1000
0000
0010
0000
1300
,  // measure 58
0001
0100
0001
0200
0000
0000
0000
0001
,  // measure 59
0000
0010
0000
0001
0000
0010
0000
0301
,  // measure 60
1000
0100
1000
0100
,  // measure 61
0001
0100
0001
0100
,  // measure 62
2000
0010
0010
3010
,  // measure 63
2002
0000
3003
0000
0001
0001
0100
0010
;

//---------------dance-single - ----------------
#NOTES:
     dance-single:
     :
     Easy:
     4:
     0.187133,0.242918,0.042256,0.278888,0.000000,155.000000,150.000000,5.000000,33.000000,0.000000,0.000000,0.187133,0.242918,0.042256,0.278888,0.000000,155.000000,150.000000,5.000000,33.000000,0.000000,0.000000:
// measure 0
0000
0000
0000
0000
,  // measure 1
0000
0000
0000
0000
,  // measure 2
0000
0000
0000
0000
,  // measure 3
0000
0000
0000
0000
,  // measure 4
1000
0000
1000
0000
,  // measure 5
0001
0000
0001
0000
,  // measure 6
0100
0000
0010
0000
,  // measure 7
2002
0000
0000
3003
,  // measure 8
0002
0023
0031
0000
,  // measure 9
0010
0010
0010
0000
,  // measure 10
2000
3020
1030
0000
,  // measure 11
0010
0010
0010
0000
,  // measure 12
0002
0203
0301
0000
,  // measure 13
0100
0100
0100
0000
,  // measure 14
2000
3200
1300
0000
,  // measure 15
0100
0100
0100
0100
,  // measure 16
2002
0000
0000
3003
0000
0000
0000
0000
,  // measure 17
1000
0000
0000
0000
,  // measure 18
0200
0000
0000
0300
0000
0000
0000
0000
,  // measure 19
0001
0000
0000
0000
,  // measure 20
0020
0000
0000
0030
0000
0000
0000
0000
,  // measure 21
1000
0000
0000
0000
,  // measure 22
0200
0000
0000
0300
0000
0000
0000
0000
,  // measure 23
0000
0000
0000
0000
,  // measure 24
1000
0002
0000
0003
,  // measure 25
0200
0300
0020
0030
,  // measure 26
2000
3000
0001
0020
,  // measure 27
0000
0030
0002
0003
,  // measure 28
2000
3000
0002
0003
,  // measure 29
1000
0010
1000
0001
,  // measure 30
1000
0001
0010
0002
,  // measure 31
0000
0003
0000
1000
,  // measure 32
0001
0000
0100
0000
,  // measure 33
0010
0010
1000
1000
,  // measure 34
0001
0000
0010
0000
,  // measure 35
0100
0100
1000
1000
,  // measure 36
0001
0000
0100
0010
,  // measure 37
1000
0000
0100
0010
,  // measure 38
0100
0100
0100
0100
,  // measure 39
2002
0000
0000
3003
,  // measure 40
1000
0100
1000
0000
,  // measure 41
0100
0001
0100
0000
,  // measure 42
0001
0010
0001
0000
,  // measure 43
0010
1000
0010
0000
,  // measure 44
1000
0100
1000
0000
,  // measure 45
0100
0001
0100
0000
,  // measure 46
0001
0010
0001
0000
,  // measure 47
0010
1000
0010
0000
,  // measure 48
1000
0100
0001
0000
,  // measure 49
0001
0010
1000
0000
,  // measure 50
0001
0100
1000
0000
,  // measure 51
1000
0010
0001
0000
,  // measure 52
0100
0010
1000
0000
,  // measure 53
0100
0010
0001
0000
,  // measure 54
1000
0010
0001
0100
,  // measure 55
2000
0000
0000
3000
,  // measure 56
0002
0203
0301
0000
,  // measure 57
0100
0100
0100
0000
,  // measure 58
2000
3200
1300
0000
,  // measure 59
0100
0100
0100
0000
,  // measure 60
0001
0000
0010
0000
,  // measure 61
0100
0000
1000
0000
,  // measure 62
0010
0010
0010
0010
,  // measure 63
2002
0000
0000
0000
3003
0000
0000
0110
;

//---------------dance-single - ----------------
#NOTES:
     dance-single:
     :
     Beginner:
     1:
     0.072438,0.107964,0.033805,0.092963,0.000000,60.000000,56.000000,4.000000,11.000000,0.000000,0.000000,0.072438,0.107964,0.033805,0.092963,0.000000,60.000000,56.000000,4.000000,11.000000,0.000000,0.000000:
// measure 0
0000
0000
0000
0000
,  // measure 1
0000
0000
0000
0000
,  // measure 2
0000
0000
0000
0000
,  // measure 3
0000
0000
0000
0000
,  // measure 4
1000
0000
0000
0000
,  // measure 5
0001
0000
0000
0000
,  // measure 6
0100
0000
0000
0000
,  // measure 7
2002
0000
3003
0000
,  // measure 8
0001
0000
0000
0000
,  // measure 9
0010
0000
0000
0000
,  // measure 10
1000
0000
0000
0000
,  // measure 11
0100
0000
0000
0000
,  // measure 12
0001
0000
0000
0000
,  // measure 13
0010
0000
0000
0000
,  // measure 14
1000
0000
0000
0000
,  // measure 15
0100
0000
0000
0000
,  // measure 16
2002
0000
0000
3003
0000
0000
0000
0000
,  // measure 17
0000
0000
0000
0000
,  // measure 18
2000
0000
0000
3000
0000
0000
0000
0000
,  // measure 19
0000
0000
0000
0000
,  // measure 20
0002
0000
0000
0003
0000
0000
0000
0000
,  // measure 21
0000
0000
0000
0000
,  // measure 22
2000
0000
0000
3000
0000
0000
0000
0000
,  // measure 23
0000
0000
0000
0000
,  // measure 24
0001
0000
0000
0000
,  // measure 25
0100
0000
0000
0000
,  // measure 26
0010
0000
0000
0000
,  // measure 27
1000
0000
0000
0000
,  // measure 28
0001
0000
0000
0000
,  // measure 29
0010
0000
0000
0000
,  // measure 30
0100
0000
0000
0000
,  // measure 31
1000
0000
0000
0000
,  // measure 32
0001
0000
0000
0000
,  // measure 33
0100
0000
0000
0000
,  // measure 34
1000
0000
0000
0000
,  // measure 35
0010
0000
0000
0000
,  // measure 36
0001
0000
0000
0000
,  // measure 37
0100
0000
0000
0000
,  // measure 38
0010
0000
0000
0000
,  // measure 39
2002
0000
3003
0000
,  // measure 40
1000
0000
0000
0000
,  // measure 41
0100
0000
0000
0000
,  // measure 42
0001
0000
0000
0000
,  // measure 43
0010
0000
0000
0000
,  // measure 44
1000
0000
0000
0000
,  // measure 45
0100
0000
0000
0000
,  // measure 46
0001
0000
0000
0000
,  // measure 47
0010
0000
0000
0000
,  // measure 48
1000
0000
0000
0000
,  // measure 49
0010
0000
0000
0000
,  // measure 50
0001
0000
0000
0000
,  // measure 51
0100
0000
0000
0000
,  // measure 52
1000
0000
0000
0000
,  // measure 53
0010
0000
0000
0000
,  // measure 54
0001
0000
0000
0000
,  // measure 55
0100
0000
0000
0000
,  // measure 56
1000
0000
0000
0000
,  // measure 57
1000
0000
0000
0000
,  // measure 58
0001
0000
0000
0000
,  // measure 59
0001
0000
0000
0000
,  // measure 60
0100
0000
0000
0000
,  // measure 61
0010
0000
0000
0000
,  // measure 62
0100
0000
0000
0000
,  // measure 63
2002
0000
0000
0000
0000
0000
0000
3003
;
