#VERSION:0.83;
#TITLE:ラムネ marble soda ラムネ;
#SUBTITLE:;
#ARTIST:k o m o n o;
#TITLETRANSLIT:marble soda;
#SUBTITLETRANSLIT:;
#ARTISTTRANSLIT:;
#GENRE:Future Bass;
#ORIGIN:;
#CREDIT:;
#BANNER:marble soda.png;
#BACKGROUND:marble soda-bg.png;
#PREVIEWVID:;
#JACKET:marble soda-jacket.png;
#CDIMAGE:;
#DISCIMAGE:;
#LYRICSPATH:;
#CDTITLE:cdtitle.png;
#MUSIC:marble soda.ogg;
#OFFSET:-1.600024;
#SAMPLESTART:27.199024;
#SAMPLELENGTH:12.800003;
#SELECTABLE:YES;
#BPMS:0.000=150.000,
96.000=75.000,
112.000=150.000,
276.000=75.000;
#STOPS:;
#DELAYS:;
#WARPS:;
#TIMESIGNATURES:0.000=4=4;
#TICKCOUNTS:0.000=4;
#COMBOS:0.000=1;
#SPEEDS:0.000=1.000=0.000=0;
#SCROLLS:0.000=1.000;
#FAKES:;
#LABELS:0.000=Song Start;
#BGCHANGES:;
#KEYSOUNDS:;
#ATTACKS:
;

//---------------dance-single - ----------------
#NOTEDATA:;
#CHARTNAME:;
#STEPSTYPE:dance-single;
#DESCRIPTION:;
#CHARTSTYLE:;
#DIFFICULTY:Challenge;
#METER:13;
#RADARVALUES:0.576187,0.700778,0.293188,1.347079,0.439782,509.000000,472.000000,37.000000,170.000000,44.000000,0.000000,4.000000,0.000000,0.000000,0.576187,0.700778,0.293188,1.347079,0.439782,509.000000,472.000000,37.000000,170.000000,44.000000,0.000000,4.000000,0.000000,0.000000;
#CREDIT:;
#NOTES:
0000
0000
0000
0000
,
0000
0000
0000
0000
,
0000
0000
0000
0000
,
0000
0000
0000
0000
,
0001
0000
0000
0000
0001
0000
0000
0000
0001
0000
0000
0100
0000
0000
0001
0000
,
1000
0000
0000
0000
1000
0000
0000
0000
1000
0000
0000
0100
0000
1000
0001
0000
,
1000
0010
1000
0010
0100
0010
0100
0010
0100
0001
0100
0001
1000
0001
1000
0001
,
0040
0400
0000
0000
0000
0000
0000
0000
0330
0000
0000
0000
MMMM
0000
0000
0000
,
2002
0000
0000
0000
0000
0000
0000
0000
0000
0000
0000
0000
0000
0000
0000
3003
M00M
0000
0000
0000
0000
0000
0000
0000
0102
0000
0000
0000
0000
0000
0000
0000
1003
0000
0000
0000
0000
0000
0000
0000
0000
0000
0000
0000
0000
0000
0000
0000
2002
0000
0000
0000
0000
0000
0000
0000
0000
0000
0000
0000
0000
0000
0000
0000
,
3003
0000
1000
0100
0020
0001
0000
0000
0130
0000
2100
0000
0000
0000
3001
0000
,
0202
0000
0000
0000
0000
0000
0000
0000
0000
0000
0000
0000
0000
0000
0000
0303
0M0M
0000
0000
0000
0000
0000
0000
0000
2010
0000
0000
0000
0000
0000
0000
0000
3001
0000
0000
0000
0000
0000
0000
0000
0000
0000
0000
0000
0000
0000
0000
0000
2002
0000
0000
0000
0000
0000
0000
0000
0000
0000
0000
0000
0000
0000
0000
0000
,
3003
0000
2200
0000
0000
0000
3300
0000
0001
0000
0200
0010
0000
0000
0310
1000
,
0002
0000
0000
0000
0000
0000
0000
0000
0000
0000
0000
0000
0000
0000
0000
0003
M00M
0000
0000
0000
0000
0000
0000
0000
0012
0000
0000
0000
0000
0000
0000
0000
1003
0000
0000
0000
0000
0000
0000
0000
0000
0000
0000
0000
0000
0000
0000
0000
2002
0000
0000
0000
0000
0000
0000
0000
0000
0000
0000
0000
0000
0000
0000
0000
,
3003
0000
0001
0100
0020
1000
0000
0000
0130
0000
0102
0000
0000
0000
1003
0100
,
0020
0000
0000
0000
0000
0000
0000
0000
0000
0000
0000
0000
0000
0000
0000
0030
0MM0
0000
0000
0000
0000
0000
0000
0000
1002
0000
0000
0000
0000
0000
0000
0000
0103
0000
0000
0000
0000
0000
0000
0000
0000
0000
0000
0000
0000
0000
0000
0000
0220
0000
0000
0000
0000
0000
0000
0000
0000
0000
0000
0000
0000
0000
0000
0000
,
0330
0000
0000
0000
0000
0000
0210
0000
0000
0000
0000
0000
0000
0000
0000
0000
0000
0000
0301
0000
0100
0000
0001
0000
0100
0000
0000
0010
0000
0000
1000
0000
0000
0000
0000
0000
MMMM
0000
0000
0000
0000
0000
1000
0000
0000
0000
0000
0000
,
0100
0000
0020
0030
MM02
0003
0200
0000
0000
0000
0302
0003
0200
0300
2000
0000
,
0000
0000
3100
0010
0200
0000
0000
0000
0301
0000
1000
0001
0010
0100
0010
0100
,
2000
0000
0000
0000
0000
0000
0000
0000
0000
0000
0000
0000
0000
0000
0000
3000
MM20
0000
0000
0000
0030
0000
0000
0000
0002
0000
0000
0000
0003
0000
0000
0000
0020
0000
0000
0000
0030
0000
0000
0000
2000
0000
0000
0000
0000
0000
0000
0000
0000
0000
0000
0000
0000
0000
0000
0000
3200
0000
0000
0000
0000
0000
0000
0000
,
0000
0000
0310
0000
0012
0000
0000
0000
1003
0010
0100
0001
0000
0001
0010
0000
,
0100
0000
0020
0030
MM02
0003
0200
0300
0000
0000
0002
0003
0200
0300
2000
0000
,
0000
0000
3002
0000
0000
0000
0013
0000
1000
0000
0010
1000
0001
1000
0000
0000
,
1002
0000
0000
0000
0000
0000
0000
0000
0000
0000
0000
0000
0000
0000
0000
0003
0M2M
0000
0000
0000
0030
0000
0000
0000
2000
0000
0000
0000
3000
0000
0000
0000
0020
0000
0000
0000
0030
0000
0000
0000
0200
0000
0000
0000
0000
0000
0000
0000
0000
0000
0000
0000
0000
0000
0000
0000
2300
0000
0000
0000
0000
0000
0000
0000
,
0000
0000
0000
0000
0000
0000
3001
0000
0000
0000
0000
0000
0200
0000
0000
0300
0000
0000
0010
0000
1000
0000
0010
0000
1000
0000
0000
0001
0000
0000
0200
0000
0000
0000
0000
0000
2300
0000
0000
0000
0000
0000
3200
0000
0000
0000
0000
0000
,
0301
0000
0000
0000
0022
0000
0000
0000
0000
0000
0000
0000
0033
0000
0000
0000
0001
0000
0000
0100
0000
0000
0010
0000
1000
0000
0000
0000
0000
0000
0000
0000
,
0001
0000
0000
0100
0000
0000
1000
0000
0100
0000
0000
0000
0100
0000
0000
0000
0001
0000
0000
0100
0000
0000
0010
0000
0000
0000
0000
0000
0000
0000
0000
0000
,
0000
0000
0000
0000
2020
0000
0000
0000
3030
0000
0000
0000
0001
0000
0000
0000
1000
0000
0000
0100
0000
0000
0010
0000
0001
0000
0000
0000
0000
0000
0000
0000
,
1000
0000
0000
0100
0000
0000
0001
0000
0100
0000
0000
0000
0100
0000
0000
0000
1000
0000
0000
0100
0000
0000
0010
0000
0001
0000
1000
0000
0001
1000
0001
1000
,
0001
0000
0000
0000
1000
0000
0000
0000
0001
0000
0000
0001
0000
0000
0001
0000
,
1000
0000
0000
1000
0010
0000
1000
0000
0001
0000
0000
1000
0000
1000
0100
0010
,
0001
0000
0000
0001
1000
0000
0001
0000
0100
0000
0000
1000
0100
0000
0010
0000
,
0100
0000
0000
0100
0001
0000
0100
0000
0010
1000
0001
0010
0000
0010
0100
0000
,
1000
0000
0000
0000
0001
0000
0000
0000
1000
0000
0000
1000
0010
0000
1000
0000
,
0001
0000
0000
0001
0010
0000
0001
0000
1000
0000
0000
0001
0000
0100
0010
0000
,
1000
0100
1000
0100
0010
0100
0010
0100
0010
0001
0010
0001
1000
0001
1000
0001
,
0200
0000
0000
0320
0000
0000
2030
0000
0002
0000
3003
0000
1000
0001
1000
0001
,
1000
0100
0010
0002
0000
0013
0001
0200
,
0000
0000
0310
0100
0002
0000
0000
0000
1003
0000
0200
0000
0010
0000
0310
0000
,
0012
0000
0013
1000
0010
0002
0000
0203
,
0000
0000
1300
0000
0100
0000
0010
0000
1000
0000
2001
0000
0000
3010
0100
0001
,
1000
0100
0010
0002
0000
0013
0001
2000
,
3000
0000
0020
0000
2030
0000
3000
0000
0200
0000
0300
0000
0010
0001
0010
0000
,
0210
0000
1300
0001
0100
0020
0000
2030
,
0000
0000
0000
3001
0000
0000
1000
0000
0000
0100
0000
0000
0001
0000
0000
0100
0000
0000
0010
0000
0100
0000
1000
0000
,
0001
0100
0010
2000
0000
3010
1000
0200
,
0000
0000
0310
0100
2000
0000
0000
0000
3001
0000
0200
0000
0010
0000
0310
0000
,
2010
0000
3010
0001
0010
2000
0000
3200
,
0000
0000
0310
0000
0021
0000
0000
0000
0031
0100
0010
1000
0000
0100
0010
0000
,
0001
0100
0010
2000
0000
3010
1000
0002
,
0003
0000
0020
0000
0032
0000
0003
0000
0200
0000
0300
0000
0010
1000
0010
0000
,
0210
0000
0301
1000
0100
0020
0000
0032
,
0000
0000
0000
0000
0000
0000
0103
0000
0000
0000
0000
0000
0010
0000
0000
0000
0000
0000
1000
0000
0001
0000
1000
0000
0001
0000
0000
1000
0000
0000
0200
0000
0000
0000
0000
0000
0302
0000
0000
0000
0000
0000
0203
0000
0000
0000
0000
0000
,
4300
0004
0000
0000
0000
0000
0000
0000
3003
0000
0000
0000
MMMM
0000
0000
0000
,
1000
0000
0020
0030
2M0M
3000
0200
0000
0000
0000
2300
3000
0200
0300
0002
0000
,
0000
0000
0103
0010
0200
0000
0000
0000
1300
0000
0001
1000
0020
0000
0230
0000
,
0302
0000
0000
0000
0000
0000
0000
0000
0000
0000
0000
0000
0000
0000
0000
0003
0M2M
0000
0000
0000
0030
0000
0000
0000
2000
0000
0000
0000
3000
0000
0000
0000
0020
0000
0000
0000
0030
0000
0000
0000
0002
0000
0000
0000
0000
0000
0000
0000
0000
0000
0000
0000
0000
0000
0000
0000
0203
0000
0000
0000
0000
0000
0000
0000
,
0000
0000
0310
0000
2010
0000
0000
0000
3001
0010
0100
1000
0000
1000
0010
0000
,
0100
0000
0020
0030
2M0M
3000
0200
0300
0000
0000
2000
3000
0200
0300
0002
0000
,
0000
0000
2003
0000
3020
0000
0000
0000
0031
0000
1000
0001
0100
0010
1000
0000
,
2010
0000
0000
0000
0000
0000
0000
0000
0000
0000
0000
0000
0000
0000
0000
3000
MM20
0000
0000
0000
0030
0000
0000
0000
0002
0000
0000
0000
0003
0000
0000
0000
0020
0000
0000
0000
0030
0000
0000
0000
0200
0000
0000
0000
0000
0000
0000
0000
0000
0000
0000
0000
0000
0000
0000
0000
0302
0000
0000
0000
0000
0000
0000
0000
,
0000
0000
0000
0000
0000
0000
0000
0000
0000
0000
0000
0000
0000
0000
0000
0000
0000
0000
0000
0000
0000
0000
0000
0000
1003
0000
0000
0000
0000
0000
0000
0000
0000
0000
0000
0000
0000
0000
0000
0000
0000
0000
0000
0000
0000
0000
0000
0000
0200
0000
0000
0000
0000
0000
0000
0000
0000
0000
0000
0000
0300
0000
0000
0000
0000
0000
0000
0000
0000
0000
0000
0000
0010
0000
0000
0000
0000
0000
0000
0000
0001
0000
0000
0000
0000
0000
0000
0000
0010
0000
0000
0000
0000
0000
0000
0000
0001
0000
0000
0000
0000
0000
0000
0000
0000
0000
0000
0000
1000
0000
0000
0000
0000
0000
0000
0000
0000
0000
0000
0000
0200
0000
0000
0000
0000
0000
0000
0000
0000
0000
0000
0000
0000
0000
0000
0000
0000
0000
0000
0000
0000
0000
0000
0000
0302
0000
0000
0000
0000
0000
0000
0000
0000
0000
0000
0000
0000
0000
0000
0000
0000
0000
0000
0000
0000
0000
0000
0000
0203
0000
0000
0000
0000
0000
0000
0000
0000
0000
0000
0000
0000
0000
0000
0000
0000
0000
0000
0000
0000
0300
0000
0000
,
0120
0000
0000
0032
0MM0
0000
0203
0000
2300
0000
0000
0000
3200
0000
0302
0000
,
0000
0000
1003
0100
0020
0000
0000
0000
0130
0000
1002
0000
0100
0000
0103
0000
,
0102
0000
0000
0000
0000
0000
0000
0000
0000
0000
0000
0000
0003
0000
0000
0000
M02M
0000
0000
0000
0000
0000
0000
0000
0230
0000
0000
0000
0000
0000
0000
0300
1100
0000
0000
0000
0000
0000
0000
0000
0000
0000
0000
0000
0000
0000
0000
0000
2001
0000
0000
0000
0000
0000
0000
0000
0000
0000
0000
0000
0000
0000
0000
0000
,
3010
0000
0100
0000
0102
0000
0000
0000
1003
0100
0010
0001
0000
0001
0100
0000
,
0120
0000
0000
2030
0MM0
0000
3200
0000
0302
0000
0000
0000
0203
0000
2300
0000
,
0000
0000
3020
0000
2030
0000
0000
0000
3200
0000
0320
0000
0031
0100
0010
0000
,
1020
0000
0000
0000
0000
0000
0000
0000
0000
0000
0000
0000
0030
0000
0000
0000
0MM2
0000
0000
0000
0000
0000
0000
0000
0023
0000
0000
0000
0000
0000
0000
0030
0110
0000
0000
0000
0000
0000
0000
0000
0000
0000
0000
0000
0000
0000
0000
0000
2002
0000
0000
0000
0000
0000
0000
0000
0000
0000
0000
0000
0000
0000
0000
0000
,
3003
0000
0000
0000
0000
0000
1002
0000
0000
0000
0000
0000
0000
0000
0000
0000
0000
0000
0103
0000
0001
0000
0100
0000
0001
0000
0000
1000
0000
0000
0200
0000
0000
0000
0000
0000
0302
0000
0000
0000
0000
0000
0203
0000
0000
0000
0000
0000
,
2300
0000
3000
0002
0000
0000
0003
0000
,
0200
0000
0300
0020
0000
0000
0130
0000
;

//---------------dance-single - ----------------
#NOTEDATA:;
#CHARTNAME:;
#STEPSTYPE:dance-single;
#DESCRIPTION:;
#CHARTSTYLE:;
#DIFFICULTY:Hard;
#METER:11;
#RADARVALUES:0.490156,0.504560,0.079240,1.251991,0.285264,433.000000,423.000000,10.000000,158.000000,16.000000,0.000000,0.000000,0.000000,0.000000,0.490156,0.504560,0.079240,1.251991,0.285264,433.000000,423.000000,10.000000,158.000000,16.000000,0.000000,0.000000,0.000000,0.000000;
#CREDIT:;
#NOTES:
0000
0000
0000
0000
,
0000
0000
0000
0000
,
0000
0000
0000
0000
,
0000
0000
0000
0000
,
1000
0000
0000
0000
1000
0000
0000
0000
1000
0000
0000
0100
0000
0000
1000
0000
,
0001
0000
0000
0000
0001
0000
0000
0000
0001
0000
0000
0100
0000
0001
1000
0000
,
0100
0000
0000
0000
0100
0000
0000
0000
0100
0000
0000
0010
0000
0100
0000
0010
,
0002
0000
0000
1000
0000
0000
0100
0000
0103
0000
0000
0000
MMMM
0000
0000
0000
,
1002
0000
0003
0200
0010
0300
2010
0000
,
3000
0000
0010
1000
0002
0000
0000
0000
1003
0000
0200
0000
0000
0000
0310
0000
,
0002
0000
0003
0200
1300
0000
1200
0000
,
0300
0000
0102
0000
0000
0000
0003
0000
1000
0000
0002
0010
0000
0003
0010
0001
,
2000
0000
3000
0020
0100
0030
0102
0000
,
0003
0000
0100
0001
2000
0000
0000
0000
3100
0000
0020
0000
0000
0000
0031
1000
,
0020
0000
0030
0200
0010
0300
2001
0000
,
3000
0000
1002
0000
0000
0000
1003
0001
1000
0001
1000
0000
MMMM
0000
1000
0000
,
0100
0000
0020
0030
0002
0003
0200
0000
0000
0000
0320
0030
2000
3000
0200
0000
,
0000
0000
0310
0001
2000
0000
0000
0000
3001
0000
0100
0000
0010
1000
0010
1000
,
0002
0000
0000
0000
0023
0030
2000
3000
0020
0030
0002
0000
0000
0000
0203
0000
,
0000
0000
0310
0000
2000
0000
0000
0000
3001
0010
0001
0010
0000
0100
1000
0000
,
0001
0000
0200
0300
0002
0003
0020
0000
0000
0000
0230
0300
2000
3000
0020
0000
,
0000
0000
0032
0000
0000
0000
0013
0000
1000
0000
0100
1000
0100
1000
0000
0000
,
0002
0000
0000
0000
0203
0300
2000
3000
0200
0300
0002
0000
0000
0000
0023
0000
,
0000
0000
0130
0000
1000
0000
0001
0100
0001
0100
0002
0000
0203
0000
0320
0000
,
1030
0000
0000
0000
0002
0000
0000
0000
0000
0000
0000
0000
0003
0000
0000
0000
1000
0000
0000
0100
0000
0000
1000
0000
0100
0000
0000
0000
0000
0000
0000
0000
,
1000
0000
0000
0100
0000
0000
1000
0000
0001
0000
0000
0000
0001
0000
0000
0000
1000
0000
0000
0100
0000
0000
1000
0000
0000
0000
0000
0000
0000
0000
0000
0000
,
0000
0000
0000
0000
0002
0000
0000
0000
0000
0000
0000
0000
0013
0000
0000
0000
0001
0000
0000
0100
0000
0000
0001
0000
0100
0000
0000
0000
0000
0000
0000
0000
,
0001
0000
0000
0100
0000
0000
0001
0000
1000
0000
0000
0000
1000
0000
0000
0000
0001
0000
0000
0100
0000
0000
0010
0000
1000
0000
0000
0000
0001
0000
1000
0000
,
0001
0010
0001
0001
,
1000
0000
0000
0010
0000
0000
1000
0000
0100
0000
0000
0000
0100
0000
0000
0000
,
1000
0000
0000
0010
0000
0000
1000
0000
0001
0000
0000
0000
0001
0000
0000
0000
,
1000
0000
0000
0010
0000
0000
1000
0000
0001
0010
0001
0010
0000
0100
1000
0000
,
0001
0100
0001
0010
,
0001
0000
0000
0010
0000
0000
0001
0000
0100
0000
0000
0000
0100
0000
0000
0000
,
0001
0010
0100
1000
0010
0100
0001
1000
,
0200
0000
0000
0320
0000
0000
0032
0000
2000
0000
0000
3003
MMMM
0000
0000
0000
,
0001
1000
0001
0200
0000
0310
1000
0002
,
0000
0000
0013
0100
0020
0000
0000
0000
0130
0000
2000
0000
0001
0000
3001
0000
,
0200
0000
0310
1000
0001
0020
0000
0230
,
0000
0000
0301
0000
0100
0000
0010
0000
0001
0000
2000
0000
0000
3001
0100
0001
,
0100
0001
1000
0200
0000
0310
0001
2000
,
0000
3020
0032
0000
0023
0000
1030
1000
,
0002
0000
0013
0100
1000
0020
0000
0230
,
0000
0000
0000
1300
0000
0000
0100
0000
0000
0010
0000
0000
1000
0000
0000
0000
0000
0000
0001
0000
1000
0000
0001
0000
,
1000
0001
1000
0200
0000
0310
0001
2000
,
0000
0000
3010
0100
0020
0000
0000
0000
0130
0000
0002
0000
1000
0000
1003
0000
,
0200
0000
0310
0001
1000
0020
0000
0230
,
0000
0000
1300
0000
0100
0000
0010
0000
0100
0001
0100
0001
0000
1000
0100
0000
,
0010
0001
1000
0020
0000
0130
0001
2000
,
0000
3200
0302
0000
0203
0000
1300
1000
,
0002
0000
0103
0010
1000
0002
0000
0203
,
0000
0000
0310
0000
1000
0000
0001
0010
0001
0010
0002
0000
0203
0000
0320
0000
,
2030
0000
0000
0001
0000
0000
0100
0000
3100
0000
0000
0000
MMMM
0000
0000
0000
,
1000
0000
0020
0030
2000
3000
0200
0000
0000
0000
0320
0030
0002
0003
0200
0000
,
0000
0000
0310
1000
0002
0000
0000
0000
1003
0000
0100
0000
0002
0000
0203
0000
,
2300
0000
0000
0000
3020
0030
0002
0003
0020
0030
2000
0000
0000
0000
3200
0000
,
0000
0000
0310
0000
0002
0000
0000
0000
1003
0010
1000
0010
0000
0100
0001
0000
,
1000
0000
0200
0300
2000
3000
0020
0000
0000
0000
0230
0300
0002
0003
0020
0000
,
0000
0000
2030
0000
3020
0000
0000
0000
0031
0000
0100
0001
0200
0000
0302
0000
,
2003
0000
0000
0000
3200
0300
0002
0003
0200
0300
2000
0000
0000
0000
3020
0000
,
0000
0000
0130
0000
0001
0000
1000
0100
1000
0100
2000
0000
3200
0000
0320
0000
,
0032
0000
0000
0203
0000
0000
2300
0000
3200
0000
0000
0000
0320
0000
2030
0000
,
3000
0000
0001
1000
0200
0000
0000
0000
0310
0000
0002
0000
1000
0000
1003
0000
,
0020
0000
0032
0023
1030
0000
2001
0000
,
0000
0000
0100
0000
3100
0000
0000
0000
0010
0001
0010
0001
0000
1000
0010
0000
,
2000
0000
0000
3200
0000
0000
0302
0000
0203
0000
0000
0000
0320
0000
0032
0000
,
0003
0200
2300
0000
3100
0001
0010
0100
,
0020
0000
2030
3020
0031
0000
1002
0000
,
0003
0000
2001
0000
0000
0000
3001
1000
0001
1000
0002
0000
0023
0000
0230
0000
,
2300
0000
3000
0002
0000
0000
0003
0000
,
0200
0000
0300
0020
0000
0000
0130
0000
;

//---------------dance-single - ----------------
#NOTEDATA:;
#CHARTNAME:;
#STEPSTYPE:dance-single;
#DESCRIPTION:;
#CHARTSTYLE:;
#DIFFICULTY:Medium;
#METER:8;
#RADARVALUES:0.339600,0.364405,0.031696,0.768627,0.043582,300.000000,296.000000,4.000000,97.000000,14.000000,0.000000,0.000000,0.000000,0.000000,0.339600,0.364405,0.031696,0.768627,0.043582,300.000000,296.000000,4.000000,97.000000,14.000000,0.000000,0.000000,0.000000,0.000000;
#CREDIT:;
#NOTES:
0000
0000
0000
0000
,
0000
0000
0000
0000
,
0000
0000
0000
0000
,
0000
0000
0000
0000
,
0001
0001
0100
0100
,
0010
0010
1000
1000
,
0001
0010
0100
1000
,
0002
0100
0103
MMMM
,
2001
0000
3000
0200
0000
0300
0002
0000
,
0003
0100
2000
0000
3001
0200
0000
0310
,
2000
0000
3000
0020
0000
0030
0002
0000
,
0003
0020
0000
0030
1000
0002
0000
0013
,
0002
0000
0003
0200
0000
0300
2000
0000
,
3000
0100
0002
0000
1003
0200
0000
0310
,
0002
0000
0003
0200
0000
0300
0020
0000
,
0030
2000
0000
3001
1000
0001
MMMM
0000
,
0000
0001
0010
0200
0300
0010
0001
2000
,
0000
0000
3010
0000
1000
0010
0100
0001
,
1000
0000
0001
0010
0100
2000
0000
3002
,
0000
0000
0000
0000
0103
0000
0000
0000
0010
0000
0000
1000
0000
0000
0001
0000
,
0000
0001
0010
0200
0300
0010
0001
2000
,
0000
3020
0000
0000
0130
0010
1000
0000
,
1001
0000
1000
0100
0010
0002
0000
0203
,
0000
0300
0020
0000
0031
0010
0100
0010
,
1000
0002
0000
0003
2000
0000
3100
0000
,
2000
0000
0000
0000
3001
0000
0001
0000
2000
0000
0000
3000
0000
0000
0000
0000
,
0000
0002
0000
0013
0002
0000
0103
0000
,
0002
0000
1003
1000
0002
0000
0013
0000
,
0001
1000
0001
0001
,
1000
0000
0000
0010
0000
0000
1000
0000
0010
0000
0000
0000
1000
0000
0000
0000
,
0001
0000
0000
0010
0000
0000
0001
0000
1000
0000
0000
0000
1000
0000
0000
0000
,
0001
0000
0000
0010
0000
0000
0001
0000
0100
0000
0000
0000
0010
0000
0000
0000
,
1000
0001
1000
1000
,
0001
0000
0000
0010
0000
0000
0001
0000
0010
0000
0000
0000
0001
0000
0000
0000
,
1000
0000
0000
0010
0000
0000
1000
0000
0100
0000
0000
0000
0010
0000
0000
0000
,
0022
0000
0033
00MM
,
2000
0000
3000
0002
0000
0003
0200
0001
,
0000
1300
0200
0000
0300
0002
0010
0013
,
0002
0000
0003
0200
0000
0300
0020
0000
,
0030
2000
0000
3000
0001
0020
0000
0130
,
2000
0000
3000
0002
0000
0003
0200
0001
,
0000
1300
0100
0000
0010
0000
1000
0001
,
2000
0000
3000
0200
0000
0300
0020
0000
,
0030
0002
0000
0003
0100
0010
1000
0000
,
0002
0000
0003
2000
0000
3000
0200
1000
,
0000
0301
0200
0000
0300
2000
0010
3010
,
2000
3000
0200
0320
,
0030
0000
0000
0000
0002
0000
0000
0000
1003
0000
0000
0010
0000
0000
0100
0000
,
0002
0000
0003
2000
0000
3000
0200
1000
,
0000
0301
0100
0000
0010
0000
0001
1000
,
0002
0000
0003
2000
0000
3000
0002
0000
,
0003
0200
0000
0300
1000
0100
0010
0100
,
0002
0100
0103
MMMM
,
0000
1000
0010
0200
0300
0010
1000
0002
,
0000
0000
0013
0000
0001
0010
0100
1000
,
0001
0000
1000
0010
0100
0002
0000
2003
,
0000
0000
0000
0000
3100
0000
0000
0000
0010
0000
0000
0001
0000
0000
1000
0000
,
0000
1000
0010
0200
0300
0010
1000
0002
,
0000
0023
0000
0000
0130
0010
0001
0000
,
1001
0000
0001
0100
0010
2000
0000
3200
,
0000
0300
0020
0000
1030
0010
0100
0010
,
0001
0000
0000
0001
0000
0000
0001
0000
0100
0000
0000
0000
0010
0000
1000
0000
,
0000
1000
0002
0000
0003
0020
0100
0130
,
0010
0000
0001
1000
0002
0000
0203
0000
,
0300
0000
0010
0000
0200
0000
0000
0000
0310
0000
0000
1000
0000
0000
0001
0000
,
1000
0000
0000
1000
0000
0000
1000
0000
0100
0000
0000
0000
0010
0000
0001
0000
,
0000
0001
2000
0000
3010
0000
0010
0100
,
0010
0000
1000
0001
2000
0000
3200
0000
,
0300
0010
0200
0000
0301
0100
0010
0100
,
2000
0000
3000
0002
0000
0000
0003
0000
,
0200
0000
0300
0020
0000
0000
0130
0000
;

//---------------dance-single - ----------------
#NOTEDATA:;
#CHARTNAME:;
#STEPSTYPE:dance-single;
#DESCRIPTION:;
#CHARTSTYLE:;
#DIFFICULTY:Easy;
#METER:5;
#RADARVALUES:0.236588,0.252280,0.047544,0.142632,0.000000,209.000000,203.000000,6.000000,18.000000,12.000000,0.000000,0.000000,0.000000,0.000000,0.236588,0.252280,0.047544,0.142632,0.000000,209.000000,203.000000,6.000000,18.000000,12.000000,0.000000,0.000000,0.000000,0.000000;
#CREDIT:;
#NOTES:
0000
0000
0000
0000
,
0000
0000
0000
0000
,
0000
0000
0000
0000
,
0000
0000
0000
0000
,
1000
0000
1000
0000
,
0001
0000
0001
0000
,
1000
0100
0010
0001
,
0200
0000
0300
MMMM
,
1001
0000
1000
0100
,
0000
0100
1000
0010
,
0100
0000
0001
1000
,
0000
1000
0001
0010
,
0001
0000
0001
0100
,
0000
0100
0001
0010
,
0100
0000
1000
0001
,
0000
0001
0100
MMMM
,
0001
0100
0001
0010
,
0002
0000
1003
1000
,
0001
0100
1000
0100
,
0002
0000
0103
0010
,
1000
0100
1000
0010
,
2000
0000
3001
0001
,
1000
0100
0001
0100
,
1000
1000
0020
0030
,
2002
3003
0100
0000
,
0100
0100
0100
0000
,
1001
0000
0010
0000
,
0010
0010
0010
1001
,
0001
1000
0000
1000
,
0001
0100
0010
0000
,
0001
0100
0010
0010
,
0001
0100
0002
0003
,
1000
0001
0000
0001
,
1000
0100
0010
0000
,
1000
0100
0001
0001
,
1000
0100
0020
0030
,
0001
0000
0001
0100
,
0000
0100
0010
1000
,
1000
0000
0001
0010
,
0000
0010
0001
1000
,
0010
0000
0010
1000
,
0000
1000
0100
0001
,
0100
0000
0100
2000
,
0000
0001
3001
0000
,
1000
0000
1000
0010
,
0000
0010
0100
0001
,
0001
0000
1000
0100
,
0000
0100
1000
0010
,
0100
0000
0100
0001
,
0000
0001
0010
1000
,
0010
0000
0010
0002
,
0000
1000
1003
0001
,
0200
0000
0300
MMMM
,
1000
0100
1000
0010
,
2000
0000
3001
0001
,
1000
0100
0001
0100
,
2000
0000
3100
0010
,
0001
0100
0001
0010
,
0002
0000
1003
1000
,
0001
0100
1000
0100
,
0001
0001
0020
0030
,
0001
0100
0010
0100
,
1000
1000
1000
0000
,
1000
0100
0001
0001
,
0000
0010
1001
0000
,
1000
0100
0010
0100
,
0001
0001
0100
0000
,
1000
0010
0100
0100
,
0000
0100
0001
0001
,
2000
0000
0000
3000
0000
0000
0000
0000
,
0002
0000
0000
0003
0000
0000
0110
0000
;

//---------------dance-single - ----------------
#NOTEDATA:;
#CHARTNAME:;
#STEPSTYPE:dance-single;
#DESCRIPTION:;
#CHARTSTYLE:;
#DIFFICULTY:Beginner;
#METER:2;
#RADARVALUES:0.116596,0.151546,0.047544,0.126784,0.000000,103.000000,97.000000,6.000000,16.000000,0.000000,0.000000,0.000000,0.000000,0.000000,0.116596,0.151546,0.047544,0.126784,0.000000,103.000000,97.000000,6.000000,16.000000,0.000000,0.000000,0.000000,0.000000,0.000000;
#CREDIT:;
#OFFSET:-1.600024;
#BPMS:0.000000=150.000000
;
#STOPS:;
#DELAYS:;
#WARPS:;
#TIMESIGNATURES:0.000000=4=4
;
#TICKCOUNTS:0.000000=4
;
#COMBOS:0.000000=1
;
#SPEEDS:0.000000=1.000000=0.000000=0
;
#SCROLLS:0.000000=1.000000
;
#FAKES:;
#LABELS:0.000000=Song Start
;
#NOTES:
0000
0000
0000
0000
,
0000
0000
0000
0000
,
0000
0000
0000
0000
,
0000
0000
0000
0000
,
1000
0000
0000
0000
,
0001
0000
0000
0000
,
1000
0000
0001
0000
,
2000
0000
3000
0000
,
0001
0000
0100
0000
,
0000
0000
0100
0000
,
0001
0000
0010
0000
,
0000
0000
0001
0000
,
1000
0000
0100
0000
,
0000
0000
0100
0000
,
1000
0000
0010
0000
,
0000
0000
1000
0000
,
0001
0000
0001
0000
,
0002
0000
0003
0000
,
0010
0000
0010
0000
,
0020
0000
0030
0000
,
0100
0000
0100
0000
,
0200
0000
0300
0000
,
1000
0000
1000
0000
,
2000
0000
3000
0000
,
1001
0000
0000
0000
,
0100
0000
0000
0000
,
0100
0000
0000
0000
,
0100
0000
0000
0000
,
1001
0000
0000
0000
,
0010
0000
0000
0000
,
0010
0000
0000
0000
,
0010
0000
0000
0000
,
1001
0000
0000
0000
,
0100
0000
0000
0000
,
0100
0000
0100
0000
,
0100
0000
0000
0000
,
1001
0000
0000
0000
,
0010
0000
0000
0000
,
0010
0000
0010
0000
,
0020
0000
0030
0000
,
1000
0000
0000
0000
,
0010
0000
1000
0000
,
0001
0000
0000
0000
,
1000
0000
0000
0000
,
0001
0000
0001
0000
,
1000
0000
1000
0000
,
0100
0000
0000
0000
,
0020
0000
0030
0000
,
0001
0000
0000
0000
,
0010
0000
0001
0000
,
1000
0000
0000
0000
,
0001
0000
0000
0000
,
1000
0000
1000
0000
,
0001
0000
0001
0000
,
0100
0000
0000
0000
,
0020
0000
0030
0000
,
2002
0000
3003
0000
,
1000
0000
1000
0000
,
2000
0000
3000
0000
,
0100
0000
0100
0000
,
0200
0000
0300
0000
,
0010
0000
0010
0000
,
0020
0000
0030
0000
,
0001
0000
0001
0000
,
0002
0000
0003
0000
,
1000
0000
0010
0000
,
0001
0000
0000
0000
,
0001
0000
0100
0000
,
1000
0000
0000
0000
,
0001
0000
0100
0000
,
1000
0000
0000
0000
,
1000
0000
0010
0000
,
0001
0000
0000
0000
,
0200
0000
0000
0300
,
0000
0000
0000
0000
,
0020
0000
0000
0030
,
0000
0000
1001
0000
;
