#VERSION:0.83;
#TITLE:illuminate;
#SUBTITLE:;
#ARTIST:Sota Fujimori;
#TITLETRANSLIT:;
#SUBTITLETRANSLIT:;
#ARTISTTRANSLIT:;
#GENRE:Synthetic EDM;
#ORIGIN:;
#CREDIT:;
#BANNER:illuminate.png;
#BACKGROUND:illuminate-bg.png;
#PREVIEWVID:;
#JACKET:illuminate-jacket.png;
#CDIMAGE:;
#DISCIMAGE:;
#LYRICSPATH:;
#CDTITLE:cdtitle.png;
#MUSIC:illuminate.ogg;
#OFFSET:-0.122055;
#SAMPLESTART:79.030167;
#SAMPLELENGTH:13.130680;
#SELECTABLE:YES;
#BPMS:0.000=146.000,
160.000=73.000,
176.000=146.000;
#STOPS:;
#DELAYS:;
#WARPS:;
#TIMESIGNATURES:0.000=4=4;
#TICKCOUNTS:0.000=4;
#COMBOS:0.000=1;
#SPEEDS:0.000=1.000=0.000=0;
#SCROLLS:0.000=1.000;
#FAKES:;
#LABELS:0.000=Song Start;
#BGCHANGES:;
#KEYSOUNDS:;
#ATTACKS:
;

//---------------dance-single - ----------------
#NOTEDATA:;
#CHARTNAME:;
#STEPSTYPE:dance-single;
#DESCRIPTION:;
#CHARTSTYLE:;
#DIFFICULTY:Challenge;
#METER:16;
#RADARVALUES:0.893601,1.188312,0.249875,0.516408,1.336832,751.000000,721.000000,30.000000,62.000000,59.000000,0.000000,0.000000,0.000000,0.000000,0.893601,1.188312,0.249875,0.516408,1.336832,751.000000,721.000000,30.000000,62.000000,59.000000,0.000000,0.000000,0.000000,0.000000;
#CREDIT:;
#NOTES:
0000
0000
0000
0000
,
0000
0000
0000
0000
,
0000
0000
0000
0000
,
0000
0000
0000
0000
,
1000
0000
0010
0000
0100
0010
1000
0000
0010
0100
0001
0000
0001
1000
0001
0000
,
0010
0000
0001
0100
0000
0100
0010
0000
1000
0010
1000
0001
1000
0100
1000
0000
,
0001
0000
0010
0000
0100
0010
0001
0000
0010
0100
1000
0000
1000
0010
0100
0000
,
0220
0000
0000
0000
0000
0330
0000
MMMM
,
0001
0000
0010
0000
0100
0010
0001
0000
0100
0001
0100
M0MM
0100
1000
0100
0000
,
1000
0000
0010
0100
0000
0100
0001
0000
1000
0100
0010
0100
1000
0000
0001
0000
,
1000
0000
0010
0000
0100
0010
1000
0000
0100
1000
0100
M0MM
0100
0001
0100
0000
,
0001
0000
1000
0010
0000
1000
0200
0000
0000
0310
0001
0000
1001
0000
1000
0010
,
0100
0000
0001
0000
0010
0100
1000
0000
0010
1000
0010
MM0M
0010
0001
0010
0000
,
0001
0000
0100
0010
0000
0010
1000
0000
0001
0010
0001
1000
0001
0100
0001
0000
,
2002
0000
0000
3003
,
1000
0010
1000
0010
0100
0001
0100
0001
0010
0001
0100
0010
1000
0000
0000
0000
,
0001
0010
0001
0010
0000
0001
1000
0001
0000
0100
0001
0000
0100
0010
1000
0000
,
0200
0000
0302
0203
0000
0310
0100
1000
0000
0001
0100
0001
0100
0010
1000
0000
,
0001
0010
0001
0010
0000
0100
1000
0010
MM0M
0010
0001
0000
0010
0001
0100
0000
,
2000
0000
3200
0320
0000
0130
0001
1000
0000
0100
1000
0100
1000
0100
0010
0001
,
1000
0010
1000
0010
0000
1000
0001
1000
0000
0100
1000
0000
0100
0010
0001
0000
,
0200
0000
2300
3200
0000
0310
0100
0001
0000
1000
0100
1000
0100
0010
0001
0000
,
1000
0010
1000
0010
0000
0100
0001
0010
MM0M
0010
1000
0000
0010
1000
0100
0000
,
0110
0000
0000
0011
0000
0000
1002
0000
0000
0103
0010
0000
1010
0000
1000
0001
,
0010
0100
0010
0100
0010
0001
1000
0020
0000
0130
0010
0100
0001
1000
0001
0010
,
0100
1000
0001
1000
0010
1000
0001
1000
0000
1000
0001
1000
0100
1000
0010
1000
,
0001
0010
0001
0010
0001
0100
0010
2000
0000
3010
1000
0100
0010
0001
0010
0100
,
1000
0001
0100
0002
0000
0203
0000
0301
1000
0100
1000
0200
0000
1300
0100
0010
,
0001
1000
0010
1000
0010
0100
0001
2000
0000
3100
0010
0001
1000
0010
0100
0001
,
0010
0001
1000
0001
0100
0001
1000
0001
0000
0001
1000
0001
0010
0001
1000
0001
,
0100
0010
0100
0010
1000
0001
0010
0200
0000
1300
0010
0100
0001
0010
0100
1000
,
0001
0100
0010
2000
0000
3010
1000
0001
1000
0100
0010
0001
1000
0100
0010
0001
,
1000
0010
0100
0010
1000
0100
0010
0001
1000
0010
MM2M
0000
0031
0010
MM2M
0000
,
1030
0010
1000
0001
1000
0100
1000
0001
0010
0001
1000
0001
0100
0001
1000
0001
,
0010
0100
0010
0001
0100
0010
0100
0001
1000
0100
M2MM
0000
0301
0100
M2MM
0000
,
1300
0000
0000
0010
0000
0000
0002
0000
0000
0013
0000
0000
1000
0000
0000
0001
0100
0001
0100
0000
0000
0010
0000
0000
,
1000
0010
0100
0001
0010
0100
1000
0001
MM10
001M
1000
01MM
M100
0000
0001
1000
,
0100
0020
0000
0230
0000
0320
0000
0031
0100
0010
1000
0100
0010
0001
1000
0001
,
0100
0000
0000
0000
0000
0000
0001
0000
0000
0000
0000
0000
1000
0000
0100
0000
1000
0000
0100
0000
0000
0010
0000
0000
0001
0000
0000
0000
0100
0000
M0MM
0000
0100
0000
0000
0000
1000
0000
0000
0000
0010
0000
MM0M
0000
0010
0000
0000
0000
,
0001
1000
0001
0000
0100
0010
0100
0010
0100
0010
1000
0000
1000
0000
1000
0100
,
0020
0000
0000
0000
,
0030
0000
0000
0000
,
0011
0000
0100
0000
1000
0000
0010
0000
0101
0000
0000
0010
0000
0000
1010
0000
1000
0001
1000
0000
0100
0000
0010
0001
0100
0000
0010
0000
0100
0001
1000
0000
,
1010
0000
0100
0000
0001
0000
0010
0000
1100
0000
0000
0011
0000
0000
1001
0000
0001
0000
0100
0000
0100
0000
0010
1000
0001
0000
1000
0001
0010
0000
0000
0000
,
0001
0100
0001
0000
0010
0000
0100
0000
1200
0000
0000
0302
0000
0000
0203
0000
,
0000
0000
1300
0100
1000
0001
1000
0010
1000
0100
0010
0001
0100
0001
0010
0001
,
1000
0010
1000
0000
0001
0000
0100
0000
0210
0000
0000
2300
0000
0000
3002
0000
,
0000
0013
0100
0010
1000
0000
1000
0200
0000
0310
0100
0010
0001
1000
0010
0000
,
0100
0001
0100
0000
0001
0000
0010
0000
0021
0000
0000
2030
0000
0000
3020
0000
,
0000
0000
0031
0010
0001
1000
0001
0100
0010
1000
0100
0000
0010
0001
0100
0010
,
1000
0001
1000
0000
0100
0000
0010
0000
0012
0000
0000
0103
0010
0000
1020
0000
,
0000
0130
0001
0100
0001
0000
1000
0200
0000
0310
0001
0010
0001
1000
0010
0000
,
1000
0100
1000
0000
0010
0000
0100
0000
0201
0000
0000
2300
0000
0000
3200
0000
,
0000
0000
0301
0100
0001
1000
0001
0010
0001
0100
0010
1000
0100
1000
0010
1000
,
0001
0010
0001
0000
1000
0000
0100
0000
0210
0000
0000
0302
0000
0000
2003
0000
,
0000
3010
0100
0010
0001
0000
0001
0200
0000
0310
0100
0010
1000
0001
0010
0000
,
0100
1000
0100
0000
1000
0000
0010
0000
1010
0000
0000
0101
0000
0000
1020
0000
,
0000
0000
1030
0010
1000
0001
1000
0100
0010
0001
0100
0000
0010
1000
0100
0010
,
0001
1000
0001
0000
0100
0000
0010
0000
2010
0000
0000
3100
0010
0000
0021
0000
,
0000
0130
1000
0100
1000
0000
0001
0200
0000
0301
1000
0100
0010
0000
0000
0000
,
0012
0000
0000
0003
1000
0010
1000
0000
0010
1000
0100
M0MM
0100
0001
0010
0000
,
0100
0000
0010
0001
0000
0001
0100
0000
0010
1000
0001
1000
0010
1000
0100
0000
,
0120
0000
0000
0030
0001
0010
0001
0000
0100
0001
0010
MM0M
0010
1000
0100
0000
,
0001
0000
0100
0010
0000
0010
0100
0000
1000
0000
0001
0100
0010
0000
0010
0000
,
1010
0000
MMMM
0000
0001
0010
0001
0000
0010
0001
0100
M0MM
0100
1000
0010
0000
,
0001
0000
0010
0100
0000
0010
1000
0000
0001
0010
0100
0010
0001
1000
0100
0010
,
0002
0000
0000
0003
1000
0010
1000
0000
0100
1000
0010
MM0M
0010
0001
0100
0000
,
2001
0000
3010
2000
0000
3001
0020
0000
0000
0130
0010
0001
0100
0000
0010
1000
;

//---------------dance-single - ----------------
#NOTEDATA:;
#CHARTNAME:;
#STEPSTYPE:dance-single;
#DESCRIPTION:;
#CHARTSTYLE:;
#DIFFICULTY:Hard;
#METER:13;
#RADARVALUES:0.654435,0.848794,0.174913,0.391471,0.587206,550.000000,529.000000,21.000000,47.000000,10.000000,0.000000,2.000000,0.000000,0.000000,0.654435,0.848794,0.174913,0.391471,0.587206,550.000000,529.000000,21.000000,47.000000,10.000000,0.000000,2.000000,0.000000,0.000000;
#CREDIT:;
#NOTES:
0000
0000
0000
0000
,
0000
0000
0000
0000
,
0000
0000
0000
0000
,
0000
0000
0000
0000
,
0001
0000
0010
0000
0100
0010
0100
0000
0010
0000
0001
0000
0100
0001
0100
0000
,
0010
0000
1000
0100
0000
0100
0010
0000
0001
0000
0100
0000
1000
0000
0100
0000
,
0001
0000
0010
0000
0001
0010
0001
0000
1000
0000
0010
0000
1000
0010
1000
0000
,
2002
0000
0000
0000
0000
3003
M00M
0000
,
1000
0000
0100
0000
0010
0100
0010
0000
0100
0000
1000
0000
0010
1000
0010
0000
,
0100
0000
0001
0010
0000
0010
0100
0000
1000
0000
0010
0000
0001
0000
0010
0000
,
1000
0000
0100
0000
1000
0100
1000
0000
0001
0000
0100
0000
0001
0100
0001
0000
,
1001
0000
0000
0110
0000
0000
2001
0000
0000
0000
3100
0000
0100
0000
0010
0000
,
0001
0000
1000
0000
0010
0100
0010
0000
0100
0000
0001
0000
0010
0100
0010
0000
,
0100
0000
1000
0001
0000
0001
0100
0000
1000
0000
0100
0000
0001
0000
0010
0000
,
0220
0000
0000
0330
,
4000
0004
0000
0000
0000
0000
0000
0000
0000
0000
0000
0000
3003
0000
0000
0000
,
1000
0000
0010
1000
0000
0001
0100
0002
0000
0000
1003
0000
1000
0010
1000
0000
,
0001
0000
0010
0001
0000
1000
0100
2000
0000
0000
3001
0000
1000
0010
1000
0000
,
0001
0000
1000
0100
0000
0010
0100
2000
0000
0000
3001
0000
0001
0100
0010
0000
,
0100
0000
1000
0100
0000
0001
1000
0002
0000
0000
0013
0000
0100
0000
1000
0000
,
0001
0000
0100
0001
0000
1000
0010
2000
0000
0000
3001
0000
0001
0100
0001
0000
,
1000
0000
0100
1000
0000
0001
0010
0002
0000
0000
1003
0000
0001
0100
0001
0000
,
1000
0000
0001
0010
0000
0100
0010
0002
0000
0000
1003
0000
1000
0001
0100
0000
,
0110
0000
0000
1010
0000
0000
2001
0000
0000
0000
0001
0000
3001
0000
1000
0000
,
0100
0000
0010
0000
0100
0000
0010
2000
0000
3010
0100
0000
0010
0000
0001
0000
,
1000
0010
1000
0000
0100
M00M
0100
0000
0001
0000
0010
M00M
0010
0000
1000
0010
,
1000
0000
0010
0000
0100
0000
0010
0002
0000
0013
0100
0000
0001
0000
1000
0000
,
0001
0000
0010
0100
0000
0100
0000
0100
1000
0000
0010
0100
0000
0100
0001
0000
,
0010
0000
0100
0000
0010
0000
0100
0002
0000
0103
0010
0000
0100
0000
1000
0000
,
0001
0010
0001
0000
0100
M00M
0100
0000
1000
0000
0010
M00M
0010
0000
0001
0010
,
0001
0000
0100
0000
0010
0000
0100
2000
0000
3100
0010
0000
0100
0000
0001
0000
,
1000
0000
0100
0010
0000
0010
0000
0010
0001
0000
0100
0000
1000
0000
0100
0000
,
0001
0000
0010
0000
0100
0000
1000
0000
0001
0100
0001
0000
0001
0010
0001
0000
,
1000
0010
0100
0001
0010
1000
0010
0001
,
1000
0000
0010
0000
0100
0000
0001
0000
1000
0100
1000
0000
1000
0010
1000
0000
,
0001
0001
0010
0001
1000
1000
0010
1000
,
0100
0000
0001
0000
0100
0000
1000
0000
0010
0000
0010
0100
0010
0000
0010
0000
,
1000
0100
0000
0010
0000
0100
0000
0010
0001
0000
0100
0000
0010
0000
1000
0000
,
0001
0000
0000
0010
0000
0000
1000
0000
0000
0010
0000
0000
0001
0000
0100
0000
0001
0000
1000
0000
0010
0000
1000
0000
,
0100
0000
0100
0000
1000
0001
1000
0001
1000
0001
1000
0000
0001
0000
1000
0002
,
2000
0000
0000
0000
,
3003
0000
0000
0000
,
0001
0000
0100
0000
0010
0000
1000
0000
0100
0000
0000
0010
0000
0000
0011
0000
0000
0000
0001
0000
0010
0000
0001
0000
0100
0000
1000
0000
0100
0000
0001
0000
,
1000
0000
0100
0000
0010
0000
0001
0000
0100
0000
0000
0010
0000
0000
1010
0000
0000
0000
1000
0000
0010
0000
0001
0000
0010
0000
1000
0000
0100
0000
0000
0000
,
0010
0001
0010
0000
0001
0000
0100
0000
0020
0000
0000
0230
0000
0000
2300
0000
,
0000
3100
0010
1000
0010
0001
0010
1000
,
0100
0010
0100
0000
0010
0000
0001
0000
2000
0000
0000
3020
0000
0000
0032
0000
,
0000
0000
0013
0000
1000
0000
0100
0002
0000
0000
0103
0000
1000
0000
0010
0000
,
0100
0001
0100
0000
0010
0000
1000
0000
0200
0000
0000
0320
0000
0000
2030
0000
,
0000
3010
0100
0010
0001
0100
1000
0100
,
0010
1000
0010
0000
0100
0000
0001
0000
0020
0000
0000
0130
0000
0000
2100
0000
,
0000
0000
3010
0000
0010
0000
0100
0002
0000
0000
0013
0000
0100
0000
1000
0000
,
0010
1000
0010
0000
1000
0000
0100
0000
0020
0000
0000
0230
0000
0000
0302
0000
,
0000
0103
0010
0001
0010
1000
0010
0001
,
0100
0010
0100
0000
0010
0000
1000
0000
0002
0000
0000
0023
0000
0000
2030
0000
,
0000
0000
3010
0000
0001
0000
0100
2000
0000
0000
3100
0000
0001
0000
0010
0000
,
0100
1000
0100
0000
0010
0000
0001
0000
0101
0000
0000
0110
0000
0000
2010
0000
,
0000
3001
0100
0010
1000
0100
0001
0100
,
0010
0001
0010
0000
0100
0000
1000
0000
0020
0000
0000
0130
0000
0000
0102
0000
,
0000
0000
0013
0000
0010
0000
0100
2000
0000
0000
0001
0000
3001
0000
0000
0000
,
2001
0000
0000
0000
3010
0000
1000
0000
0001
0000
1000
0100
0000
0100
1000
0000
,
0001
0000
0100
0010
0000
1000
0100
0000
0010
0000
0001
0000
0100
0001
0100
0000
,
0102
0000
0000
0000
1003
0000
0001
0000
0010
0000
0001
0100
0000
0100
0001
0000
,
1000
0000
0100
0010
0000
0001
0100
0000
1000
0000
0100
0000
0001
0000
0001
0000
,
1000
0000
0000
0000
0001
0000
0010
0000
1000
0000
0010
0001
0000
0001
0100
0000
,
0010
0000
1000
0100
0000
0010
0001
0000
1000
0010
1000
0000
0001
0000
0010
0000
,
0210
0000
0000
0000
1300
0000
0100
0000
1000
0000
0001
0100
0000
0100
0001
0000
,
1001
0000
0000
0110
0000
0000
2001
0000
0000
3010
0100
0000
0001
0000
1000
0100
;

//---------------dance-single - ----------------
#NOTEDATA:;
#CHARTNAME:;
#STEPSTYPE:dance-single;
#DESCRIPTION:;
#CHARTSTYLE:;
#DIFFICULTY:Medium;
#METER:10;
#RADARVALUES:0.443826,0.537570,0.249875,0.441446,0.120773,373.000000,343.000000,30.000000,53.000000,0.000000,0.000000,0.000000,0.000000,0.000000,0.443826,0.537570,0.249875,0.441446,0.120773,373.000000,343.000000,30.000000,53.000000,0.000000,0.000000,0.000000,0.000000,0.000000;
#CREDIT:;
#NOTES:
0000
0000
0000
0000
,
0000
0000
0000
0000
,
0000
0000
0000
0000
,
0000
0000
0000
0000
,
1000
0000
0010
1000
0010
0000
1000
0000
,
0100
0000
1000
0100
0010
0001
1000
0000
,
0001
0000
0010
0001
0010
0000
0001
0000
,
0200
0000
0000
0300
,
0001
0000
0100
0001
1000
0000
0001
0000
,
0010
0000
0001
0010
1000
0010
0001
0000
,
0100
0000
0010
0100
0001
0000
1000
0000
,
0100
0000
0000
0100
0000
0000
0200
0000
0000
0000
0310
0000
0001
0000
0000
0000
,
1000
0000
0100
1000
0001
0000
1000
0000
,
0010
0000
1000
0010
0001
0010
1000
0000
,
0200
0000
0000
0300
,
2002
0000
0000
3003
,
1000
0100
1000
0000
0011
0000
1000
0000
,
0001
0100
0001
0000
1010
0000
0001
0000
,
1000
0100
0001
0000
0110
0000
0001
0100
,
2000
0000
3010
0000
0100
0010
1000
0000
,
0001
0010
0001
0000
1100
0000
0001
0000
,
1000
0010
1000
0000
0101
0000
1000
0000
,
0001
0010
1000
0000
0110
0000
1000
0010
,
0001
0000
0000
0001
0000
0000
0002
0000
0000
0000
0000
0000
0103
0000
0000
0000
,
0001
0000
1000
0000
0100
0000
0000
0020
0000
0000
0130
0000
0010
0000
0001
0000
,
1000
0010
0100
0010
0000
0010
1000
0010
,
0100
0000
0001
0000
1000
0000
0000
0200
0000
0000
0310
0000
0001
0000
1000
0000
,
0002
0000
0100
0000
2003
0000
0100
3100
,
1000
0000
0001
0000
0100
0000
0000
0020
0000
0000
0130
0000
0010
0000
1000
0000
,
0001
0010
0100
0010
0000
0010
0001
1000
,
0010
0000
0100
0000
0001
0000
0000
2000
0000
0000
3100
0000
0010
0000
0001
0000
,
1000
0000
0000
1000
0000
0000
1000
0000
0010
0000
0100
0000
0001
0000
1000
0000
,
0100
0000
0100
0000
1000
0100
0001
0100
,
2000
3020
0230
0302
,
0103
0000
0100
0000
0001
0100
1000
0100
,
0002
0000
0013
0000
0100
0010
0100
0000
,
1000
0000
1000
0000
0010
1000
0010
0001
,
0020
2030
3002
0023
,
0130
0010
0100
0000
1001
0000
0110
0000
,
1000
0010
0100
0001
0100
0010
1000
0000
,
2002
0000
0000
0000
,
3003
0000
0000
0000
,
2000
0000
0000
3100
1100
0000
0000
0002
0000
0100
0000
0103
0101
0000
0000
0000
,
0002
0000
0000
0013
0011
0000
0000
2000
0000
0010
0000
3010
1010
0000
0000
0000
,
1000
0000
0100
0000
0010
0000
0001
0000
0200
0000
0000
0320
0000
0000
2030
0000
,
0000
0001
3001
0000
0001
0100
1000
0000
,
1000
0000
0100
0000
0010
0000
0100
0000
0002
0000
0000
2003
0000
0000
3200
0000
,
0000
0000
0310
0000
0001
0000
0000
0200
0000
0000
0010
0000
0310
0000
0000
0000
,
1000
0000
0010
0000
0100
0000
0001
0000
2000
0000
0000
3200
0000
0000
0320
0000
,
0000
0001
0031
0000
0010
0001
0100
0000
,
0010
0000
1000
0000
0001
0000
1000
0000
0200
0000
0000
0310
0000
0000
0012
0000
,
0000
0000
1000
0000
1003
0000
0000
2000
0000
0000
0001
0000
3001
0000
0000
0000
,
0001
0000
0100
0000
0010
0000
1000
0000
0200
0000
0000
0320
0000
0000
0032
0000
,
0000
1000
1003
0000
1000
0100
0001
0000
,
0001
0000
0100
0000
0010
0000
0100
0000
2000
0000
0000
3002
0000
0000
0203
0000
,
0000
0000
0310
0000
1000
0000
0000
0200
0000
0000
0010
0000
0310
0000
0000
0000
,
0001
0000
0010
0000
0100
0000
1000
0000
0001
0000
0000
0110
0000
0000
1002
0000
,
0000
1000
1003
0000
0010
1000
0100
0000
,
0010
0000
0001
0000
1000
0000
0001
0000
0200
0000
0000
0310
0000
0000
2010
0000
,
0000
0000
0001
0000
0001
0000
0000
0002
0000
0000
0000
0000
3003
0000
0000
0000
,
1100
0000
1100
0000
0001
1000
0100
1000
,
0001
0000
1001
0000
1000
0010
0100
0000
,
0101
0000
0101
0000
1000
0001
0100
0001
,
0010
0000
1100
0000
0010
0001
0100
0010
,
1000
0000
1001
0000
0001
1000
0100
0000
,
0011
0000
1100
0000
0010
0001
0100
0000
,
1010
0000
1010
0000
0001
1000
0001
1000
,
0100
0000
0000
0100
0000
0000
0200
0000
0000
0000
0010
0000
0310
0000
0000
1001
;

//---------------dance-single - ----------------
#NOTEDATA:;
#CHARTNAME:;
#STEPSTYPE:dance-single;
#DESCRIPTION:;
#CHARTSTYLE:;
#DIFFICULTY:Easy;
#METER:6;
#RADARVALUES:0.327217,0.565342,0.283192,0.308179,0.024988,275.000000,241.000000,34.000000,37.000000,0.000000,0.000000,0.000000,0.000000,0.000000,0.327217,0.565342,0.283192,0.308179,0.024988,275.000000,241.000000,34.000000,37.000000,0.000000,0.000000,0.000000,0.000000,0.000000;
#CREDIT:;
#NOTES:
0000
0000
0000
0000
,
0000
0000
0000
0000
,
0000
0000
0000
0000
,
0000
0000
0000
0000
,
0001
0010
0100
0010
,
0001
0100
0010
1000
,
0100
0010
0100
1000
,
0002
0000
0000
0003
,
1000
0010
1000
0100
,
0001
0100
1000
0010
,
0100
0001
1000
0100
,
0010
0000
0000
0010
0000
0000
0020
0000
0000
0000
0000
0000
0030
0000
0000
0000
,
0001
0010
0001
0100
,
1000
0100
0001
0010
,
0220
0000
0000
0330
,
2002
0000
0000
3003
,
1000
1000
0010
0100
,
0001
0001
0010
0100
,
1000
1000
0010
0001
,
0100
0100
1000
1000
,
0001
0001
0010
0100
,
1000
1000
0010
0100
,
0001
0010
1000
0100
,
0001
0000
0000
0001
0000
0000
0002
0000
0000
0000
0000
0000
0013
0000
0000
0000
,
0001
0100
0010
1000
,
0100
0100
0010
0010
,
0001
0100
1000
0100
,
0001
0001
1000
1000
,
0100
0010
0001
1000
,
0010
0010
0100
0100
,
0001
0010
1000
0010
,
0001
0100
0010
1000
,
0100
0100
0011
1100
,
0002
0203
0320
2030
,
3001
0001
1010
0101
,
2000
3100
0002
0103
,
1000
0010
1001
0110
,
0002
0023
0230
2300
,
3001
0001
0011
1010
,
1000
0100
0010
0001
,
2002
0000
0000
0000
,
3003
0000
0000
0000
,
0001
0100
0101
0001
0100
1000
1100
0100
,
1000
0010
1010
1000
0010
0001
0011
0000
,
0001
0001
0011
1001
,
0202
0303
0100
0001
,
1000
1000
1010
1001
,
2100
3001
0102
1003
,
0010
0010
0101
1001
,
2200
3300
1000
0100
,
0010
0000
0000
0000
0010
0000
0000
0000
0001
0000
0000
0001
0000
0000
0002
0000
,
0000
1003
2020
3030
,
1000
1000
1100
1001
,
2020
3030
0010
1000
,
0001
0001
0101
1001
,
0012
1003
2010
3001
,
0100
0000
0000
0000
0100
0000
0000
0000
0001
0000
0000
0001
0000
0000
0002
0000
,
0000
1003
0100
0010
,
0100
0000
0000
0000
0100
0000
0000
0000
1000
0000
0000
1000
0000
0000
2000
0000
,
0000
3010
2002
3003
,
0001
0001
0010
0010
,
0001
0100
0001
0001
,
1000
1000
0010
0010
,
1000
0000
0100
0000
1000
0000
0001
0001
,
0000
0001
0100
0010
,
1000
1000
0100
0100
,
0001
0100
1000
0010
,
0100
0000
0000
0100
0000
0000
0200
0000
0000
0000
0300
0000
0000
0000
0010
0000
;

//---------------dance-single - ----------------
#NOTEDATA:;
#CHARTNAME:;
#STEPSTYPE:dance-single;
#DESCRIPTION:;
#CHARTSTYLE:;
#DIFFICULTY:Beginner;
#METER:2;
#RADARVALUES:0.154685,0.208802,0.033317,0.083292,0.000000,130.000000,126.000000,4.000000,10.000000,0.000000,0.000000,0.000000,0.000000,0.000000,0.154685,0.208802,0.033317,0.083292,0.000000,130.000000,126.000000,4.000000,10.000000,0.000000,0.000000,0.000000,0.000000,0.000000;
#CREDIT:;
#OFFSET:-0.122055;
#BPMS:0.000000=146.000000
;
#STOPS:;
#DELAYS:;
#WARPS:;
#TIMESIGNATURES:0.000000=4=4
;
#TICKCOUNTS:0.000000=4
;
#COMBOS:0.000000=1
;
#SPEEDS:0.000000=1.000000=0.000000=0
;
#SCROLLS:0.000000=1.000000
;
#FAKES:;
#LABELS:0.000000=Song Start
;
#NOTES:
0000
0000
0000
0000
,
0000
0000
0000
0000
,
0000
0000
0000
0000
,
0000
0000
0000
0000
,
1000
0000
1000
0000
,
0001
0000
0001
0000
,
1000
0000
0001
0000
,
2000
0000
3000
0000
,
0001
0000
0010
0000
,
0001
0000
1000
0000
,
0010
0000
1000
0000
,
1001
0000
0000
0000
,
0001
0000
0010
0000
,
0100
0000
1000
0000
,
1001
0000
0000
0000
,
0002
0000
0000
0003
,
1000
0000
1000
0000
,
0100
0000
0100
0000
,
0010
0000
0010
0000
,
0001
0000
0001
0000
,
0100
0000
0100
0000
,
0010
0000
0010
0000
,
1000
0000
1000
0000
,
1001
0000
0000
0000
,
2000
0000
3000
0000
,
0010
0000
1000
0000
,
0002
0000
0003
0000
,
0010
0000
0001
0000
,
0200
0000
0300
0000
,
0010
0000
1000
0000
,
0200
0000
0300
0000
,
0010
0000
0001
0000
,
1000
0000
0100
0100
,
0100
0000
0010
0000
,
0001
0000
0100
0100
,
0100
0000
0010
0000
,
1000
0000
0001
0001
,
0001
0000
0010
0000
,
0001
0000
1000
1000
,
1000
0000
0010
0000
,
0220
0000
0000
0000
,
0000
0000
0000
0000
,
0330
0000
0000
0000
,
0000
0000
0000
0000
,
0001
0000
0000
0000
,
0010
0000
0000
0000
,
0100
0000
0000
0000
,
1000
0000
0000
0000
,
0001
0001
0001
0000
,
0100
0000
1000
0000
,
0100
0100
0100
0000
,
0001
0000
0010
0000
,
0100
0100
0100
0000
,
1000
0000
0010
0000
,
1000
1000
1000
0000
,
0001
0000
0001
0000
,
1000
1000
1000
0000
,
0100
0000
0001
0000
,
0100
0100
0100
0000
,
1000
0000
0010
0000
,
0100
0000
0100
0000
0200
0000
0000
0300
,
0000
0000
0100
0000
,
0001
0001
0001
0000
,
1000
0000
1000
0000
,
0001
0000
0001
0000
,
0010
0000
0010
0000
,
0100
0000
0100
0000
,
1000
0000
0001
0000
,
1000
0000
1000
0000
,
0010
0000
0010
0000
,
0100
0000
0001
0000
,
0020
0000
0000
0000
0000
0030
0000
0000
;
