#TITLE:elemental bender feat. Kanae Asaba;
#SUBTITLE:;
#ARTIST:MK;
#TITLETRANSLIT:;
#SUBTITLETRANSLIT:;
#ARTISTTRANSLIT:;
#GENRE:EDM;
#CREDIT:;
#BANNER:elemental bender feat. Kanae Asaba.png;
#BACKGROUND:elemental bender feat. Kanae Asaba-bg.png;
#LYRICSPATH:;
#CDTITLE:cdtitle.png;
#MUSIC:elemental bender feat. Kanae Asaba.ogg;
#OFFSET:-1.849274;
#SAMPLESTART:30.293221;
#SAMPLELENGTH:14.222221;
#SELECTABLE:YES;
#BPMS:0.000000=135.000000
;
#STOPS:
;
#BGCHANGES:;
#KEYSOUNDS:;
#ATTACKS:;

//---------------dance-single - ----------------
#NOTES:
     dance-single:
     :
     Hard:
     11:
     0.476938,0.475994,0.330551,0.173539,0.148748,404.000000,364.000000,40.000000,21.000000,0.000000,0.000000,0.476938,0.475994,0.330551,0.173539,0.148748,404.000000,364.000000,40.000000,21.000000,0.000000,0.000000:
// measure 0
0000
0000
0000
0000
,  // measure 1
0000
0000
0000
0000
,  // measure 2
0000
0000
0000
0000
,  // measure 3
0000
0000
0000
0000
,  // measure 4
0002
0100
1000
0100
,  // measure 5
2003
0100
0001
0100
,  // measure 6
3002
0100
1000
0010
,  // measure 7
2003
0000
0100
0000
0001
0000
3010
1000
,  // measure 8
1001
0000
1000
0100
0001
0100
1000
0000
,  // measure 9
0001
0000
0001
0100
1000
0100
0001
0000
,  // measure 10
1000
0000
1000
0100
0001
0000
0110
0000
,  // measure 11
1000
0110
0001
0110
,  // measure 12
1001
0000
1000
0010
0001
0010
1000
0000
,  // measure 13
1001
0000
0001
0010
1000
0010
0001
0000
,  // measure 14
1000
0000
1000
0100
0011
0000
1100
0000
,  // measure 15
0001
0001
1000
1000
0001
0100
1000
0010
,  // measure 16
0001
0000
0000
0000
0011
0000
0000
0000
1010
0000
0000
0001
0000
0010
0000
0001
,  // measure 17
0000
0001
0100
1000
0001
0000
1100
0100
,  // measure 18
0001
0000
0000
0000
0101
0000
0000
0000
1010
0000
0000
0001
0000
1000
0000
0001
,  // measure 19
0000
0001
0010
1000
0001
0000
0001
0100
,  // measure 20
1000
0000
0000
0000
1010
0000
0000
0000
0011
0000
0000
1000
0000
0010
0000
1000
,  // measure 21
0000
1000
0100
0001
1000
0000
0101
0100
,  // measure 22
1000
0000
0000
0000
1100
0000
0000
0000
0011
0000
0000
1000
0000
0001
0000
1000
,  // measure 23
0000
1000
0010
0001
1000
0000
0001
0010
,  // measure 24
1000
0000
0000
0000
1100
0000
0000
0000
0011
0000
0000
1000
0000
0100
0000
0010
,  // measure 25
0000
0100
0010
0001
0100
1000
0200
0000
,  // measure 26
0301
0000
0000
0000
0101
0000
0000
0000
1010
0000
0000
0001
0000
0100
0000
0010
,  // measure 27
0000
0100
0010
1000
0100
0001
0100
0100
,  // measure 28
1000
0000
0000
0000
0011
0000
0000
0000
1010
0000
0000
1000
0000
0010
0000
0001
,  // measure 29
0000
1000
0100
0001
2000
0000
0010
0000
,  // measure 30
3100
0000
0000
0000
1100
0000
0000
0000
0011
0000
0000
1000
0100
0000
0010
0000
,  // measure 31
0011
1001
1010
0002
,  // measure 32
1003
0010
1000
0100
0000
0001
0010
0002
,  // measure 33
0100
1000
0010
1003
,  // measure 34
0001
0010
0001
0100
0000
1000
0010
2000
,  // measure 35
0100
0001
0010
3001
,  // measure 36
1000
0010
0001
0010
1000
0100
0001
0100
,  // measure 37
2000
0000
0000
0000
0010
0000
0000
0000
3002
0000
0000
0010
0000
0000
2003
0000
,  // measure 38
0000
3100
0000
1002
0000
0103
0000
2002
,  // measure 39
0000
0000
0000
0000
0000
3000
0003
0000
,  // measure 40
1000
0000
0010
0000
0001
0000
0010
0000
1000
0000
0000
0001
0000
0000
0200
0000
,  // measure 41
1000
0010
0001
0301
,  // measure 42
0001
0010
1000
0010
0000
0001
1000
0200
,  // measure 43
0001
0010
1000
1300
,  // measure 44
0001
0010
0100
0010
0100
1000
0001
0010
,  // measure 45
0001
0100
0001
0100
0010
1000
0100
0010
,  // measure 46
0001
0100
0001
0100
1000
0100
0001
0100
,  // measure 47
0020
0000
0000
0000
1030
0100
0001
0010
,  // measure 48
1000
0000
0000
0000
1010
0000
0000
0001
0000
1000
0100
0000
0010
0000
0010
0000
,  // measure 49
0100
2000
0010
3010
1000
0100
1000
0010
,  // measure 50
1000
0000
0000
0000
1001
0000
0000
0010
0000
0001
0100
0000
0010
0000
0010
0000
,  // measure 51
1000
0200
0001
0301
0100
1000
0010
0100
,  // measure 52
0001
0000
0000
0000
0011
0000
0000
1000
0000
0001
0100
0000
0010
0000
0010
0000
,  // measure 53
0100
0002
0010
0013
0001
0100
0010
0000
,  // measure 54
1000
0000
0010
0000
0001
0000
0000
0010
0000
0000
0001
0000
0010
0000
1000
0000
,  // measure 55
0001
0010
1000
0000
1000
0010
1000
0010
,  // measure 56
0001
0000
0000
0000
0011
0000
0000
0010
1000
0000
0010
0000
0001
0000
0010
0000
,  // measure 57
1000
0100
0001
0001
0100
1000
1000
0000
,  // measure 58
0110
0000
0000
0000
1001
0000
0000
1000
0010
0000
0100
0000
0001
0000
1000
0000
,  // measure 59
0001
0010
1000
0010
0001
0100
0010
0010
,  // measure 60
1000
0000
0000
0000
1010
0000
0000
0010
0001
0000
0010
0000
1000
0000
0010
0000
,  // measure 61
0001
0100
1000
1000
0100
0001
0001
0000
,  // measure 62
0110
0000
0000
0000
0001
0000
1000
0100
0000
1000
0100
0000
0010
0000
0001
0000
,  // measure 63
1000
0010
0001
1000
0100
0001
0010
0000
,  // measure 64
1100
0000
0000
0000
;

//---------------dance-single - ----------------
#NOTES:
     dance-single:
     :
     Medium:
     8:
     0.383675,0.396661,0.371870,0.256177,0.000000,325.000000,280.000000,45.000000,31.000000,0.000000,0.000000,0.383675,0.396661,0.371870,0.256177,0.000000,325.000000,280.000000,45.000000,31.000000,0.000000,0.000000:
// measure 0
0000
0000
0000
0000
,  // measure 1
0000
0000
0000
0000
,  // measure 2
0000
0000
0000
0000
,  // measure 3
0000
0000
0000
0000
,  // measure 4
2000
0100
0001
0100
,  // measure 5
3002
0100
1000
0100
,  // measure 6
2003
0010
0001
0010
,  // measure 7
3002
0010
1000
0013
,  // measure 8
1001
0000
0001
0000
0001
0100
0010
0000
,  // measure 9
1000
0000
1000
0000
1000
0100
0010
0000
,  // measure 10
0001
0001
0102
0013
,  // measure 11
2100
3010
0102
0013
,  // measure 12
1100
0000
0010
0000
0001
0100
1000
0000
,  // measure 13
0100
0000
0010
0000
1000
0100
0001
0000
,  // measure 14
0100
0010
1100
0011
,  // measure 15
2000
0000
3002
0000
0103
0010
0100
0000
,  // measure 16
0010
0000
1001
0000
1001
0000
1000
0100
,  // measure 17
0001
0000
0001
0100
1000
0000
0100
0010
,  // measure 18
0100
0000
1001
0000
1001
0000
0100
1000
,  // measure 19
0010
0000
0001
0010
1000
0000
1100
0000
,  // measure 20
0010
0000
1001
0000
1001
0000
0001
0100
,  // measure 21
1000
0000
1000
0100
0001
0000
0100
0010
,  // measure 22
0100
0000
1001
0000
1001
0000
0100
0001
,  // measure 23
0010
0000
1000
0010
0001
0000
0100
0000
,  // measure 24
0001
0000
0101
0000
1100
0000
0001
0001
,  // measure 25
0100
0000
0001
0001
0010
0000
0001
0000
,  // measure 26
0100
0000
1010
0000
0011
0000
1000
1000
,  // measure 27
0100
0000
1000
1000
0010
0000
1000
0000
,  // measure 28
0100
0000
0011
0000
1100
0000
0001
0100
,  // measure 29
1000
0000
1000
0010
0001
0000
0100
0000
,  // measure 30
0010
0000
1001
0000
0010
0100
0010
0000
,  // measure 31
1001
0110
2002
3003
,  // measure 32
1000
0100
0001
0100
,  // measure 33
2000
0000
0010
0010
,  // measure 34
3001
0100
1000
0100
,  // measure 35
0002
0000
0010
0010
,  // measure 36
1003
0100
0001
0010
,  // measure 37
2000
0000
3010
0100
,  // measure 38
0202
0303
2200
3300
,  // measure 39
0022
0000
0000
0033
,  // measure 40
0001
0010
0100
0000
0010
0000
0010
0000
,  // measure 41
0002
0010
1000
0100
,  // measure 42
1003
0010
0100
0000
0010
0000
0010
0000
,  // measure 43
2000
0010
0001
0100
,  // measure 44
3001
0010
0001
0000
1000
0010
1000
0000
,  // measure 45
0001
0100
0001
0000
1000
0100
1000
0000
,  // measure 46
1002
0103
1002
0013
,  // measure 47
0220
0000
0030
0000
0310
0100
0010
0000
,  // measure 48
0001
0000
1001
0000
0001
0001
0100
0000
,  // measure 49
0210
0000
0301
0000
0001
0001
0010
0000
,  // measure 50
1000
0000
1010
0000
1000
1000
0100
0000
,  // measure 51
0210
0000
1300
0000
1000
1000
0010
0000
,  // measure 52
0001
0000
1001
0000
0010
0001
0100
0000
,  // measure 53
2001
0000
3010
0000
0010
1000
0100
0000
,  // measure 54
2000
0010
3010
0000
1000
0000
1010
0000
,  // measure 55
0002
0010
0013
0000
0001
0010
0100
0000
,  // measure 56
1000
0000
1010
0000
0010
1000
0100
0000
,  // measure 57
1000
0100
0001
0000
0001
0100
1000
0000
,  // measure 58
0010
0000
1001
0000
1000
0100
0010
0000
,  // measure 59
0001
0001
0100
0000
1000
1000
0100
0000
,  // measure 60
0001
0000
0011
0000
0010
0001
0100
0000
,  // measure 61
0001
0100
1000
0000
1000
0100
0001
0000
,  // measure 62
0010
0000
1001
0000
1000
1000
0100
0000
,  // measure 63
0001
0001
0010
0000
1001
0000
0110
0000
,  // measure 64
1000
0000
0000
0000
;

//---------------dance-single - ----------------
#NOTES:
     dance-single:
     :
     Easy:
     5:
     0.260899,0.290885,0.206594,0.231386,0.000000,221.000000,196.000000,25.000000,28.000000,0.000000,0.000000,0.260899,0.290885,0.206594,0.231386,0.000000,221.000000,196.000000,25.000000,28.000000,0.000000,0.000000:
// measure 0
0000
0000
0000
0000
,  // measure 1
0000
0000
0000
0000
,  // measure 2
0000
0000
0000
0000
,  // measure 3
0000
0000
0000
0000
,  // measure 4
2000
0000
0010
0001
,  // measure 5
3002
0000
0010
1000
,  // measure 6
2003
0000
0100
0001
,  // measure 7
3002
0000
0100
1003
,  // measure 8
2002
3003
0001
0100
,  // measure 9
0010
0000
1000
0100
,  // measure 10
0010
0000
0001
0100
,  // measure 11
1000
0100
0001
0100
,  // measure 12
1001
0000
0001
0010
,  // measure 13
0011
0000
1000
0010
,  // measure 14
1010
0000
0001
0001
,  // measure 15
2000
3002
0013
0010
,  // measure 16
0000
0011
0011
0100
,  // measure 17
1000
0010
0200
0301
,  // measure 18
0000
1010
1010
0100
,  // measure 19
0001
0010
0200
1300
,  // measure 20
0000
0011
1010
0100
,  // measure 21
0001
0010
0002
0103
,  // measure 22
0000
1010
0011
0100
,  // measure 23
1000
0010
2002
3003
,  // measure 24
0000
1000
0100
0001
,  // measure 25
0001
0100
2000
3010
,  // measure 26
0000
0001
0100
1000
,  // measure 27
1000
0100
0002
0013
,  // measure 28
0000
1000
0100
0001
,  // measure 29
1000
0010
0002
0103
,  // measure 30
0000
0001
0100
1000
,  // measure 31
0001
0010
2000
3000
,  // measure 32
0001
0010
0001
0010
,  // measure 33
0002
0000
0003
0000
,  // measure 34
1000
0010
1000
0010
,  // measure 35
2000
0000
3000
0000
,  // measure 36
0001
0010
0100
1000
,  // measure 37
0002
0000
1003
0001
,  // measure 38
0100
0000
0010
0000
,  // measure 39
2002
0000
0000
3003
,  // measure 40
0001
0010
1000
0010
,  // measure 41
0002
0000
0103
0000
,  // measure 42
1000
0010
0001
0010
,  // measure 43
2000
0000
3100
0000
,  // measure 44
0001
0001
0010
0010
,  // measure 45
0100
0100
1000
1000
,  // measure 46
0001
0100
0010
1000
,  // measure 47
2002
3003
1001
0110
,  // measure 48
0000
1000
0010
0001
,  // measure 49
1000
0001
0100
1000
,  // measure 50
0000
0001
0010
1000
,  // measure 51
0001
1000
0100
0001
,  // measure 52
0000
1000
0100
0001
,  // measure 53
0010
0001
0100
1000
,  // measure 54
0002
0010
1003
0000
,  // measure 55
2000
0010
3001
1001
,  // measure 56
0000
1010
1000
0010
,  // measure 57
0001
0100
1000
1100
,  // measure 58
0000
0011
0001
0010
,  // measure 59
1000
0100
0001
0101
,  // measure 60
0000
1001
1000
0010
,  // measure 61
0001
0100
1000
1001
,  // measure 62
0000
1001
0001
0010
,  // measure 63
1000
0100
0001
0010
,  // measure 64
0100
0000
0000
0000
;

//---------------dance-single - ----------------
#NOTES:
     dance-single:
     :
     Beginner:
     3:
     0.178262,0.211553,0.066110,0.057846,0.000000,151.000000,143.000000,8.000000,7.000000,0.000000,0.000000,0.178262,0.211553,0.066110,0.057846,0.000000,151.000000,143.000000,8.000000,7.000000,0.000000,0.000000:
// measure 0
0000
0000
0000
0000
,  // measure 1
0000
0000
0000
0000
,  // measure 2
0000
0000
0000
0000
,  // measure 3
0000
0000
0000
0000
,  // measure 4
1000
0000
1000
0000
,  // measure 5
0001
0000
0001
0000
,  // measure 6
1000
0000
1000
0000
,  // measure 7
0001
0000
0001
0000
,  // measure 8
1000
0000
0001
0001
,  // measure 9
0001
0000
1000
1000
,  // measure 10
1000
0000
0010
0000
,  // measure 11
0010
0000
0010
0000
,  // measure 12
1000
0000
0001
0001
,  // measure 13
0001
0000
1000
1000
,  // measure 14
1000
0000
0100
0000
,  // measure 15
0200
0000
0300
0000
,  // measure 16
1000
0000
0010
0000
,  // measure 17
1000
1000
1000
0000
,  // measure 18
0001
0000
0010
0000
,  // measure 19
0001
0001
0001
0000
,  // measure 20
1000
0000
0100
0000
,  // measure 21
1000
1000
1000
0000
,  // measure 22
0001
0000
0100
0000
,  // measure 23
0001
0001
0001
0000
,  // measure 24
1000
0000
0100
0000
,  // measure 25
0010
0010
0010
0000
,  // measure 26
0001
0000
0100
0000
,  // measure 27
0010
0010
0010
0000
,  // measure 28
1000
0000
0100
0000
,  // measure 29
0001
0001
0001
0000
,  // measure 30
0001
0000
0010
0000
,  // measure 31
1000
1000
1000
0000
,  // measure 32
1000
0000
0010
0000
,  // measure 33
2000
0000
3000
0000
,  // measure 34
0001
0000
0010
0000
,  // measure 35
0002
0000
0003
0000
,  // measure 36
1000
0000
0010
0000
,  // measure 37
0100
0000
0001
0000
,  // measure 38
1000
0000
0001
0000
,  // measure 39
2002
0000
3003
0000
,  // measure 40
0001
0001
0001
0000
,  // measure 41
0010
0000
0100
0000
,  // measure 42
1000
1000
1000
0000
,  // measure 43
0010
0000
0100
0000
,  // measure 44
0001
0001
0001
0000
,  // measure 45
1000
1000
1000
0000
,  // measure 46
0001
0000
1000
0000
,  // measure 47
2002
0000
3003
0000
,  // measure 48
1001
0000
0010
0000
,  // measure 49
1000
1000
1000
0000
,  // measure 50
1001
0000
0010
0000
,  // measure 51
0001
0001
0001
0000
,  // measure 52
1001
0000
0100
0000
,  // measure 53
1000
1000
1000
0000
,  // measure 54
0001
0001
0001
0000
,  // measure 55
0110
0000
1001
0000
,  // measure 56
1000
1000
1000
0000
,  // measure 57
0010
0010
0010
0000
,  // measure 58
0001
0001
0001
0000
,  // measure 59
0100
0100
0100
0000
,  // measure 60
0001
0001
0001
0000
,  // measure 61
0010
0010
0010
0000
,  // measure 62
1000
1000
1000
0000
,  // measure 63
0100
0000
0010
0000
,  // measure 64
0110
0000
0000
0000
;

//---------------dance-single - ----------------
#NOTES:
     dance-single:
     :
     Challenge:
     12:
     0.508813,0.581770,0.330551,0.239650,0.380134,431.000000,391.000000,40.000000,29.000000,56.000000,3.000000,0.508813,0.581770,0.330551,0.239650,0.380134,431.000000,391.000000,40.000000,29.000000,56.000000,3.000000:
// measure 0
0000
0000
0000
0000
,  // measure 1
0000
0000
0000
0000
,  // measure 2
0000
0000
0000
0000
,  // measure 3
0000
0000
0000
0000
,  // measure 4
1000
0000
0000
0000
0100
0000
0000
0000
0010
0000
0000
0100
0000
1000
0000
0001
,  // measure 5
0000
0000
0001
0000
0100
0000
0000
0000
0010
0000
0000
0100
0000
0001
0000
0000
,  // measure 6
1000
0000
0000
0000
0100
0000
0000
0000
0001
0000
0000
0010
0000
1000
0000
0001
,  // measure 7
0000
0000
0100
0000
1000
0000
0000
0000
0010
0000
0000
0001
0000
1000
0000
0000
,  // measure 8
2001
0000
3001
0100
1000
0100
0001
0000
,  // measure 9
1000
0000
1000
0100
0001
0100
1000
0000
,  // measure 10
0001
0000
0001
0100
1000
0000
0110
0000
,  // measure 11
0001
0110
1000
0110
,  // measure 12
0002
0100
0103
0001
0010
1000
0010
0001
,  // measure 13
2000
0100
3100
1000
0010
0001
0010
1000
,  // measure 14
0400
0040
0000
0000
0000
0000
0300
0030
0004
4000
0000
0000
0000
0000
0003
3000
,  // measure 15
0001
0001
1000
1000
0100
0001
0010
1000
,  // measure 16
MMMM
0000
0000
0000
0011
0000
0000
0000
1010
0000
0000
1000
0000
0100
0000
0001
,  // measure 17
0000
0100
1000
0000
0001
0000
0100
0000
0020
0000
0000
0000
1030
0000
0001
0000
,  // measure 18
MMMM
0000
0000
0000
0011
0000
0000
0000
1010
0000
0000
0001
0000
0010
0000
1000
,  // measure 19
0000
0010
0001
0000
0100
0000
1000
0000
0200
0000
0000
0000
0301
0000
0010
0000
,  // measure 20
MMMM
0000
0000
0000
1010
0000
0000
0000
0011
0000
0000
0001
0000
0100
0000
1000
,  // measure 21
0000
0100
0001
0000
1000
0000
0100
0000
0020
0000
0000
0000
0031
0000
0100
0000
,  // measure 22
MMMM
0000
0000
0000
1010
0000
0000
0000
0011
0000
0000
1000
0000
0010
0000
0001
,  // measure 23
0000
0010
1000
0000
0100
0000
0001
0000
0200
0000
0000
0000
1300
0000
0001
0000
,  // measure 24
0100
0000
0000
0000
0101
0000
0000
0000
1010
0000
0001
0100
0000
0001
1000
0001
,  // measure 25
0000
0010
0001
0000
0100
0000
0010
0000
2000
0000
0000
0000
3001
0000
0000
0000
,  // measure 26
MMMM
0000
0000
0000
1100
0000
0000
0000
0011
0000
1000
0100
0000
1000
0001
1000
,  // measure 27
0000
0010
1000
0000
0100
0000
0010
0000
0002
0000
0000
0000
1003
0000
0001
0000
,  // measure 28
MMMM
0000
0000
0000
1010
0000
0000
0000
0101
0000
1000
0100
0000
0010
0001
0100
,  // measure 29
0000
0010
1000
0000
0100
0000
0001
0000
0200
0000
0000
0000
1300
0000
0000
0000
,  // measure 30
MMMM
0000
0000
0000
0011
0000
0000
0000
1100
0000
0001
0100
0000
0010
1000
0100
,  // measure 31
0010
0000
0110
0000
2002
0000
0010
3003
,  // measure 32
0001
0100
0001
0010
0000
1000
0100
2000
,  // measure 33
0010
0001
0100
3001
,  // measure 34
1000
0100
1000
0010
0000
0001
0100
0002
,  // measure 35
0010
1000
0100
1003
,  // measure 36
0001
0010
1000
0010
0001
0100
1000
0100
,  // measure 37
0002
0000
0000
0000
0010
0000
0000
0000
2003
0000
0000
0010
0000
0000
3002
0000
,  // measure 38
0000
0100
0000
2003
0000
3100
0000
2002
,  // measure 39
0000
0000
0000
0000
0000
0010
3013
0000
,  // measure 40
1000
0000
0010
0000
0001
0000
0010
0000
1000
0000
0000
0100
0000
0000
0020
0000
,  // measure 41
0001
1000
0001
0031
,  // measure 42
0001
0010
1000
0010
0000
0001
0100
0020
,  // measure 43
1000
0001
1000
1030
,  // measure 44
1000
0100
0001
0100
1000
0010
0001
0010
,  // measure 45
1000
0100
0010
0001
0100
0010
1000
0001
,  // measure 46
0040
0400
0000
0000
0000
0000
0030
0300
4000
0004
0000
0000
0000
0000
3000
0003
,  // measure 47
0200
0000
0000
0301
0100
1000
0010
0001
,  // measure 48
MMMM
0000
0000
0000
0011
0000
0000
1001
0000
0001
0100
0000
0010
0000
0010
0000
,  // measure 49
1000
0000
0200
0000
0310
0001
0010
0001
0010
0000
0100
0000
1000
0000
0001
0000
,  // measure 50
MMMM
0000
0000
0000
1010
0000
0000
1001
0000
1000
0100
0000
0010
0000
0010
0000
,  // measure 51
0001
0000
0000
0200
0000
0000
0310
0000
1000
0000
0010
0000
1000
0000
0000
0100
0000
0000
0001
0000
0000
0100
0000
0000
,  // measure 52
MMMM
0000
0000
0000
0011
0000
0000
1001
0000
1000
0010
0000
0100
0000
0100
0000
,  // measure 53
0001
0000
2000
0000
3100
0010
0100
0010
0100
0000
0010
0000
0001
0000
0000
0000
,  // measure 54
1000
0000
0010
0000
0001
0000
0010
1000
0000
0010
1000
0000
0100
0000
0001
0000
,  // measure 55
0100
0000
1000
0001
1000
0001
0000
1000
0010
1000
0000
0001
0010
0000
0001
0000
,  // measure 56
MMMM
0000
0000
0000
0011
0000
0000
1010
0000
0010
1000
0010
0000
1000
0100
1000
,  // measure 57
0100
0000
0020
0000
0031
0100
0001
0100
0001
0000
1000
0000
1001
0000
0000
0000
,  // measure 58
MMMM
0000
0000
0000
1010
0000
0000
0011
0000
0010
0001
0010
0000
0001
0100
0001
,  // measure 59
0100
0000
0000
0020
0000
0000
1030
0000
0100
0000
1000
0000
0100
0000
0000
0010
0000
0000
0001
0000
0000
1000
0000
0000
,  // measure 60
MMMM
0000
0000
0000
1010
0000
0000
0101
0000
0001
0010
0001
0000
1000
0010
1000
,  // measure 61
0010
0000
0200
0000
0301
1000
0001
1000
0001
0000
0010
0000
0100
0000
0000
0000
,  // measure 62
MMMM
0000
0000
0000
1001
0000
1000
0010
0000
1000
0001
1000
0000
0001
0010
0001
,  // measure 63
0010
1100
0101
0010
,  // measure 64
1001
0000
0000
0000
;

//---------------dance-single - [B-SIDE] Twinkle Toes----------------
#NOTES:
     dance-single:
     [B-SIDE] Twinkle Toes:
     Edit:
     10:
     0.362426,0.396661,0.322287,0.231386,0.004132,307.000000,268.000000,39.000000,28.000000,192.000000,0.000000,0.362426,0.396661,0.322287,0.231386,0.004132,307.000000,268.000000,39.000000,28.000000,192.000000,0.000000:
0000
0000
0000
0000
,
0000
0000
0000
0000
,
0000
0000
0000
0000
,
0000
0000
0000
0000
,
0002
0100
1000
0100
,
2003
0100
0001
0100
,
3002
0100
1000
0010
,
2003
0000
0100
0000
0001
0000
3010
MMMM
,
1001
0000
1000
0000
0010
MMMM
0010
0000
,
0001
0000
0001
0000
0010
MMMM
0010
0000
,
1000
0000
1000
0200
0001
0000
1000
0000
,
0001
1000
0001
1300
,
1001
0000
1000
MMMM
1000
MMMM
1000
0000
,
1001
0000
0001
MMMM
0001
MMMM
0001
0000
,
1001
0000
0001
0200
1000
0000
0001
0000
,
1300
0100
0001
0100
1000
0100
0001
0000
,
MMMM
0000
0011
0000
1010
0000
1000
0010
,
1000
MMMM
0001
MMMM
2000
0000
3001
0000
,
MMMM
0000
1010
0000
0011
0000
0001
0010
,
0001
MMMM
1000
MMMM
0001
0000
1001
0000
,
MMMM
0000
0011
0000
1100
0000
1000
0010
,
1000
MMMM
1000
0100
0001
0000
0110
0000
,
MMMM
0000
1010
0000
0101
0000
0001
0010
,
0001
MMMM
0001
0100
2000
0000
3001
0000
,
MMMM
0000
2001
0000
0010
0000
3001
0100
,
1000
0100
0001
0100
1000
0000
0101
0000
,
MMMM
0000
2001
0000
0100
0000
3001
0010
,
1000
0010
0001
0010
1000
0000
0011
0000
,
MMMM
0000
1002
0000
0010
0000
1003
0010
,
0001
0100
1000
0100
0001
0000
1100
0000
,
MMMM
0000
1002
0000
0100
0000
1003
0100
,
0001
0010
1000
0010
0001
0000
1010
0000
,
0002
0010
0100
0010
,
2000
0003
0001
3001
,
2000
0010
0100
0010
,
0002
3000
1000
1003
,
0001
0010
1000
0100
,
0002
0000
0000
0000
0010
0000
0000
0000
2003
0000
0000
0010
0000
0000
3002
0000
,
0000
0103
0000
2001
0000
3100
0000
2002
,
0000
0000
0000
0000
0000
3003
MMMM
0000
,
1000
0010
0001
0010
1000
0000
1000
0200
,
0001
0010
1000
1300
,
0001
0010
1000
0010
0001
0000
0001
0200
,
1000
0010
0001
0301
,
1000
0100
0001
0000
0001
0100
1000
0000
,
1000
0010
0001
0000
0001
0010
1000
0000
,
1000
0100
0001
0100
1000
0010
0001
0010
,
2000
3000
1001
1001
,
MMMM
0021
1000
0100
,
0031
MMMM
0001
MMMM
0001
0010
0001
0000
,
MMMM
1020
0001
0100
,
1030
MMMM
1000
MMMM
1000
0010
1000
0000
,
MMMM
0021
1000
0100
,
0031
MMMM
1000
MMMM
0001
1000
0001
0000
,
0001
0100
1000
0100
0001
0000
0110
0000
,
0001
0010
1000
0010
0001
0000
0110
0000
,
MMMM
0000
0011
0000
0001
0100
1000
MMMM
,
1010
0000
1000
MMMM
0010
MMMM
1000
0000
,
MMMM
0000
1010
0000
1000
0100
0001
MMMM
,
0011
0000
0001
MMMM
0010
MMMM
0001
0000
,
MMMM
0000
0011
0000
0001
0100
1000
MMMM
,
1010
0000
1000
0100
0001
MMMM
0011
0000
,
MMMM
0000
0001
MMMM
1000
MMMM
0001
0000
,
0010
MMMM
0010
MMMM
0010
MMMM
0010
0000
,
1001
0000
0000
0000
;
