#TITLE:dAuntl3ss;
#SUBTITLE:;
#ARTIST:DJ Noriken;
#TITLETRANSLIT:;
#SUBTITLETRANSLIT:;
#ARTISTTRANSLIT:;
#GENRE:Hard Dance;
#CREDIT:;
#BANNER:dAuntl3ss.png;
#BACKGROUND:dAuntl3ss-bg.png;
#LYRICSPATH:;
#CDTITLE:cdtitle.png;
#MUSIC:dAuntl3ss.ogg;
#OFFSET:-0.491875;
#SAMPLESTART:84.347298;
#SAMPLELENGTH:11.566261;
#SELECTABLE:YES;
#BPMS:0.000000=166.000000
;
#STOPS:
;
#BGCHANGES:;
#KEYSOUNDS:;
#ATTACKS:;

//---------------dance-single - ----------------
#NOTES:
     dance-single:
     :
     Challenge:
     17:
     0.940713,1.065793,0.422740,0.105685,1.089369,810.000000,758.000000,52.000000,13.000000,50.000000,0.000000,0.940713,1.065793,0.422740,0.105685,1.089369,810.000000,758.000000,52.000000,13.000000,50.000000,0.000000:
// measure 0
0000
0000
0000
0000
,  // measure 1
0000
0000
0000
0000
,  // measure 2
0000
0000
0000
0000
,  // measure 3
0000
0000
0000
0000
,  // measure 4
0000
0000
0000
0000
,  // measure 5
0000
0000
1000
0100
0010
0001
0000
0101
,  // measure 6
0000
0000
0110
0000
0000
0000
0001
0100
0001
0000
0010
0000
0100
0000
0010
0000
,  // measure 7
0100
0000
1000
0000
0000
0000
0001
0000
0000
0000
0001
0000
0000
0000
1000
0010
,  // measure 8
1000
0000
0001
0000
0010
0000
0100
1000
0001
0000
0100
0000
0010
0000
0100
0010
,  // measure 9
1000
0000
0000
1000
0100
0000
0010
0000
0001
0000
0000
0001
0100
0000
0010
0000
,  // measure 10
1000
0000
0000
1000
0100
0000
0010
0001
0100
0000
1000
0000
0100
0000
0001
0000
,  // measure 11
0010
0000
0000
0010
0001
0000
1000
0000
0010
0000
0000
0010
1000
0000
0001
0010
,  // measure 12
0100
0010
0100
0010
0001
1000
0010
0100
,  // measure 13
0001
0000
0000
0001
0010
0000
0100
0000
1000
0000
0000
1000
0010
0000
0100
0000
,  // measure 14
0001
0000
0000
0001
0010
0000
0100
1000
0010
0000
0001
0000
0010
0000
1000
0000
,  // measure 15
0100
0000
0000
0100
0010
0000
0001
0000
0100
0000
0000
0100
0010
0000
1000
0000
,  // measure 16
2002
0000
0000
0000
0000
0000
0000
0000
3003
0000
0001
0000
1000
0001
1000
0000
,  // measure 17
0002
0000
0000
0100
0000
0000
1000
0000
1000
0000
0000
0000
0010
0000
0000
0000
,  // measure 18
1000
0000
0000
0100
0000
0000
0010
0000
0010
0000
0000
0000
0103
0000
0001
0000
,  // measure 19
2001
0000
0000
0100
0000
0000
0001
0000
0001
0000
0000
0000
0010
0000
0000
0000
,  // measure 20
0001
0000
0000
0000
0000
0000
0100
0000
0000
0001
0000
0000
3100
0000
0000
0000
0000
0000
1001
0000
0000
0001
1000
0001
,  // measure 21
1000
0000
0100
1000
1001
0000
1010
1000
,  // measure 22
1001
0000
0000
0000
0100
0000
0001
0000
1001
0000
0000
0000
0011
0000
0001
1000
,  // measure 23
0010
0000
0000
0001
0010
0000
0000
1000
0100
0000
0001
0000
0100
0010
0100
1000
,  // measure 24
0002
0000
0000
0000
0000
0000
0000
0000
1003
0001
0100
0000
0110
0000
0000
0000
,  // measure 25
1000
0000
1000
0000
1000
0000
1000
0001
,  // measure 26
1000
1000
1000
MMMM
,  // measure 27
1001
0000
0001
0000
0010
0001
1000
0001
0100
0000
0010
0100
0010
0100
0001
0000
,  // measure 28
1001
0000
1000
0000
0010
1000
0001
1000
0100
0000
0010
0100
0000
0010
0001
0000
,  // measure 29
0011
0000
0001
0000
0100
0001
1000
0001
0010
0000
0100
1000
0100
1000
0010
0000
,  // measure 30
1010
0000
1000
0000
0100
1000
0001
1000
0010
0000
0100
0001
0100
0001
0010
0000
,  // measure 31
0110
0000
0100
0000
1000
0001
0100
0010
1000
0000
0010
0100
0001
1000
0100
0000
,  // measure 32
0220
0000
0000
0000
0330
0000
0000
0000
1000
0100
0001
0100
1000
0000
0000
0000
,  // measure 33
1010
0000
0010
0000
1000
0010
0100
0010
0001
0000
0010
1000
0100
0010
0001
0000
,  // measure 34
0011
0000
0010
0000
0001
0010
0100
0010
1000
0000
0010
0001
0100
0010
1000
0000
,  // measure 35
1100
0000
0100
0000
0001
0100
0010
0001
0100
0000
1000
0100
0010
0100
0001
0000
,  // measure 36
0101
0000
0100
0000
1000
0100
0010
1000
0100
0000
0010
0001
0100
0000
0000
0000
,  // measure 37
1001
0000
0001
0000
0100
0001
0010
0001
0100
0000
0100
0001
0010
0001
0100
0000
,  // measure 38
1001
0000
1000
0000
0100
1000
0010
1000
0100
0000
0100
1000
0010
1000
0100
0000
,  // measure 39
1001
0000
0010
0000
0001
0100
0010
0100
1000
0000
0100
0010
1000
0100
0010
0001
,  // measure 40
0200
0000
0000
0000
0000
0000
0000
0000
0301
1000
0100
0000
0110
0000
0000
0000
,  // measure 41
MMMM
0000
0011
0010
0100
1100
0000
2010
,  // measure 42
0000
0000
0100
0000
0000
0000
3010
1000
0100
0000
0001
0000
0100
0000
0010
0000
,  // measure 43
0110
0000
0000
0000
1000
0100
0010
0001
0100
0000
1000
0000
0000
0000
1000
0100
,  // measure 44
0001
0000
0000
0001
0000
0000
0010
0000
0100
0000
1000
0000
0010
0000
0100
0000
,  // measure 45
MMMM
0000
1010
0010
0100
0101
0000
0012
,  // measure 46
0000
0000
0100
0000
0000
0000
0013
0001
0100
0000
1000
0000
0100
0000
0010
0000
,  // measure 47
0110
0000
0000
0000
0001
0100
0010
1000
0100
0000
0001
0000
0000
0000
0001
0100
,  // measure 48
0020
0000
0000
0000
0000
0000
0130
1000
0001
0000
0100
0000
0010
0000
1000
0000
,  // measure 49
1001
0000
0000
0001
0000
0000
0010
0000
0100
0000
0000
0000
0010
0001
0010
0001
,  // measure 50
1000
0000
0000
1000
0000
0000
0001
0000
0100
0000
0000
0000
0100
0010
1000
0001
,  // measure 51
1000
0000
0000
1000
0000
0000
0010
0000
0100
0000
0000
0000
0010
1000
0010
1000
,  // measure 52
0001
0000
0000
0001
0000
0000
1000
0000
0100
0000
0000
0000
0110
0000
0000
0000
,  // measure 53
0001
0010
0001
0010
0001
0010
0001
0010
0100
1000
0100
1000
0100
1000
0100
1000
,  // measure 54
0001
0010
0001
0010
0100
1000
0010
0100
0001
0010
0100
1000
0010
0000
0010
0000
,  // measure 55
1010
0000
1001
0000
0011
0000
1001
0000
1000
0100
1000
0100
0001
0100
0001
0100
,  // measure 56
1000
0000
0000
0001
0010
0000
0000
1000
0010
0000
0001
0000
0100
1000
0100
0001
,  // measure 57
0200
0000
0000
0000
0000
0000
0000
0000
0301
1000
0100
0000
0110
0000
0000
0000
,  // measure 58
0001
0010
0100
0010
0100
0010
0001
1000
0001
0100
0001
0010
M00M
0010
1000
0001
,  // measure 59
1000
0010
0100
0010
0100
0010
1000
0001
1000
0100
1000
0010
M00M
0010
0001
1000
,  // measure 60
0010
0100
0010
0100
0001
1000
0100
0010
0001
1000
0001
0100
M00M
0100
1000
0001
,  // measure 61
0010
0001
0100
01M0
1000
0001
0010
0M10
1000
0001
0010
0M10
1000
0001
0100
01M0
,  // measure 62
1000
0100
0010
0100
0010
0100
1000
0010
1000
0100
1000
0010
M00M
0010
0001
1000
,  // measure 63
0001
0100
0010
0100
0010
0100
0001
0010
0001
0100
0001
0010
M00M
0010
1000
0001
,  // measure 64
0010
0100
0010
0100
1000
0001
0100
0010
1000
0001
1000
0100
M00M
0100
0001
0000
,  // measure 65
1001
0000
0000
0000
1001
0000
0000
0000
MMMM
0000
0000
0000
0001
1000
0001
0000
,  // measure 66
1000
0100
1000
0100
0010
0100
0001
0100
0010
0100
1000
0010
M00M
0010
0001
1000
,  // measure 67
0001
0100
0001
0100
0010
0100
1000
0100
0010
0100
0001
0010
M00M
0010
1000
0100
,  // measure 68
0010
0001
0010
0001
1000
0010
0100
0001
0010
0100
1000
0010
M00M
0010
0001
1000
,  // measure 69
0010
1000
0100
01M0
0001
1000
0010
0M10
0001
1000
0010
0M10
0001
1000
0100
01M0
,  // measure 70
0001
0010
0001
0010
1000
0010
0100
1000
0001
0100
0010
0001
MMM0
0001
0100
0010
,  // measure 71
1000
0010
1000
0010
0001
0010
0100
0001
1000
0100
0010
1000
0MMM
1000
0100
0010
,  // measure 72
0001
0100
0001
0100
0010
1000
0100
0010
0001
1000
0001
0100
M00M
0100
1000
0001
,  // measure 73
0100
0000
0010
0000
0200
0000
0000
0000
0301
1000
0100
0000
0110
0000
0000
0000
,  // measure 74
0001
0000
0001
0000
1000
0100
0001
0000
0001
0100
0010
0100
1000
0000
1000
0010
,  // measure 75
0100
0000
0000
0010
0000
0000
0001
0000
0000
0000
0000
0000
0010
0000
0100
0000
0010
0000
0100
0000
0000
0001
0000
0000
1000
0000
0000
0000
0000
0000
1000
0000
0100
0000
0010
0000
0001
0000
0000
0000
0000
0000
0000
0000
0000
0000
0000
0000
,  // measure 76
1000
0000
1000
0000
0001
0100
1000
0000
1000
0100
0001
0010
1000
0000
1000
0010
,  // measure 77
0001
0000
0000
0100
0000
0000
0010
0000
0000
0000
0000
0000
0001
0000
0000
0010
0000
0000
1000
0000
0000
0100
0000
0000
0010
0000
0000
0000
0000
0000
0000
0000
0000
0000
0000
0000
0110
0000
0000
0000
0000
0000
1000
0000
0001
0000
1000
0000
,  // measure 78
0001
0000
0100
0101
1001
0000
0011
1001
,  // measure 79
1001
0000
0000
0000
0100
0000
1100
0000
1001
0000
0000
0000
1010
0000
1000
0001
,  // measure 80
0010
0000
0000
1000
0010
0000
0000
0001
0100
0000
1000
0000
0100
0010
0100
0001
,  // measure 81
1000
0100
1000
0100
0010
0001
1000
0010
1000
0001
1000
0010
1000
0100
0010
0001
;

//---------------dance-single - ----------------
#NOTES:
     dance-single:
     :
     Hard:
     15:
     0.769991,0.865957,0.455259,0.178852,0.650369,663.000000,607.000000,56.000000,22.000000,16.000000,0.000000,0.769991,0.865957,0.455259,0.178852,0.650369,663.000000,607.000000,56.000000,22.000000,16.000000,0.000000:
// measure 0
0000
0000
0000
0000
,  // measure 1
0000
0000
0000
0000
,  // measure 2
0000
0000
0000
0000
,  // measure 3
0000
0000
0000
0000
,  // measure 4
0000
0000
0000
0000
,  // measure 5
0000
0000
1000
0100
0010
0001
0000
0101
,  // measure 6
0000
0000
0110
0000
0000
0000
0001
0100
0001
0000
0010
0000
0100
0000
0010
0000
,  // measure 7
0100
0000
1000
0000
0000
0000
0001
0000
0000
0000
0001
0000
0000
0000
1000
0010
,  // measure 8
1000
0000
0001
0000
0010
0000
0100
1000
0001
0000
0100
0000
0010
0000
1000
0000
,  // measure 9
1001
1010
1001
0011
,  // measure 10
0110
0000
0000
0000
0011
0000
0001
1000
0001
0000
0100
0000
0010
0000
0100
0000
,  // measure 11
0001
0000
0000
0000
0101
0000
0000
0000
1100
0000
0000
0000
0101
0000
0001
1000
,  // measure 12
0001
1000
0001
0010
0100
1000
0010
0100
,  // measure 13
0001
0011
1001
1010
,  // measure 14
0110
0000
0000
0000
1010
0000
1000
0001
1000
0000
0100
0000
0010
0000
0001
0000
,  // measure 15
0100
0000
0110
0000
1001
0000
1000
0001
,  // measure 16
2002
0000
0000
0000
0000
0000
0000
0000
3003
0000
1000
0000
0001
1000
0001
0000
,  // measure 17
2000
0100
0001
0001
,  // measure 18
0010
0000
0001
0000
0100
0000
3001
1000
,  // measure 19
1002
0100
1000
1000
,  // measure 20
0010
0000
0000
0000
1000
0000
0000
0000
0103
0000
0000
0000
1001
0000
0001
1000
,  // measure 21
0001
0000
0000
1000
1100
0000
1000
0001
,  // measure 22
1001
0000
0000
0000
0000
0000
0001
0000
0101
0000
0000
0000
1001
0000
1000
0001
,  // measure 23
1000
0000
0000
1000
0100
0000
0000
0100
0010
0000
0001
0000
0100
0010
0100
0010
,  // measure 24
2000
0000
0000
0000
3001
1000
0110
0000
,  // measure 25
0001
0000
0001
0000
0001
0000
0001
1000
,  // measure 26
0001
0001
0001
MMMM
,  // measure 27
0001
0000
0010
0000
0100
0000
1000
0100
1000
0000
0001
0100
0000
0100
0010
0000
,  // measure 28
1000
0000
0100
0000
0010
0000
0001
0010
0001
0000
0100
0010
0000
1000
0100
0000
,  // measure 29
1000
0000
0010
0000
0100
0000
0001
0100
0001
0000
0010
0100
0000
0100
1000
0000
,  // measure 30
0001
0000
0100
0000
0010
0000
1000
0010
1000
0000
0100
0010
0000
0010
0001
0000
,  // measure 31
1000
0000
0010
0000
0100
0000
0001
0100
0001
0000
0010
0100
0000
0100
1000
0000
,  // measure 32
2002
0000
0000
0000
3003
0000
0000
0000
0001
1000
0001
1000
0001
0000
0000
0000
,  // measure 33
1000
0000
0010
0000
0100
0000
0010
1000
0100
0000
0001
0100
0000
0100
1000
0000
,  // measure 34
0001
0000
0010
0000
0100
0000
0010
0001
0100
0000
1000
0100
0000
0100
0001
0000
,  // measure 35
1000
0000
0010
0000
0001
0000
0010
1000
0100
0000
0010
0001
0000
0001
0100
0000
,  // measure 36
0001
0000
0010
0000
1000
0000
0010
0001
0100
0000
0010
1000
0100
0000
0000
0000
,  // measure 37
1001
0000
0001
0000
0010
0000
0001
0100
0010
0000
0100
0001
0000
0001
0010
0000
,  // measure 38
1001
0000
1000
0000
0010
0000
1000
0100
0010
0000
0100
1000
0000
1000
0010
0000
,  // measure 39
1001
0000
0100
1000
1001
0000
0100
0001
,  // measure 40
2002
0000
3003
0000
0001
1000
0110
0000
,  // measure 41
MMMM
0000
0011
0001
1000
1010
0000
0210
,  // measure 42
0000
0001
0000
0310
1000
1000
1000
0100
,  // measure 43
0210
0000
0000
0000
0301
0000
0100
0000
1000
0000
0001
0000
0000
0000
0001
1000
,  // measure 44
0010
0000
0000
0010
0000
0000
0010
0000
0001
0000
0010
0000
1000
0000
0001
0000
,  // measure 45
MMMM
0000
1010
1000
0001
0011
0000
0210
,  // measure 46
0000
1000
0000
0310
0001
0001
0001
0100
,  // measure 47
0210
0000
0000
0000
1300
0000
0100
0000
0001
0000
1000
0000
0000
0000
1000
0001
,  // measure 48
0020
0000
0000
0000
0000
0000
0130
0010
0100
0000
0010
0000
0100
0000
1000
0000
,  // measure 49
1001
0000
0000
0001
0000
0000
0001
0000
0100
0000
0000
0000
0001
1000
0001
1000
,  // measure 50
0001
0000
0000
0001
0000
0000
0010
0000
0001
0000
0000
0000
1000
0010
1000
0010
,  // measure 51
1000
0000
0000
1000
0000
0000
1000
0000
0100
0000
0000
0000
1000
0001
1000
0001
,  // measure 52
1000
0000
0000
1000
0000
0000
0010
0000
1000
0000
0000
0000
1001
0000
0000
0000
,  // measure 53
1200
0000
0000
0010
0000
0000
0001
0000
0001
0000
0000
0000
1300
0000
0001
0000
,  // measure 54
0201
0000
0000
0010
0000
0000
1000
0000
1000
0000
0000
0000
0301
0000
0001
0000
,  // measure 55
1000
0000
0100
0000
0010
0000
0001
0000
1000
0100
1000
0100
0010
0001
0010
0001
,  // measure 56
1000
0000
0000
0001
0100
0000
0000
0100
0010
0000
1000
0000
0100
0010
0100
0010
,  // measure 57
0002
0000
0000
0000
0103
0010
1001
0000
,  // measure 58
1000
0100
1000
0000
0100
1000
0100
0000
0010
0100
1000
0001
0000
0001
1000
0000
,  // measure 59
0001
0100
0001
0000
0100
0001
0100
0000
0010
0100
0001
1000
0000
1000
0001
0000
,  // measure 60
1000
0100
1000
0000
0001
0100
0001
0000
1000
0010
0100
0001
0000
1000
0100
0000
,  // measure 61
0020
0000
0001
1000
0000
0000
1000
0001
0000
0000
0001
1000
0000
0000
1030
0001
,  // measure 62
0010
0001
0010
0000
0001
0100
0001
0000
0100
0010
1000
0100
0000
0100
1000
0000
,  // measure 63
0010
1000
0010
0000
1000
0100
1000
0000
0100
0010
0001
0100
0000
0100
0001
0000
,  // measure 64
1000
0010
1000
0000
0001
0010
0001
0000
1000
0010
0100
0001
0000
0001
0010
0000
,  // measure 65
0110
0000
0110
0000
MMMM
0000
1000
0100
,  // measure 66
0010
0100
0010
0000
0100
0001
0100
0000
0010
0100
1000
0001
0000
0001
1000
0000
,  // measure 67
0010
0100
0010
0000
0100
1000
0100
0000
0010
0100
0001
1000
0000
1000
0100
0000
,  // measure 68
0010
0001
1000
0000
0010
1000
0001
0000
0010
0100
1000
0001
0000
0001
0100
0000
,  // measure 69
0020
0000
1000
0001
0000
0000
0001
1000
0000
0000
1000
0001
0000
0000
0031
1000
,  // measure 70
0010
1000
0010
0000
1000
0100
1000
0000
0001
0010
0100
0001
0000
0001
0100
0000
,  // measure 71
0010
0001
0010
0000
0001
0100
0001
0000
1000
0010
0100
1000
0000
1000
0100
0000
,  // measure 72
0010
1000
0100
0000
0010
0001
0100
0000
0001
1000
0100
0010
0000
0001
0100
0000
,  // measure 73
0220
0000
0330
0000
0100
0010
1001
0000
,  // measure 74
0001
0000
0000
0000
1000
0100
1000
0000
0001
0100
0001
0100
0001
0000
1000
0100
,  // measure 75
1000
0100
1000
0000
0001
0100
0010
1000
0001
0000
0001
1000
0100
0000
0000
0000
,  // measure 76
1000
0000
0000
0000
0001
0010
0001
0000
1000
0010
1000
0010
1000
0000
0001
0010
,  // measure 77
0001
0010
0100
0000
1000
0010
1000
0010
0100
0000
0000
0000
1001
0000
1000
0001
,  // measure 78
1000
0000
0001
0010
0110
0000
0011
0001
,  // measure 79
1001
0000
0000
0000
1000
0000
0010
0000
0110
0000
0000
0000
1010
0000
1000
0001
,  // measure 80
1000
0000
0000
0001
0010
0000
0000
0010
0100
0000
1000
0000
0010
0100
0001
1000
,  // measure 81
0200
0000
0000
0000
0000
0000
0000
0000
0000
0000
0000
0000
0000
0000
0000
0300
;

//---------------dance-single - ----------------
#NOTES:
     dance-single:
     :
     Medium:
     13:
     0.613205,0.799345,0.243889,0.186981,0.243889,528.000000,498.000000,30.000000,23.000000,12.000000,0.000000,0.613205,0.799345,0.243889,0.186981,0.243889,528.000000,498.000000,30.000000,23.000000,12.000000,0.000000:
0000
0000
0000
0000
,
0000
0000
0000
0000
,
0000
0000
0000
0000
,
0000
0000
0000
0000
,
0000
0000
0000
0000
,
0000
0000
1000
0100
0010
0001
0000
1000
,
0000
0000
1000
0000
0000
0000
0001
0100
0001
0000
0100
0000
0010
0000
1000
0000
,
0100
0000
1000
0000
0000
0000
0001
0000
0000
0000
0001
0000
0000
0000
1000
0010
,
1000
0001
0010
0000
0100
1000
0010
0100
,
0001
0001
0010
0010
,
1000
0000
0000
0000
1000
0000
0001
1000
0001
0000
1000
0000
0010
0000
1000
0000
,
0001
0000
0000
0000
0001
0000
0000
0000
0100
0000
0000
0000
0100
0000
0001
1000
,
0001
1000
0100
0010
0001
0100
0010
0000
,
1000
1000
0010
0010
,
0001
0000
0000
0000
0001
0000
1000
0001
1000
0000
0001
0000
0010
0000
0001
0000
,
1000
1000
0001
0010
,
2002
0000
3003
0000
,
2000
0100
0100
0100
,
3002
0000
0100
0000
0100
0000
0103
0001
,
1002
0010
0010
0010
,
2003
0000
0010
0000
3010
0000
1000
0001
,
1001
0000
0000
1000
1100
0000
0100
1000
,
1001
0000
0000
0001
0101
0000
0100
0001
,
1001
0000
0000
1000
0100
0000
0000
0100
0010
0000
0001
0000
0100
0000
0010
0000
,
2000
0000
3010
1001
,
0100
0000
0100
0000
0100
0000
0100
0010
,
0100
0100
0100
MMMM
,
1000
0100
0010
0001
0100
0010
1000
0001
,
0010
0100
1000
0010
0100
0001
0020
0000
,
0031
0100
0010
1000
0100
1000
0001
0100
,
0010
1000
0100
0010
0001
1000
0001
0100
,
0001
0010
0100
1000
0001
0100
0010
1000
,
2002
0000
0000
0000
3003
0000
0000
0000
1000
0001
1000
0001
1000
0000
0000
0000
,
0001
0010
1000
0010
0001
0100
0010
1000
,
0010
0001
0010
1000
0100
0010
0001
0100
,
1000
0100
0001
0010
0100
1000
0010
1000
,
0100
0001
0100
1000
0010
0100
0001
0000
,
0011
0010
0001
0100
1000
0100
0010
0000
,
1010
0010
1000
0100
0001
0100
0010
0000
,
0110
1000
0001
0000
0110
0001
1000
0000
,
2002
3003
0010
1001
,
MMMM
0000
1000
0100
0010
0001
0000
0201
,
0000
0010
0000
0301
0100
1000
0100
0001
,
0020
0000
0000
0000
1000
0000
0000
0000
0130
0000
0000
0000
0000
0000
0100
0010
,
0100
0000
0000
0100
0000
0000
0010
0000
0001
0000
0000
0000
0100
0000
0000
0000
,
MMMM
0000
0001
0100
0010
1000
0000
1200
,
0000
0010
0000
1300
0100
0001
0100
1000
,
0020
0000
0000
0000
0001
0000
0000
0000
0130
0000
0000
0000
0000
0000
0010
0100
,
0020
0000
0000
1030
0001
0010
0100
1000
,
0001
0000
0000
0001
0000
0000
0001
0000
0100
0000
0000
0000
0001
0000
0000
0000
,
1000
0000
0000
1000
0000
0000
1000
0000
0100
0000
0000
0000
1000
0000
0000
0000
,
0001
0000
0000
0001
0000
0000
0001
0000
0010
0000
0000
0000
0001
0000
0000
0000
,
1000
0000
0000
1000
0000
0000
1000
0000
0010
0000
0000
0000
1001
0000
0000
0000
,
1000
0000
0000
0100
0000
0000
0001
0000
0100
0000
0000
0000
0100
0000
0010
0000
,
0001
0000
0000
0100
0000
0000
1000
0000
0100
0000
0000
0000
0100
0000
0010
0000
,
1000
0100
0010
0001
1000
0100
0001
0100
,
1000
0000
0000
0001
0100
0000
0000
0100
0010
0000
1000
0000
0100
0000
0010
0000
,
0002
0000
0103
1001
,
1000
0000
0100
0000
0010
0000
0100
0000
1000
0000
0001
0100
0000
0010
1000
0000
,
0001
0000
0010
0000
0100
0000
1000
0000
0010
0000
0100
0001
0000
1000
0100
0000
,
0010
0000
0001
0000
1000
0000
0001
0000
0100
0000
0010
1000
0000
1000
0100
0000
,
0010
0001
0001
0100
0100
0010
0010
1000
,
0001
0000
0100
0000
0010
0000
0100
0000
0001
0000
1000
0100
0000
0010
0001
0000
,
1000
0000
0010
0000
0100
0000
0001
0000
0010
0000
0100
1000
0000
0001
0100
0000
,
0010
0000
1000
0000
0001
0000
1000
0000
0100
0000
0010
0001
0000
0001
0100
0000
,
0110
0110
2002
3003
,
1000
0000
0100
0000
0001
0000
0100
0000
0010
0000
0001
0100
0000
0010
1000
0000
,
0010
0000
0001
0000
0010
0000
1000
0000
0100
0000
0010
0001
0000
0100
0010
0000
,
0100
0000
1000
0000
0100
0000
0001
0000
0010
0000
0100
1000
0000
1000
0010
0000
,
0100
0001
0001
1000
1000
0100
0100
0010
,
0001
0000
0100
0000
1000
0000
0100
0000
0010
0000
1000
0100
0000
0010
0001
0000
,
0010
0000
1000
0000
0010
0000
0001
0000
0100
0000
0010
1000
0000
0100
0010
0000
,
0100
0000
0001
0000
0100
0000
1000
0000
0010
0000
0100
0001
0000
0001
0010
0000
,
0220
0330
0100
1001
,
1000
0000
0000
0000
0001
0010
0001
0000
0010
0001
0010
0001
0010
0000
0001
0010
,
0001
0010
0001
0000
0010
0001
0010
0001
0010
0000
0100
0000
0110
0000
0000
0000
,
0001
0000
0000
0000
1000
0010
1000
0000
0010
1000
0010
1000
0010
0000
1000
0010
,
1000
0010
1000
0000
0010
1000
0010
1000
0010
0000
0000
0000
0110
0000
0001
0000
,
1000
0000
0000
0001
0011
0000
1000
0010
,
1010
0000
0000
1000
1100
0000
0001
0100
,
0101
0000
0000
1000
0010
0000
0000
1000
0100
0000
0010
0000
0001
0000
0100
0000
,
0020
0000
0000
0000
0000
0000
0000
0000
0000
0000
0000
0000
0000
0000
0000
0030
;

//---------------dance-single - ----------------
#NOTES:
     dance-single:
     :
     Easy:
     10:
     0.475002,0.566203,0.317055,0.219500,0.000000,409.000000,370.000000,39.000000,27.000000,0.000000,0.000000,0.475002,0.566203,0.317055,0.219500,0.000000,409.000000,370.000000,39.000000,27.000000,0.000000,0.000000:
0000
0000
0000
0000
,
0000
0000
0000
0000
,
0000
0000
0000
0000
,
0000
0000
0000
0000
,
0000
0000
0000
0000
,
1001
0000
0101
0000
0001
1000
0000
1100
,
0000
0000
0000
0000
,
0010
0000
0000
0000
,
0010
0000
0000
0001
0100
0010
1000
0000
,
0001
0001
0010
0010
,
1000
0000
1000
0000
0001
1000
0001
0000
,
1000
1000
0100
0100
,
0010
0000
0001
0000
0001
0100
0010
0000
,
1000
1000
0010
0010
,
0001
0000
0001
0000
1000
0001
1000
0000
,
0001
0001
0100
0010
,
2002
0000
3003
0000
,
2000
0000
0100
0000
,
0100
0000
3100
0000
,
1002
0000
0100
0000
,
0100
0000
0103
1001
,
1001
0000
0000
0001
0010
0000
1001
0000
,
1010
0000
0000
1000
0010
0000
1001
0000
,
0011
0000
1001
0000
1000
0010
1000
0001
,
0020
0000
0030
0000
,
0001
0001
0001
0001
,
1000
1000
2000
3000
,
0001
0100
0001
0000
0100
0010
0100
0000
,
0010
1000
0010
0000
1000
0001
1000
0000
,
0100
1000
0100
0000
0010
0100
0010
0000
,
0001
0010
0001
0000
1000
0001
1000
0000
,
0001
0100
0001
0000
1000
0100
1000
0000
,
2002
0000
3003
0000
0010
0010
0010
0000
,
1000
0100
0010
0000
0010
0100
1000
0000
,
0001
0100
0010
0000
0010
0100
0001
0000
,
1000
0100
0010
0000
0001
0100
0010
0000
,
0100
0001
0010
0000
0100
1000
0010
0000
,
1001
1000
0100
0000
1000
0001
1000
0000
,
1001
0001
0100
0000
0001
1000
0001
0000
,
1001
0010
1001
0100
,
2002
0000
3003
0000
,
0110
0000
1000
0100
1000
0100
0000
0210
,
0000
0001
0000
0310
0100
0010
0100
0000
,
2100
0000
0000
3002
0000
0000
0103
0010
,
0100
0000
0010
1000
0100
0000
0010
0000
,
0110
0000
0001
0100
0001
0100
0000
0210
,
0000
1000
0000
0310
0100
0010
0100
0000
,
0102
0000
0000
2003
0000
0000
3100
0010
,
0002
0000
0000
0000
0103
0010
1000
0000
,
2010
0010
0001
0001
,
0100
0100
3001
0010
,
0012
0010
1000
1000
,
0100
0000
0100
0000
1003
0000
0010
1000
,
0100
0000
0100
0010
0001
0000
0010
0001
,
0100
0000
0100
0010
1000
0000
1001
0000
,
1000
0100
0010
0001
1000
0100
0010
0001
,
0100
0000
0100
0000
0010
0100
0001
1000
,
0200
0000
0300
0000
,
0010
0100
0010
0100
0010
0001
1000
0000
,
0010
0100
0010
0100
0010
1000
0001
0000
,
1000
0100
1000
0100
0010
0001
0200
0000
,
1000
0001
1000
0301
,
1000
0010
1000
0010
0100
0001
0010
0000
,
0001
0010
0001
0010
0100
1000
0010
0000
,
1000
0001
1000
0001
0010
0100
1000
0000
,
1001
1001
0220
0330
,
0001
0100
0001
0010
0001
0100
0010
0000
,
1000
0010
1000
0100
1000
0010
0100
0000
,
0001
0010
0001
1000
0010
1000
0200
0000
,
0001
1000
0001
1300
,
0100
0010
0001
0100
0010
1000
0001
0000
,
0100
0010
1000
0100
0010
0001
1000
0000
,
0001
0100
0001
1000
0100
1000
0001
0000
,
2002
0000
3003
0000
,
0010
0000
0001
0100
0001
0100
0010
0100
,
0001
0100
0010
0100
0001
0010
0100
0000
,
0110
0000
1000
0100
1000
0100
0010
0100
,
1000
0100
0010
0001
0100
0000
0110
0000
,
1001
0000
0000
1000
1001
0000
1000
0001
,
1001
0000
0000
0001
1001
0000
0100
0000
,
1001
0000
1001
0000
0001
0010
0100
1000
,
0002
0000
0000
0000
0000
0000
0000
0000
0000
0000
0000
0000
0000
0000
0000
0003
;

//---------------dance-single - ----------------
#NOTES:
     dance-single:
     :
     Beginner:
     6:
     0.339121,0.499590,0.325185,0.235759,0.000000,292.000000,252.000000,40.000000,29.000000,0.000000,0.000000,0.339121,0.499590,0.325185,0.235759,0.000000,292.000000,252.000000,40.000000,29.000000,0.000000,0.000000:
0000
0000
0000
0000
,
0000
0000
0000
0000
,
0000
0000
0000
0000
,
0000
0000
0000
0000
,
0000
0000
0000
0000
,
1000
0000
0001
0000
1000
0000
0000
0001
,
0000
0000
0000
0000
,
0010
0000
0000
0000
,
0010
0000
0001
1000
,
0010
0010
0100
0100
,
0010
0010
0100
0001
,
1000
1000
0100
0100
,
0010
0001
0100
0001
,
0010
0010
0100
0100
,
0010
0010
0100
1000
,
0001
0001
0100
0010
,
0220
0000
0330
0000
,
2000
0000
0001
0000
,
0001
0000
3001
0000
,
0002
0000
1000
0000
,
1000
0000
1003
0001
,
1001
0000
1001
0100
,
1001
0000
1001
0010
,
1001
0101
1001
1100
,
2002
0000
3003
0000
,
0001
0001
0001
0001
,
0001
0001
0002
0003
,
1000
0100
0010
0001
,
0100
0010
1000
0001
,
0010
0100
1000
0010
,
0100
0001
1000
0100
,
0010
0001
1000
0010
,
0220
0330
0110
0110
,
0001
0010
0100
1000
,
0010
0001
0010
1000
,
0100
0001
0100
1000
,
0010
0100
0001
1000
,
0100
0100
0010
0001
,
0100
0100
0010
1000
,
0100
0001
0100
1000
,
2002
0000
3003
0000
,
1001
0000
0001
0000
0100
0000
0000
0210
,
0000
0000
0310
1000
,
0100
0000
0100
0000
,
0100
1000
0010
1000
,
1001
0000
1000
0000
0100
0000
0000
0210
,
0000
0000
0310
0001
,
0100
0000
0100
0000
,
2002
0000
3003
0000
,
1000
0100
0020
0030
,
0010
0100
2000
3000
,
0001
0100
0020
0030
,
0010
0100
0002
0003
,
1000
0100
0010
0001
,
0010
0100
1000
0001
,
0100
0100
0010
1000
,
1001
0011
1001
1010
,
2002
0000
3003
0000
,
1000
0100
0010
0001
,
1000
0100
0001
0100
,
1000
0001
0010
0100
,
1000
0010
1000
1000
,
0001
0100
0010
1000
,
0001
0100
1000
0100
,
0001
1000
0010
0100
,
0101
1001
2200
3300
,
0001
0010
1000
0010
,
0001
0100
1000
0100
,
0010
1000
0001
0010
,
0100
0100
0010
0001
,
1000
0010
0001
0010
,
1000
0100
0001
0100
,
0010
0001
1000
0010
,
0220
0000
0330
0000
,
1001
0001
0100
1000
,
0100
1000
0100
0001
,
0110
0001
0010
1000
,
0010
0001
0220
0330
,
1001
0000
1010
0100
,
0011
0000
0011
0100
,
1010
0101
0011
1100
,
2002
0000
0000
0000
0000
0000
0000
0000
0000
0000
0000
0000
0000
0000
0000
3003
;
