#VERSION:0.83;
#TITLE:Xperanza;
#SUBTITLE:;
#ARTIST:aran;
#TITLETRANSLIT:;
#SUBTITLETRANSLIT:;
#ARTISTTRANSLIT:;
#GENRE:Hybrid Hardcore;
#ORIGIN:;
#CREDIT:;
#BANNER:Xperanza.png;
#BACKGROUND:Xperanza-bg.png;
#PREVIEWVID:;
#JACKET:Xperanza-jacket.png;
#CDIMAGE:;
#DISCIMAGE:;
#LYRICSPATH:;
#CDTITLE:cdtitle.png;
#MUSIC:Xperanza.ogg;
#OFFSET:-1.940793;
#SAMPLESTART:73.940796;
#SAMPLELENGTH:19.199997;
#SELECTABLE:YES;
#DISPLAYBPM:100.000000:200.000000;
#BPMS:0.000=100.000,
16.000=200.000,
63.000=400.000,
63.500=200.000,
63.750=100.000,
88.000=200.000,
104.000=100.000,
128.000=200.000,
158.000=100.000,
159.000=200.000,
239.000=100.000,
247.000=200.000;
#STOPS:259.000=0.150,
259.250=0.150,
259.500=0.150,
259.750=0.150;
#DELAYS:;
#WARPS:;
#TIMESIGNATURES:0.000=4=4;
#TICKCOUNTS:0.000=4;
#COMBOS:0.000=1;
#SPEEDS:0.000=1.000=0.000=0;
#SCROLLS:0.000=1.000;
#FAKES:;
#LABELS:0.000=Song Start;
#BGCHANGES:;
#KEYSOUNDS:;
#ATTACKS:
;

//---------------dance-single - ----------------
#NOTEDATA:;
#CHARTNAME:;
#STEPSTYPE:dance-single;
#DESCRIPTION:;
#CHARTSTYLE:;
#DIFFICULTY:Challenge;
#METER:18;
#RADARVALUES:1.078089,1.211914,0.951390,0.451507,0.991704,936.000000,818.000000,118.000000,56.000000,0.000000,0.000000,0.000000,0.000000,0.000000,1.078089,1.211914,0.951390,0.451507,0.991704,936.000000,818.000000,118.000000,56.000000,0.000000,0.000000,0.000000,0.000000,0.000000;
#CREDIT:;
#OFFSET:-1.940793;
#BPMS:0.000000=100.000000
,16.000000=200.000000
,63.000000=400.000000
,63.500000=200.000000
,63.750000=100.000000
,88.000000=200.000000
,104.000000=100.000000
,128.000000=200.000000
,158.000000=100.000000
,159.000000=200.000000
,239.000000=100.000000
,247.000000=200.000000
;
#STOPS:259.000000=0.150000
,259.250000=0.150000
,259.500000=0.150000
,259.750000=0.150000
;
#DELAYS:;
#WARPS:;
#TIMESIGNATURES:0.000000=4=4
;
#TICKCOUNTS:0.000000=4
;
#COMBOS:0.000000=1
;
#SPEEDS:0.000000=1.000000=0.000000=0
;
#SCROLLS:0.000000=1.000000
;
#FAKES:;
#LABELS:0.000000=Song Start
;
#DISPLAYBPM:100.000000:200.000000;
#NOTES:
0000
0000
0000
0000
,
0000
0000
0000
0000
,
0001
0000
0100
0000
0000
0001
1000
0001
0000
0010
0000
0001
0000
1000
0000
0000
,
0001
0000
0100
0000
0001
0000
1000
0100
0000
1000
0100
1000
0000
0001
0200
0300
,
1001
0000
0100
0000
0000
1000
0001
1000
,
0000
0010
0000
0001
0000
0010
0000
2010
,
0000
3000
0001
0010
0100
1000
0000
0100
,
0000
0001
0000
0100
0000
1000
1100
0000
,
0011
0001
0100
0010
1010
1000
0001
0010
,
1100
1000
0010
0100
0101
0001
1000
0100
,
0010
0001
0010
0001
1000
0010
1000
0010
0100
0001
1000
0100
1000
0001
0100
0001
,
1000
0100
0100
0100
0000
0100
0010
0001
,
1001
0000
1000
0010
1000
0010
1000
0010
0100
0010
1000
0010
1000
0010
1000
0010
,
0100
0000
0001
0010
0001
0010
0001
0010
0100
0010
0001
0010
0001
0010
0001
0010
,
0100
0000
0010
0001
1000
0010
1000
0001
0010
0100
1000
0001
0100
0001
1000
0100
,
0010
0001
0010
0001
1000
0010
1000
0010
0100
0001
1000
0001
0100
0000
0000
0000
,
1001
0000
0001
1000
1100
0000
0100
1000
0001
0001
1000
0010
1010
0000
0100
0001
,
1000
0100
0010
0000
0011
0000
0010
0001
0100
1000
0100
0001
0010
0100
0100
0100
,
1000
0010
0001
0010
0000
0001
0010
1000
0100
0010
0100
0001
0100
0010
0100
1000
,
1002
0000
0000
0000
0103
0000
0000
0000
2001
0000
0000
0000
3100
0000
1000
0000
1002
0000
0000
0000
0103
0000
2001
0000
0000
0000
3001
0000
1000
0010
0100
0001
,
0010
0000
0000
0000
0000
0000
0100
0000
0000
0010
0000
0000
0012
0000
0000
0000
0000
0000
0103
0000
0000
0010
0000
0000
1000
0000
0000
0010
0000
0000
1000
0000
0000
0000
0000
0000
0001
0000
0010
0000
0010
0000
1000
0000
0010
0000
0010
0000
,
0001
0000
0100
0000
0001
0000
1000
0000
1200
0000
0000
0000
0310
0000
0001
0000
1000
0000
0010
1000
0002
0000
0003
0000
1001
0000
0010
0000
1001
0000
0001
1000
,
0001
0000
0010
0000
0220
0000
0330
0000
0010
0000
0001
0000
1000
0000
0001
0100
,
0020
0000
0130
0000
0001
0000
0001
0000
1000
0000
0001
0000
0010
0100
1000
0001
,
0010
0100
0010
0100
0010
0001
1000
0001
0100
0010
0100
0010
0100
0001
1000
0001
,
0010
0001
1000
0001
0100
0001
1000
0001
0010
0100
0010
0100
1000
0001
0100
0010
,
1000
0000
0200
0000
0000
1300
1100
0000
0001
0010
1000
0010
0001
0100
0010
2000
,
0000
3100
0010
0100
1001
0010
0100
0010
0100
0000
1000
0000
0110
0000
1001
1000
,
0001
0000
0100
0000
1010
0100
0001
0101
0000
0001
0010
0100
1100
0000
0010
0010
,
1001
0000
0110
0000
1001
0100
0010
1001
0000
1010
0001
0001
0010
0001
0100
0010
,
2020
0030
0200
3000
,
0020
0000
0000
0000
0000
0000
0000
0000
0300
0000
0000
0000
0000
0000
0000
0000
0031
0000
0010
0001
0020
0000
0030
0000
0001
0000
0010
0000
0001
0000
2000
0000
,
3001
0100
0020
0130
0001
1000
0100
0020
,
0130
0000
1000
0001
0200
0000
0301
0000
1000
0000
0100
0000
0010
0001
1000
0001
,
0010
0001
1000
0001
0100
0000
0100
0000
0001
0000
0001
0000
1000
0000
0200
0000
,
0310
0000
0200
0000
0310
0000
0100
1000
0001
0000
0100
0000
0010
0100
0010
1000
,
0002
0000
1003
0100
0010
0000
0002
0000
0013
0001
0100
0010
1000
0000
1000
0000
,
0001
0000
0001
0000
1000
0010
0100
0001
1000
0100
0010
0001
1000
0001
0100
0000
,
0100
0000
0010
1000
0100
0000
0010
0000
0100
1000
0010
0000
0100
0000
0010
1000
,
0100
0000
0000
0000
0000
0000
0010
0000
0000
0001
0000
0000
0100
0000
0000
0000
0000
0000
0010
0000
0000
1000
0000
0000
0001
0000
0010
0000
0100
0000
1000
0000
0100
0000
0010
0000
0011
0000
0000
0000
0000
0000
1000
0000
0000
0010
0000
0000
,
1000
0010
1000
0010
0100
0000
0001
0010
0001
0010
0001
0010
0100
0000
1000
0010
,
1000
0010
1000
0010
0100
0000
0001
0010
0001
0010
0001
0010
0100
1000
0001
0100
,
0010
1000
0001
0010
0100
1000
0010
0100
0001
0010
0100
1000
0001
0000
0100
0010
,
0100
0010
0100
0010
1000
0010
0100
0001
1000
0100
1000
0100
0010
0000
0001
0000
,
0011
0000
1001
0000
0101
0000
1000
0000
1010
0000
1001
0000
1100
0000
0010
0100
,
0010
1100
1001
0001
0101
0110
0101
1000
,
0100
0000
0100
0000
1100
0000
0110
0000
1100
0000
0001
0000
0101
0000
0010
0100
,
0010
0000
0101
0000
1001
0000
1000
0000
0001
0010
0100
1000
0001
0000
1000
0000
,
1100
0000
1001
0000
1010
0000
0001
0000
0101
0000
1001
0000
0011
0000
0100
0010
,
0100
0011
1001
1000
1010
0110
0101
1000
,
0001
0000
0001
0000
0011
0000
0110
0000
1100
0000
0001
0000
1010
0000
0100
0010
,
0100
0000
1010
0000
0001
0000
0011
0000
0100
1000
0001
0100
0010
0000
0110
0000
,
0110
0020
2030
0100
3100
0020
0032
0100
,
0103
0000
0000
0010
0000
0000
1000
0000
0100
0000
0100
0000
0001
0000
0100
0000
0100
0000
1000
0000
0000
0010
0000
0000
,
0001
0000
0020
0000
2030
0000
0001
0000
3001
0000
0020
0000
0032
0000
0013
0001
,
2000
0000
3001
0000
0100
0000
0100
0000
0010
0100
0001
1000
0100
0000
0010
0000
,
0021
0000
0031
0000
0100
0000
0010
0000
1010
0000
1000
0001
0020
0000
0130
0000
,
0110
0000
0001
0000
1000
0000
0010
0000
0100
0010
1000
0001
0010
0100
0010
0100
,
0010
0001
1000
0001
0100
0010
0100
0010
0100
0001
1000
0001
0010
0001
1000
0001
,
0100
0001
1000
0001
0010
0100
0010
0100
1000
0010
0100
0001
0010
0000
0100
0000
,
0000
0100
0010
0100
0000
0011
0000
0100
0000
1010
0000
0002
0000
0000
0103
0001
,
1000
0100
0000
0010
0000
0100
0010
0100
0000
0100
1000
0001
0101
0000
0100
0000
,
0010
0000
1000
0000
1100
0000
0010
0000
0001
0000
1000
0010
1000
0000
0010
0000
,
0100
0000
0001
0000
0011
0000
0010
0000
0100
0000
0010
0001
1000
0010
1000
0010
,
0100
0001
0100
0001
1000
0100
0010
0001
1000
0001
0010
0100
1000
0101
1010
0011
,
1001
2000
3002
0103
0110
0110
0001
1000
,
1100
1000
0001
1000
1010
1000
0001
1000
,
1100
0010
0001
0100
0101
0010
1000
0100
,
1100
0002
0100
2003
0100
3002
0010
1003
,
0101
0000
1000
0001
0011
0001
1000
0001
,
0101
0001
1000
0001
0011
0001
1000
0001
,
0101
0000
1010
0001
0011
1000
1100
0001
,
0101
1001
0000
0001
0001
1000
0001
0010
,
0100
1000
0001
0100
0020
0000
1000
0000
0130
0000
0001
0000
0021
0000
0001
0000
,
0130
1000
1010
0100
0011
0100
2020
3030
,
0001
1000
1200
1000
0310
0001
0201
0001
,
0310
1000
1100
0010
0202
0303
1001
0100
,
0010
0100
1001
0000
0001
1000
1010
1001
,
0011
0210
0000
1300
1010
0210
0000
0301
,
0100
0001
0100
0001
1000
0000
0100
0000
0010
0000
0100
0000
1001
0000
1000
0100
,
0010
0001
0100
0010
1000
0000
0100
0000
0010
0000
0022
0000
0000
0000
0000
0000
,
0000
0033
0000
0000
;

//---------------dance-single - ----------------
#NOTEDATA:;
#CHARTNAME:;
#STEPSTYPE:dance-single;
#DESCRIPTION:;
#CHARTSTYLE:;
#DIFFICULTY:Hard;
#METER:16;
#RADARVALUES:0.841969,1.080896,0.653073,0.782075,0.616791,731.000000,650.000000,81.000000,97.000000,0.000000,0.000000,16.000000,0.000000,0.000000,0.841969,1.080896,0.653073,0.782075,0.616791,731.000000,650.000000,81.000000,97.000000,0.000000,0.000000,16.000000,0.000000,0.000000;
#CREDIT:;
#DISPLAYBPM:100.000000:200.000000;
#NOTES:
// measure 0
0000
0000
0000
0000
,  // measure 1
0000
0000
0000
0000
,  // measure 2
1000
0000
0100
0000
0000
1000
0001
1000
0000
0010
0000
1000
0000
0001
0000
0000
,  // measure 3
1000
0000
0100
0000
1000
0000
0001
0100
0000
0001
0100
0001
0000
1000
0200
0300
,  // measure 4
1001
0000
0100
0000
0000
0001
1000
0001
,  // measure 5
0000
0010
0000
1000
0000
0010
0000
0012
,  // measure 6
0000
0003
1000
0010
0100
0001
0000
0100
,  // measure 7
0000
1000
0000
0100
0000
0001
0101
0000
,  // measure 8
1010
1000
0001
0000
0011
0001
1000
0000
,  // measure 9
1100
1000
0001
0000
0101
0001
1000
0000
,  // measure 10
1001
0010
0001
0100
1000
0100
0001
0010
,  // measure 11
1001
0010
0010
0010
0000
0010
0010
0000
,  // measure 12
1001
0000
4000
0040
0000
0000
0000
0000
0000
0000
0000
0000
0000
0000
0000
0000
,  // measure 13
3030
0000
0004
0040
0000
0000
0000
0000
0000
0000
0000
0000
0000
0000
0000
0000
,  // measure 14
0033
0000
4000
0040
0000
0000
0000
0000
3030
0000
0004
0040
0000
0000
0000
0000
,  // measure 15
0033
0000
1000
0000
0010
0000
0100
0000
0001
1000
0001
1000
0001
0000
0000
0000
,  // measure 16
1001
0000
0100
0001
1001
0000
0100
1000
0001
0001
0100
0010
1010
0000
1000
0001
,  // measure 17
0010
0100
0010
0000
0120
0000
0031
1000
0010
0100
0001
1000
0100
0010
0010
0010
,  // measure 18
0001
0100
1000
0100
0000
1000
0100
0001
0000
0011
0000
1010
0000
0011
0000
0001
,  // measure 19
0102
0000
0000
0000
0013
0000
0000
0000
2100
0000
0000
0000
3010
0000
0100
0000
0102
0000
0000
0000
0013
0000
2100
0000
0000
0000
3010
0000
0100
0001
0100
0001
,  // measure 20
1000
0000
0000
0000
0000
0000
0001
0000
0000
2000
0000
0000
3200
0000
0000
0000
0000
0000
0301
0000
0000
0200
0000
0000
2300
0000
0000
0000
0000
0000
3001
0000
0000
0100
0000
0000
0010
0000
1000
0000
0010
0000
1000
0000
0010
0000
1000
0000
,  // measure 21
0001
0000
0000
0000
0010
0000
0002
0000
0203
0000
0000
0000
1300
0000
0100
0000
0001
0000
0100
0001
0200
0000
0000
0000
0301
0000
0010
0000
0100
0000
0010
0100
,  // measure 22
0010
0000
0001
0000
2002
0000
3003
0000
0010
0000
1000
0000
0010
0000
1000
0001
,  // measure 23
2000
0000
3000
0000
0001
0000
0010
0000
0100
0000
1000
0000
0001
0010
0001
0010
,  // measure 24
0002
0000
0003
0000
1000
0010
1000
0010
2000
0000
3000
0000
0001
0010
0001
0010
,  // measure 25
0001
0000
1000
0010
1000
0000
0001
0010
0001
0000
1000
0010
1000
0000
0000
0000
,  // measure 26
0001
0000
0100
0000
0000
0001
0100
0001
0000
0011
0000
1100
0000
0011
0000
2000
,  // measure 27
0010
3000
0010
1000
0100
0010
0000
0110
0000
0001
0100
0001
0010
0001
0100
0010
,  // measure 28
1000
0000
0100
0000
1000
0100
1000
0001
0000
0101
0000
1010
0000
0101
0000
0001
,  // measure 29
0021
0000
0130
0000
1020
0000
0130
0001
0000
0011
0100
0011
0000
1010
0100
0010
,  // measure 30
2020
0030
0200
3000
,  // measure 31
0020
0000
0000
0000
0000
0000
0000
0000
0300
0000
0000
0000
0000
0000
0000
0000
0031
0000
0010
0001
0020
0000
0030
0000
0001
0000
0010
0000
0001
0000
2000
0000
,  // measure 32
3001
0100
0020
1030
0100
1000
0010
0200
,  // measure 33
0301
0000
0010
0100
0020
0000
0031
0000
0100
0000
0010
0000
1000
0010
1000
0000
,  // measure 34
0001
0010
0001
0000
1000
0000
1000
0000
0001
0000
0001
0000
0100
0000
0020
0000
,  // measure 35
1030
0000
0002
0000
1003
0000
0100
0010
0100
0000
1000
0000
0010
0100
0010
0000
,  // measure 36
1000
0000
0001
0010
0001
0000
1000
0000
0001
0100
0001
0100
0001
0000
0010
0000
,  // measure 37
0001
0000
0100
0000
0010
1000
0010
0000
1000
0100
1000
0000
0100
0010
0100
0000
,  // measure 38
1000
0000
0001
0010
0001
0000
1000
0000
0001
0100
0001
0000
1000
0000
0001
0010
,  // measure 39
0001
0000
1000
0010
1000
0000
0001
0010
0002
0000
0003
0000
1001
0000
4000
0040
,  // measure 40
0000
0000
0000
0000
3030
0000
0004
0040
0000
0000
0000
0000
0033
0000
4000
0040
,  // measure 41
0000
0000
0000
0000
3030
0000
0004
0040
0000
0000
0000
0000
0033
0000
1000
0010
,  // measure 42
1000
0000
0001
0010
0001
0000
1000
0010
1000
0000
0001
0010
0002
0000
0000
0000
,  // measure 43
0013
0000
0001
0000
0100
0000
0010
0000
1000
0001
0100
0010
2000
0000
0000
0000
,  // measure 44
3001
0000
0010
0000
0012
0000
0000
0000
1003
0000
0010
0000
0010
0000
0100
0010
,  // measure 45
1000
0010
2010
0000
3001
0010
0012
0000
,  // measure 46
0013
0000
0001
0000
0100
0000
0010
0000
2010
0000
0000
0000
3001
0000
0010
0001
,  // measure 47
0100
0000
0010
0000
2002
0000
3003
0000
0001
0100
0010
1000
0002
0000
0000
0000
,  // measure 48
1003
0000
0100
0000
2100
0000
0000
0000
3001
0000
0100
0000
0100
0000
0001
0100
,  // measure 49
0010
0100
0102
0000
1003
0100
2100
0000
,  // measure 50
3100
0000
1000
0000
0010
0000
0100
0000
0101
0000
0000
0000
1100
0000
0010
0100
,  // measure 51
0010
0000
0011
0000
0000
0000
1001
0000
1000
0001
1000
0001
0100
0000
0000
0000
,  // measure 52
0110
0010
1000
0000
0110
0100
0001
0000
,  // measure 53
0110
0000
0000
0010
0000
0000
1000
0000
0001
0000
1000
0000
0001
0000
1000
0000
0001
0000
0010
0000
0000
0000
0000
0000
,  // measure 54
0110
0000
0010
0000
0001
0000
0000
0000
0110
0000
0100
0000
1000
0000
0001
1000
,  // measure 55
0002
0000
0003
0000
1000
0000
0010
0000
1000
0000
0001
0010
0001
0000
0010
0000
,  // measure 56
0220
0000
0330
0000
0010
0000
0001
0000
0100
0000
0010
1000
0020
0000
1030
0000
,  // measure 57
0100
0000
0001
0000
0100
0000
1000
0000
0001
0100
0010
0100
0002
0000
0003
0000
,  // measure 58
1000
0100
0010
0100
2000
0000
3000
0000
0001
0100
0010
0100
0001
0000
1000
0100
,  // measure 59
0010
0000
0001
0100
0010
0000
1000
0000
0100
0010
0100
0010
0200
0000
1000
0000
,  // measure 60
0000
0001
0000
1000
0000
0001
0320
0001
,  // measure 61
0000
1000
0000
0001
0000
0130
1100
1000
,  // measure 62
0001
0000
0101
0001
1000
0000
1010
1000
,  // measure 63
0001
0000
0000
0000
0011
0000
0001
0000
1000
0000
0000
0000
1001
0000
0001
0100
,  // measure 64
0001
0000
1000
0100
1000
0000
0001
0100
0001
0000
1000
0000
1001
0101
1010
1100
,  // measure 65
0011
0002
2003
3010
0110
0100
0001
1000
,  // measure 66
1001
1000
0100
0010
0110
0010
0100
1000
,  // measure 67
1001
0001
0100
0010
1010
1000
0100
0010
,  // measure 68
0011
0002
0100
0203
0010
0320
1000
0130
,  // measure 69
0101
0000
1000
0100
0110
0010
0001
0100
,  // measure 70
0110
0010
1000
0100
1100
0010
0001
0100
,  // measure 71
0101
0010
2000
0100
3002
0010
2003
0100
,  // measure 72
3001
0011
0000
0001
0001
0001
1000
0100
,  // measure 73
0010
0001
0010
0001
2000
0000
3010
0000
0200
0000
2300
0000
3200
0000
0301
0000
,  // measure 74
0020
0230
0302
0203
0302
0203
0320
0031
,  // measure 75
2000
3020
0032
0013
2000
3200
0302
0103
,  // measure 76
2000
3020
0032
0023
2030
3001
2000
3200
,  // measure 77
0320
0032
2003
3001
0200
0320
2030
3100
,  // measure 78
0011
1002
0000
0103
1010
1002
0000
2003
,  // measure 79
3100
0010
0100
0010
0100
0000
0000
0000
0010
0000
0001
0000
0100
0000
0010
1000
,  // measure 80
0100
0010
0001
0100
0010
2002
0000
0000
,  // measure 81
0000
3003
0000
0000
;

//---------------dance-single - ----------------
#NOTEDATA:;
#CHARTNAME:;
#STEPSTYPE:dance-single;
#DESCRIPTION:;
#CHARTSTYLE:;
#DIFFICULTY:Medium;
#METER:13;
#RADARVALUES:0.612760,0.786106,0.322505,0.443445,0.193503,532.000000,492.000000,40.000000,55.000000,0.000000,0.000000,0.000000,0.000000,0.000000,0.612760,0.786106,0.322505,0.443445,0.193503,532.000000,492.000000,40.000000,55.000000,0.000000,0.000000,0.000000,0.000000,0.000000;
#CREDIT:;
#OFFSET:-1.940793;
#BPMS:0.000000=100.000000
,16.000000=200.000000
,64.000000=100.000000
,88.000000=200.000000
,104.000000=100.000000
,128.000000=200.000000
,158.000000=100.000000
,159.000000=200.000000
,239.000000=100.000000
,247.000000=200.000000
;
#STOPS:259.000000=0.150000
,259.250000=0.150000
,259.500000=0.150000
,259.750000=0.150000
;
#DELAYS:;
#WARPS:;
#TIMESIGNATURES:0.000000=4=4
;
#TICKCOUNTS:0.000000=4
;
#COMBOS:0.000000=1
;
#SPEEDS:0.000000=1.000000=0.000000=0
;
#SCROLLS:0.000000=1.000000
;
#FAKES:;
#LABELS:0.000000=Song Start
;
#DISPLAYBPM:100.000000:200.000000;
#NOTES:
0000
0000
0000
0000
,
0000
0000
0000
0000
,
1000
0000
0100
0000
0000
1000
0100
1000
0000
0010
0000
0100
0000
0001
0000
0000
,
0001
0000
0100
0000
0001
0000
1000
0100
0000
1000
0100
1000
0000
0001
0200
0300
,
1001
0000
0100
0000
0000
0001
1000
0001
,
0000
0010
0000
0100
0000
0010
0000
0002
,
0000
0003
1000
0010
1000
0100
0000
1000
,
0000
0001
0000
0100
0000
0010
1000
0000
,
1010
0001
0011
1000
,
1100
0001
0101
1000
,
0011
1010
0011
1010
,
0001
0010
0001
0010
0000
0100
0010
0001
,
1000
0000
0010
0100
0010
0100
0010
0100
,
0001
0000
0010
0100
0010
0100
0010
0100
,
1000
0000
0010
0100
0001
0000
0010
0100
,
1000
0000
0001
0100
0001
0100
0010
0000
,
2010
0000
3002
0000
0023
0000
0032
0000
1003
0010
1000
0010
0100
0000
0001
0000
,
0010
0100
0010
0000
0220
0000
0330
0000
0001
0010
0001
0000
1000
0010
1000
0000
,
0002
0000
0023
0000
2030
0000
3020
0000
0031
0100
0000
1000
0000
0100
0001
0000
,
0101
0000
1000
0000
1100
0000
0001
1000
0001
0000
0000
0110
0000
0000
1001
0000
,
0010
0000
0000
1000
0200
0000
0000
0301
0200
0000
1000
0000
0310
0000
0010
0000
,
0001
0000
0000
0001
0200
0000
0000
1300
0100
0010
0100
0000
0001
0100
0001
0000
,
1000
0100
0020
0000
0031
0100
0001
0100
,
0020
0000
1030
0100
1000
0100
0010
0001
,
0100
0000
0010
1000
0100
0000
0010
0001
,
0200
0001
1000
0301
,
0102
0000
2003
0000
3000
1000
0100
1000
0100
0000
0010
0000
0011
0000
0001
0200
,
0000
0000
0310
1000
0100
0000
0010
0001
0000
1000
0000
0100
0000
0100
0000
0010
,
0001
0000
1000
0000
0000
0001
0100
0001
0100
0000
0010
0000
1010
0000
0001
1000
,
0001
0000
0010
0000
0011
0000
1000
0001
0000
1000
0010
1000
0000
1000
0100
0010
,
0002
0000
0200
0003
,
0020
0000
0000
0000
0300
0000
0000
0000
1000
1000
1030
0000
0010
1000
0001
0000
,
1000
1000
0100
0100
,
0001
0001
0010
0010
,
1000
0100
1000
0010
,
0001
0100
1000
0010
,
1000
0000
0001
0010
0000
1000
0010
0000
,
0001
0100
0001
0100
0010
1000
0100
0000
,
0010
0001
0100
0001
0010
0001
0100
0010
,
1000
0100
0010
0001
0200
0300
1001
0000
,
0001
0100
1000
0000
1000
0100
0001
0000
,
0001
0100
1000
0000
1000
0100
0001
0000
,
0101
1010
0101
2000
,
3100
0010
0100
0000
1000
0001
0200
0000
,
0301
0000
1000
0000
0200
0000
0000
0000
1300
0000
0001
0000
0100
0000
0000
0001
,
0000
1000
0200
0000
0310
0001
0200
0000
,
0310
0000
1000
0000
0010
0000
1000
0000
0200
0000
0000
0000
0310
0000
0000
0001
,
0000
0100
0020
0000
1030
0100
0020
0000
,
0130
0000
1000
0000
0020
0000
0000
0000
1030
0000
0100
0000
0010
0000
0000
0100
,
0000
1000
0020
0000
0130
0001
0020
0000
,
0130
0000
0010
0000
0001
0000
0100
0000
0020
0000
0000
0000
0130
0000
0000
0001
,
0000
0010
0200
0000
0310
0100
1001
0000
,
1000
0010
0200
0000
1300
0100
0020
0000
,
1030
0000
0010
1000
0100
0010
0001
0000
,
0001
0010
0200
0000
0301
0100
0010
0001
,
1000
0000
0001
0100
1000
0100
0001
0000
,
1010
0000
0010
1000
0100
0000
0011
0000
,
0010
0001
0100
0010
1000
0000
0010
1000
,
0100
0000
0010
0001
0100
0000
0010
1000
,
0100
0010
0001
0100
0010
1000
1002
0100
,
0000
1000
0000
0100
0000
0010
2003
0100
,
0000
0001
0000
0100
0000
3010
1000
0100
,
0001
0000
0001
0100
1000
0000
1000
0100
,
0001
0000
0001
0100
1000
0000
1000
0010
,
0100
0001
0010
0001
0100
0010
2000
0000
,
3000
0000
0010
0000
1001
0000
1000
0100
,
0010
0001
0000
0110
0000
0001
0000
1100
,
0000
0001
0100
0000
0010
0100
0010
1000
,
0000
0101
0000
0010
0000
1100
0000
0010
,
0001
0000
1001
0000
0110
0000
0001
0100
,
0010
1000
0000
0110
0000
1000
0000
0011
,
0000
1000
0100
0000
1001
0000
0110
0000
,
0001
0100
0000
0100
0010
0100
0000
0001
,
1000
0100
0020
0000
0130
1000
0002
0000
,
1003
0010
0100
0010
0100
0010
0002
0000
,
0013
1000
0200
0000
0310
0001
0200
0000
,
0310
1000
0001
1000
0200
0000
0301
0100
,
0001
0100
0020
0000
0130
1000
0001
0100
,
0010
2010
0000
3100
0010
0012
0000
1003
,
0001
0200
0000
0301
1000
0001
1000
0100
,
0010
0001
0100
0010
0100
2000
0000
0000
,
0000
3000
0000
0000
;

//---------------dance-single - ----------------
#NOTEDATA:;
#CHARTNAME:;
#STEPSTYPE:dance-single;
#DESCRIPTION:;
#CHARTSTYLE:;
#DIFFICULTY:Easy;
#METER:9;
#RADARVALUES:0.445748,0.692076,0.475695,0.572447,0.004031,387.000000,328.000000,59.000000,71.000000,0.000000,0.000000,0.000000,0.000000,0.000000,0.445748,0.692076,0.475695,0.572447,0.004031,387.000000,328.000000,59.000000,71.000000,0.000000,0.000000,0.000000,0.000000,0.000000;
#CREDIT:;
#OFFSET:-1.940793;
#BPMS:0.000000=100.000000
,16.000000=200.000000
,64.000000=100.000000
,88.000000=200.000000
,104.000000=100.000000
,128.000000=200.000000
,158.000000=100.000000
,159.000000=200.000000
,239.000000=100.000000
,247.000000=200.000000
;
#STOPS:;
#DELAYS:;
#WARPS:;
#TIMESIGNATURES:0.000000=4=4
;
#TICKCOUNTS:0.000000=4
;
#COMBOS:0.000000=1
;
#SPEEDS:0.000000=1.000000=0.000000=0
;
#SCROLLS:0.000000=1.000000
;
#FAKES:;
#LABELS:0.000000=Song Start
;
#DISPLAYBPM:100.000000:200.000000;
#NOTES:
0000
0000
0000
0000
,
0000
0000
0000
0000
,
0002
0103
2000
3100
,
0002
0013
2000
3010
,
1002
0000
0103
0000
,
0100
0001
0010
0000
,
2001
0000
3100
0000
,
0100
1000
0010
0000
,
1002
0013
2001
3010
,
1002
0103
2001
3100
,
1100
0011
1100
0011
,
2200
0000
0000
3300
,
1002
0100
1000
0103
,
2001
0100
0001
3100
,
0012
1003
2010
3001
,
2002
0000
3003
0000
0001
1000
0001
0000
,
1002
0000
0023
0000
0130
0100
0011
1000
,
1000
0000
0020
0000
0130
0100
1010
0001
,
0002
0023
0230
2300
3010
0001
0010
1000
,
2010
0000
0100
0000
3001
0000
0011
0000
0012
0000
0000
0100
0000
0000
1003
0000
,
0010
0000
0210
0000
0001
0000
1000
0010
,
0301
0000
0201
0000
1000
1000
0001
0310
,
1000
0010
2000
0000
3001
0000
0001
0010
,
0002
1003
0010
1001
,
0010
1001
0010
1001
,
0200
0000
0000
0300
,
2002
0000
3003
1000
0100
0001
0100
1000
,
0020
0000
0130
0000
0010
0010
1001
1000
,
0001
0000
0010
0001
0100
0000
0010
1000
,
0101
0001
1100
1000
0001
0100
0010
1000
,
0200
0000
0000
0000
,
0000
0000
0000
0000
,
0310
0001
0010
0001
,
1000
0010
1000
0010
,
0100
0001
1000
0001
,
0010
0001
1000
0001
,
0100
0000
0010
0100
0010
0000
1000
0000
,
0100
0000
0010
0100
0010
0000
0001
0000
,
0100
1000
0100
0001
,
0100
0000
0010
0000
2000
3000
1002
0000
,
0103
2001
3100
1002
,
0013
2001
3010
0101
,
1010
1100
0011
2002
,
0000
0000
3000
0000
1003
0001
2000
0000
,
0100
3002
0100
1003
,
1000
0001
2000
0000
0100
0000
3002
0000
,
0100
0000
1003
0001
2000
0000
0100
0000
,
3001
1000
0002
0000
0103
0000
0002
0000
,
0010
2003
0010
3001
,
0001
1000
0002
0000
0010
0000
2003
0000
,
0010
0000
3001
1000
0002
0000
0010
0000
,
1003
2002
3003
1000
,
0100
0020
0100
0032
,
0010
0000
0103
0001
0100
0000
0001
0000
,
0100
0020
0100
2030
,
0010
0000
3100
0000
0010
0000
0001
0010
,
0002
0000
1003
0000
1000
0010
2000
0000
,
3001
0010
1001
0010
,
1001
0010
1001
0100
,
0100
0100
0100
1002
,
0000
0003
0200
0000
0000
0300
0020
0000
,
0000
0030
2000
0000
0000
3000
1010
0000
,
0001
0011
1000
1100
,
0001
0101
1000
1001
,
0110
1001
0110
2002
,
0000
0000
3003
0001
,
0010
0100
0001
0100
,
0010
0001
1000
0010
,
0100
1000
0100
0010
,
1000
0000
0001
1000
0001
0000
1000
0000
,
0100
0010
1000
0010
,
0001
0100
0010
0001
,
0010
1000
0100
0220
,
0330
0001
0100
0010
,
1000
0100
0001
0100
,
1000
0010
1000
0000
0001
0000
0010
0000
,
1000
0000
0010
0000
0001
0000
0100
0001
,
0100
0010
1000
1100
,
0010
0000
0101
0000
0000
0011
0000
0100
,
0000
1010
0000
0000
0001
0000
1000
0000
,
0100
0000
0010
0000
0001
0000
1000
0100
,
0010
0002
0000
0000
0000
0000
0003
0000
;

//---------------dance-single - ----------------
#NOTEDATA:;
#CHARTNAME:;
#STEPSTYPE:dance-single;
#DESCRIPTION:;
#CHARTSTYLE:;
#DIFFICULTY:Beginner;
#METER:5;
#RADARVALUES:0.290255,0.564384,0.314443,0.129002,0.000000,252.000000,213.000000,39.000000,16.000000,0.000000,0.000000,0.000000,0.000000,0.000000,0.290255,0.564384,0.314443,0.129002,0.000000,252.000000,213.000000,39.000000,16.000000,0.000000,0.000000,0.000000,0.000000,0.000000;
#CREDIT:;
#OFFSET:-1.940793;
#BPMS:0.000000=200.000000
;
#STOPS:;
#DELAYS:;
#WARPS:;
#TIMESIGNATURES:0.000000=4=4
;
#TICKCOUNTS:0.000000=4
;
#COMBOS:0.000000=1
;
#SPEEDS:0.000000=1.000000=0.000000=0
;
#SCROLLS:0.000000=1.000000
;
#FAKES:;
#LABELS:0.000000=Song Start
;
#DISPLAYBPM:100.000000:200.000000;
#NOTES:
0000
0000
0000
0000
,
0000
0000
0000
0000
,
0000
0000
0000
0000
,
0000
0000
0000
0000
,
1000
0000
0000
0000
,
0100
0000
0000
0000
,
0010
0000
0000
0000
,
0001
0000
0000
0000
,
1001
0000
0100
0000
,
0100
0000
0100
0000
,
1001
0000
0010
0000
,
0010
0000
0010
0000
,
1001
0000
1010
0000
,
1001
0000
0011
0000
,
0001
1000
0001
1000
,
0002
0000
0003
0000
,
1002
0000
0103
0000
,
2001
0000
3100
0000
,
1001
0000
0110
0000
,
2002
0000
3003
0000
,
0001
0000
0010
0000
,
0001
0001
0001
0000
,
1000
0000
0010
0000
,
1000
1000
1000
0000
,
0100
0010
0100
0000
,
0010
0010
0010
0000
,
0001
0000
1000
0000
,
1001
0000
1001
0000
,
0010
0000
2000
0000
,
0002
0000
3003
0000
,
0010
0000
0002
0000
,
2003
0000
3001
0000
,
1000
1000
1000
0000
,
0001
0001
0001
0000
,
0010
0000
0010
0000
,
0010
0100
0010
0000
,
2002
0000
3003
0000
,
0001
1000
0001
0000
,
0100
0000
0010
0000
,
0100
0100
0100
0000
,
0001
0000
1000
0000
,
0001
1000
0001
0000
,
0010
0100
0010
0000
,
0100
0000
0100
0000
,
1001
0000
0000
0000
,
0000
0000
0000
0000
,
0000
0000
0000
0000
,
0000
0000
0000
0000
,
1000
0000
0010
0000
,
0100
0000
0001
0000
,
0010
0000
0100
0000
,
1000
0000
0001
0000
,
0100
0100
0100
0000
,
0010
0010
0010
0000
,
0100
0010
0100
0010
,
0100
0010
0200
0300
,
1001
0000
1010
0000
,
1001
0000
0011
0000
,
0001
1000
0001
1000
,
0002
0000
0003
0000
,
1000
0000
1000
0000
,
1000
0010
1000
0000
,
0001
0010
0001
0000
,
0110
0000
1001
0000
,
0001
0000
0001
0000
,
0001
0100
0001
0000
,
1000
0100
1000
0000
,
0010
0010
0010
0000
,
1000
1000
0100
0000
,
0011
0000
1100
0000
,
0001
0001
0100
0000
,
1010
0000
0101
0000
,
1000
0100
0010
0000
,
0001
0100
0010
0000
,
1001
0000
1001
0000
,
1001
1001
1001
1001
,
1001
0000
0000
0000
,
0000
0000
0000
0000
,
0000
0000
0000
0000
,
0000
0000
0000
0000
,
0011
0000
1100
0000
,
1010
0000
0101
0000
,
1000
0001
1000
0001
,
2000
0000
0000
3000
,
0001
0010
0001
0000
,
0001
0100
0001
0000
,
0010
0000
0010
0000
,
0100
0010
0001
0000
,
1000
0010
1000
0000
,
1000
0100
1000
0000
,
0001
0100
0010
0000
,
0100
0000
0100
0100
,
0010
0000
1000
0000
,
0010
1000
0100
0000
,
0010
0000
0001
0000
,
0010
0001
0100
0000
,
0010
0010
0010
0000
,
1001
0000
0110
0000
,
1000
0001
1000
0001
,
1000
0000
0000
2002
0000
0000
0000
0000
,
3003
0000
0000
0000
;
