#VERSION:0.83;
#TITLE:X-Treme;
#SUBTITLE:;
#ARTIST:BanYa;
#TITLETRANSLIT:;
#SUBTITLETRANSLIT:;
#ARTISTTRANSLIT:;
#GENRE:Rock;
#ORIGIN:;
#CREDIT:;
#BANNER:X-Treme.png;
#BACKGROUND:X-Treme-bg.png;
#PREVIEWVID:;
#JACKET:X-Treme-jacket.png;
#CDIMAGE:;
#DISCIMAGE:;
#LYRICSPATH:;
#CDTITLE:cdtitle.png;
#MUSIC:X-Treme.ogg;
#OFFSET:1.395545;
#SAMPLESTART:19.346197;
#SAMPLELENGTH:11.831851;
#SELECTABLE:YES;
#BPMS:0.000=162.000,
161.000=81.000,
177.000=162.000;
#STOPS:52.000=1.111,
161.000=1.481,
177.000=1.111;
#DELAYS:;
#WARPS:;
#TIMESIGNATURES:0.000=4=4;
#TICKCOUNTS:0.000=4;
#COMBOS:0.000=1;
#SPEEDS:0.000=1.000=0.000=0;
#SCROLLS:0.000=1.000;
#FAKES:;
#LABELS:0.000=Song Start;
#BGCHANGES:3.771=X-Treme.avi=1.000=1=0=0=StretchNoLoop==CrossFade==,
99999=-nosongbg-=1.000=0=0=0 // don't automatically add -songbackground-
;
#KEYSOUNDS:;
#ATTACKS:
;

//---------------dance-single - ----------------
#NOTEDATA:;
#CHARTNAME:;
#STEPSTYPE:dance-single;
#DESCRIPTION:;
#CHARTSTYLE:;
#DIFFICULTY:Challenge;
#METER:16;
#RADARVALUES:0.885340,0.976745,0.506704,0.662613,0.998792,636.000000,584.000000,52.000000,68.000000,68.000000,0.000000,0.000000,0.000000,0.000000,0.885340,0.976745,0.506704,0.662613,0.998792,636.000000,584.000000,52.000000,68.000000,68.000000,0.000000,0.000000,0.000000,0.000000;
#CREDIT:;
#OFFSET:1.395545;
#BPMS:0.000000=162.000000
,161.000000=81.000000
,177.000000=162.000000
;
#STOPS:52.000000=1.111113
,161.000000=1.481478
,177.000000=1.111113
;
#DELAYS:;
#WARPS:;
#TIMESIGNATURES:0.000000=4=4
;
#TICKCOUNTS:0.000000=4
;
#COMBOS:0.000000=1
;
#SPEEDS:0.000000=1.000000=0.000000=0
;
#SCROLLS:0.000000=1.000000
,161.000000=0.000000
,161.500000=1.000000
,170.000000=1.500000
,177.000000=1.000000
;
#FAKES:;
#LABELS:0.000000=Song Start
;
#NOTES:
0000
0000
0000
0000
,
0000
0000
0000
0000
,
1000
0000
0010
0000
1010
0000
0100
0001
0000
0001
0010
0000
0011
0000
0100
0000
,
2000
3000
0010
0000
0210
0300
0010
1000
0002
1003
0010
0000
0210
0300
0010
0000
,
1000
0000
0100
0000
0011
0000
0001
0100
0000
0100
0010
0000
1010
0000
0100
0000
,
0002
0003
0010
0000
0210
0300
0010
0001
2000
3001
0010
0000
0210
0300
0010
0000
,
0001
0000
0100
0000
0101
0000
0010
1000
0000
1000
0100
0000
1100
0000
0010
0000
,
0002
0003
0100
0000
0120
0030
0100
0001
2000
3001
0100
0000
0120
0030
0100
0000
,
0001
0000
0010
0000
1100
0000
1000
0010
0000
0010
0100
0000
0101
0000
1000
0000
,
0200
0000
00M0
0000
03M0
0000
00M0
0000
10M0
0100
M00M
0100
0010
0001
0100
0010
,
1000
0000
1000
0000
1000
0000
1000
0000
1000
0000
0010
1000
0100
0000
1000
0000
,
0100
0000
0010
0001
0000
0001
0000
0100
0000
0010
1000
0100
0010
0000
0001
0000
,
1000
0000
1000
0000
1000
0000
1000
0000
1000
0000
0010
1000
0100
0000
0010
0001
,
0100
0000
0000
0000
2002
0000
0000
0000
3003
0000
0001
0100
0001
0000
0000
0000
,
0001
0010
0001
0000
1000
0010
1000
0000
0000
0000
1000
0100
1000
0000
0000
0000
,
1000
0010
1000
0000
0001
0010
0001
0000
0000
0000
0001
0100
0001
0000
0000
0000
,
0001
0010
0001
0000
1000
0010
1000
0000
0000
0000
1000
0100
1000
0000
0000
0000
,
0110
0000
0000
0000
2002
0000
0000
0000
3003
0000
1000
0010
1000
0000
0000
0000
,
1000
0100
1000
0000
0001
0100
0001
0000
0000
0000
0001
0010
0001
0000
0000
0000
,
0001
0100
0001
0000
1000
0100
1000
0000
0000
0000
1000
0010
1000
0000
0000
0000
,
1000
0100
1000
0000
0001
0100
0001
0100
0001
1000
0001
1000
0001
0010
0001
0010
,
0100
1000
0010
0100
0001
0000
0010
0000
0011
0000
0100
1000
0000
1000
0010
0000
,
1010
0000
0100
0000
0002
0003
0010
0000
0210
0300
0010
0001
2000
3001
0010
0000
,
0210
0300
0010
0000
0001
0000
0100
0000
1010
0000
1000
0100
0000
0100
0010
0000
,
0011
0000
0100
0000
2000
3000
0010
0000
0210
0300
0010
1000
0002
1003
0010
0000
,
0210
0300
0010
0000
1000
0000
0100
0000
1100
0000
0010
0001
0000
0001
0100
0000
,
0101
0000
0010
0000
2000
3000
0100
0000
0120
0030
0100
1000
0002
1003
0100
0000
,
0120
0030
0100
0000
1000
0000
0010
0000
0101
0000
0001
0010
0000
0010
0100
0000
,
1100
0000
0001
0000
0200
0000
00M0
0000
03M0
0000
00M0
0000
00M1
0100
M00M
0010
,
0000
1000
0100
0010
0001
0000
0100
0000
0101
0000
1000
0100
0000
0100
1000
0000
,
0011
0000
1000
0000
0002
0003
0100
0000
0210
0300
0010
1000
0002
1003
0100
0000
,
0210
0300
0010
0000
0001
0000
1000
0000
1010
0000
0100
0001
0000
0001
0010
0000
,
0011
0000
0100
0000
2000
3000
0100
0000
0210
0300
0010
0001
2000
3001
0100
0000
,
0210
0300
0010
0000
1000
0000
0100
0000
1100
0000
0001
0100
0000
0100
0001
0000
,
1010
0000
0001
0000
2000
3000
0100
0000
0210
0300
0010
0001
2000
3001
0100
0000
,
0210
0300
0010
0000
1000
0000
0001
0000
0011
0000
0100
1000
0000
1000
0010
0000
,
1010
0000
0001
0000
0020
0000
0M00
0000
0M30
0000
0M00
0000
0M01
0010
M00M
0100
,
0000
1000
0010
0100
0001
0000
0001
0000
0001
0000
0001
0000
0001
0000
0010
0001
,
0100
0000
0001
0000
0100
0000
0010
1000
0000
1000
0000
0100
0000
0010
0001
0100
,
0010
0000
1000
0000
0001
0000
0001
0000
0001
0000
0001
0000
0001
0000
0010
0001
,
0100
0000
0000
0000
0010
0000
1000
0000
0100
0000
0000
0000
0000
0000
0000
0000
1000
0100
1000
0000
0000
0000
0001
0100
0001
0000
0000
0000
0000
0000
0000
0000
,
0001
0010
0001
0000
0000
0000
1000
0010
1000
0000
0000
0000
0000
0000
0000
0000
0001
0100
0001
0000
0000
0000
0010
0001
0010
0000
0000
0000
0000
0000
0000
0000
,
0100
1000
0100
0000
0000
0000
1000
0010
1000
0000
0000
0000
0000
0000
0000
0000
0001
0000
0020
0000
0100
0000
0230
0000
1000
0000
2300
0000
0010
0000
3020
0000
,
0100
0000
0230
0000
0001
0000
0302
0000
0010
0000
0023
0000
0130
1000
0002
0000
1000
0000
2003
0000
0100
0000
3002
0000
0100
0000
2003
0000
0010
0000
3002
0000
,
0010
2003
0100
3001
M00M
0000
0000
0000
2200
0000
0000
0000
3300
0000
0001
0100
,
0001
0000
MMMM
0000
0001
0010
0001
0000
1000
0100
1000
0000
MMMM
0000
1000
0001
,
1000
0000
MMMM
0000
1010
0000
0000
0000
0202
0000
0000
0000
0303
0000
1000
0100
,
1000
0000
MMMM
0000
1000
0010
1000
0000
0001
0100
0001
0000
MMMM
0000
0001
1000
,
0001
0000
0010
0000
1000
0000
0010
0000
0022
0000
0000
0000
0033
0000
0010
0001
,
1000
0000
MMMM
0000
1000
0001
0100
0000
0010
1000
0001
0000
MMMM
0000
0001
1000
,
0100
0000
MMMM
0000
0011
0000
0000
0000
2020
0000
0000
0000
3030
0000
0010
1000
,
0001
0000
MMMM
0000
0001
1000
0100
0000
2200
0000
00M0
0000
33M0
0000
00M0
0000
,
10M0
0100
M00M
0010
0000
0001
0100
0010
1000
0100
1000
0001
1000
0100
1000
0001
,
1000
0100
1000
0001
1000
0100
1000
0001
1000
0010
1000
0001
1000
0010
1000
0001
,
1000
0010
1000
0001
0010
0100
1000
0010
0100
0001
1000
0001
0100
0001
1000
0001
,
0100
0001
1000
0001
0100
0001
1000
0001
0010
0001
1000
0001
0010
0001
1000
0001
,
0010
0001
1000
0001
0100
0010
0100
0001
1000
0100
1000
0001
1000
0010
1000
0001
,
1000
0100
1000
0001
1000
0010
1000
0001
0100
0001
1000
0001
0010
0001
1000
0001
,
0100
0001
1000
0001
0010
0100
1000
0010
0100
0001
1000
0100
1000
0001
0100
0001
,
1000
0100
1000
0001
0100
0001
1000
0100
0020
0000
0M00
0000
0M30
0000
0M00
0000
,
0M01
0010
M00M
0100
0000
1000
0001
0100
0020
0000
0000
0000
0030
0000
0000
0000
;

//---------------dance-single - ----------------
#NOTEDATA:;
#CHARTNAME:;
#STEPSTYPE:dance-single;
#DESCRIPTION:;
#CHARTSTYLE:;
#DIFFICULTY:Hard;
#METER:12;
#RADARVALUES:0.620852,0.947147,0.555426,0.136420,0.243608,446.000000,389.000000,57.000000,14.000000,15.000000,0.000000,0.000000,0.000000,0.000000,0.620852,0.947147,0.555426,0.136420,0.243608,446.000000,389.000000,57.000000,14.000000,15.000000,0.000000,0.000000,0.000000,0.000000;
#CREDIT:;
#OFFSET:1.395545;
#BPMS:0.000000=162.000000
,161.000000=81.000000
,177.000000=162.000000
;
#STOPS:52.000000=1.111113
,161.000000=1.481478
,177.000000=1.111113
;
#DELAYS:;
#WARPS:;
#TIMESIGNATURES:0.000000=4=4
;
#TICKCOUNTS:0.000000=4
;
#COMBOS:0.000000=1
;
#SPEEDS:0.000000=1.000000=0.000000=0
;
#SCROLLS:0.000000=1.000000
,161.000000=0.000000
,161.500000=1.000000
,170.000000=1.500000
,177.000000=1.000000
;
#FAKES:;
#LABELS:0.000000=Song Start
;
#NOTES:
0000
0000
0000
0000
,
0000
0000
0000
0000
,
0001
0000
0010
0000
0001
0000
0000
0001
0000
0000
0100
0000
0001
0000
0000
0000
,
1010
0011
1010
0011
,
1000
0000
0010
0000
1000
0000
0000
1000
0000
0000
0100
0000
1000
0000
0000
0000
,
0011
1010
0011
1010
,
0001
0000
0100
0000
0001
0000
0000
0001
0000
0000
0010
0000
0001
0000
0000
0000
,
1100
0101
1100
0101
,
1000
0000
0100
0000
1000
0000
0000
1000
0000
0000
0010
0000
1000
0000
0000
0000
,
2002
0000
0000
0000
3003
0000
0000
0000
1000
0001
0000
1000
0001
0000
1000
0000
,
0100
0000
0010
0000
0100
0000
0010
0000
0100
0000
0010
0002
0000
0000
1003
0000
,
0001
0100
0001
1000
0100
1000
0001
0000
,
0100
0010
0100
0010
0100
0010
1000
0001
,
0110
0000
1001
0000
1000
0100
0001
000M
,
1000
1000
0100
0100
1000
0100
0001
000M
,
1000
1000
0100
0100
1000
0100
0001
000M
,
1000
1000
0100
0100
1000
0100
0001
000M
,
0110
0000
1001
0000
0001
0100
1000
M000
,
0001
0001
0100
0100
0001
0100
1000
M000
,
0001
0001
0100
0100
0001
0100
1000
M000
,
0001
0001
0100
0010
1000
0100
0010
0001
,
0100
0000
0010
0000
1000
0000
0100
0000
1000
0000
0000
0010
0000
0000
1000
0000
,
0100
0011
1010
0011
,
1010
0000
0000
0000
0001
0000
0100
0000
0001
0000
0000
0010
0000
0000
0001
0000
,
0100
1010
0011
1010
,
0011
0000
0000
0000
1000
0000
0100
0000
0010
0000
0000
0100
0000
0000
1000
0000
,
0010
0101
1100
0101
,
1100
0000
0000
0000
0001
0000
0100
0000
0010
0000
0000
0100
0000
0000
0001
0000
,
0010
0000
0000
0000
2002
0000
0000
0000
3003
0000
0000
0000
1000
0001
0000
1000
,
0000
0001
1000
0000
0001
0000
0010
0000
0100
0000
0000
0001
0000
0000
0100
0000
,
0010
0011
1010
0011
,
1010
0000
0000
0000
1000
0000
0010
0000
0100
0000
0000
1000
0000
0000
0100
0000
,
0010
1010
0011
1010
,
0011
0000
0000
0000
0001
0000
0100
0000
0010
0000
0000
0001
0000
0000
0010
0000
,
0100
0101
1100
0101
,
1100
0000
0000
0000
1000
0000
0100
0000
0010
0000
0000
1000
0000
0000
0010
0000
,
0100
0000
0000
0000
2200
0000
0000
0000
3300
0000
0000
0000
0001
1000
0000
0001
,
0000
1000
0001
0000
0100
0000
0010
0000
0100
0000
0010
0000
0100
0000
0010
2000
,
0000
3001
1000
0100
1000
0001
0100
0001
,
1000
0000
0100
0010
0100
0010
0100
0010
,
0001
0000
1000
0000
0110
0000
0000
0000
1000
0100
0000
1000
0100
0000
1001
0000
,
0100
0001
0000
0100
0001
0000
0110
0000
0001
0010
0000
0001
0010
0000
1001
0000
,
0010
1000
0000
0010
1000
0000
0110
0000
1000
0100
0010
0100
1000
0010
0100
0010
,
1000
0100
0010
0100
1000
0010
0100
0001
0010
0100
0010
0001
0100
0010
0100
0001
,
0010
0100
0010
0001
M00M
0000
0000
0000
1001
0000
0000
0000
0001
0000
0100
0000
,
1000
M000
0001
0100
0001
1000
0001
0010
,
1000
M000
0110
0000
1001
0000
0001
0100
,
1000
M000
0001
0010
0100
1000
0001
0001
,
0100
0100
0010
1000
1001
0000
1000
0100
,
0001
000M
1000
0100
1000
0001
1000
0010
,
0001
000M
0110
0000
1001
0000
1000
0100
,
0001
000M
1000
0010
0220
0000
0330
0000
,
0001
1000
0000
0001
0000
1000
0001
0000
0010
0000
0100
0000
1000
0000
0001
0000
,
0100
0010
1000
0001
0010
1000
0010
0001
,
1000
0100
0001
0100
1000
0001
0100
0010
,
1000
0100
1000
0010
0100
1000
0001
0010
,
0100
1000
0100
0001
0010
0100
1000
0001
,
0100
0010
0100
0001
0010
1000
0001
0100
,
0010
1000
0010
0001
1000
0010
0100
0001
,
0010
0100
1000
0010
0220
0000
0330
0000
,
0001
0100
0000
0010
0000
1000
0100
0000
0022
0000
0000
0000
0033
0000
0000
0000
;

//---------------dance-single - ----------------
#NOTEDATA:;
#CHARTNAME:;
#STEPSTYPE:dance-single;
#DESCRIPTION:;
#CHARTSTYLE:;
#DIFFICULTY:Medium;
#METER:8;
#RADARVALUES:0.474687,0.473573,0.672357,0.233863,0.004872,341.000000,272.000000,69.000000,24.000000,2.000000,0.000000,0.000000,0.000000,0.000000,0.474687,0.473573,0.672357,0.233863,0.004872,341.000000,272.000000,69.000000,24.000000,2.000000,0.000000,0.000000,0.000000,0.000000;
#CREDIT:;
#OFFSET:1.395545;
#BPMS:0.000000=162.000000
,161.000000=81.000000
,177.000000=162.000000
;
#STOPS:52.000000=1.111113
,161.000000=1.481478
,177.000000=1.111113
;
#DELAYS:;
#WARPS:;
#TIMESIGNATURES:0.000000=4=4
;
#TICKCOUNTS:0.000000=4
;
#COMBOS:0.000000=1
;
#SPEEDS:0.000000=1.000000=0.000000=0
;
#SCROLLS:0.000000=1.000000
;
#FAKES:;
#LABELS:0.000000=Song Start
;
#NOTES:
0000
0000
0000
0000
,
0000
0000
0000
0000
,
1000
0010
1000
0010
,
0101
0011
0101
0011
,
1000
0100
1000
0100
,
0011
1010
0011
1010
,
0001
0100
0001
0100
,
1010
1100
1010
1100
,
0001
0010
0001
0010
,
2002
0000
3003
0000
1000
0000
0001
1000
,
0100
0010
0100
0010
0100
0010
0100
0000
,
1000
0010
0100
0001
,
1000
0010
1000
0010
1000
0010
1000
0000
,
0101
0000
2002
0000
3003
1000
0100
0000
,
1100
0000
0101
0000
0000
0001
0100
0000
,
0101
0000
1100
0000
0000
1000
0100
0000
,
1100
0000
0101
0000
0000
0001
0100
0000
,
0110
0000
2002
0000
3003
0001
0010
0000
,
0011
0000
1010
0000
0000
1000
0010
0000
,
1010
0000
0011
0000
0000
0001
0010
0000
,
0011
0002
0203
0320
,
2030
3001
0010
0001
,
0010
1100
1010
1100
,
1010
0001
0100
0001
,
0100
1010
0011
1010
,
0011
1000
0100
1000
,
0100
0011
0101
0011
,
0101
1000
0010
1000
,
0010
2002
3003
0001
,
1000
0001
1000
0000
0100
0000
1000
0000
,
0010
0101
1001
1100
,
1001
0001
0100
0001
,
0010
1100
1001
0101
,
1001
1000
0010
0100
,
0001
0011
1010
1100
,
0101
0001
0010
0100
,
1000
2002
3003
0001
,
1000
0001
0100
0010
0100
0010
0100
0010
,
0100
0001
0010
0100
,
1000
0000
0001
0010
0001
0010
0001
0010
,
0001
0000
1100
0000
0001
0100
0001
0000
,
0100
1000
0100
0000
1000
0010
1000
0000
,
0010
0001
0010
0000
0001
0001
0100
0100
,
1000
1000
0010
0010
1000
1000
0100
0100
,
0001
0001
M00M
0000
1001
0000
0001
0100
,
0001
0000
1100
0000
0011
0000
1000
0010
,
1000
0000
0110
0000
1001
0000
1000
0100
,
1000
0000
0101
0000
1010
0000
0001
0100
,
0010
0100
0001
0000
1001
0000
1000
0100
,
0010
0000
0011
0000
1100
0000
1000
0010
,
0100
0000
0101
0000
1010
0000
0001
0010
,
0100
0110
2002
3003
,
1000
0000
0001
1000
0002
0000
0100
0000
,
1000
0000
0013
0100
2000
0000
0010
0000
,
0001
0000
3100
0010
0002
0000
0010
0000
,
1000
0000
0103
0010
2000
0000
0100
0000
,
0001
0000
3010
1000
0200
0000
0001
0000
,
0010
0000
1300
0100
0020
0000
0001
0000
,
0100
0000
1030
0010
0002
0000
0010
0000
,
1000
0000
0103
0010
1000
0000
0000
0000
,
0010
0000
0000
0010
0000
0000
0010
0000
0200
0000
0000
0000
0300
0000
0000
0000
;

//---------------dance-single - ----------------
#NOTEDATA:;
#CHARTNAME:;
#STEPSTYPE:dance-single;
#DESCRIPTION:;
#CHARTSTYLE:;
#DIFFICULTY:Easy;
#METER:6;
#RADARVALUES:0.363324,0.384778,0.428750,0.370284,0.000000,261.000000,217.000000,44.000000,38.000000,1.000000,0.000000,0.000000,0.000000,0.000000,0.363324,0.384778,0.428750,0.370284,0.000000,261.000000,217.000000,44.000000,38.000000,1.000000,0.000000,0.000000,0.000000,0.000000;
#CREDIT:;
#OFFSET:1.395545;
#BPMS:0.000000=162.000000
,161.000000=81.000000
,177.000000=162.000000
;
#STOPS:52.000000=1.111113
,161.000000=1.481478
,177.000000=1.111113
;
#DELAYS:;
#WARPS:;
#TIMESIGNATURES:0.000000=4=4
;
#TICKCOUNTS:0.000000=4
;
#COMBOS:0.000000=1
;
#SPEEDS:0.000000=1.000000=0.000000=0
;
#SCROLLS:0.000000=1.000000
;
#FAKES:;
#LABELS:0.000000=Song Start
;
#NOTES:
0000
0000
0000
0000
,
0000
0000
0000
0000
,
0002
0100
0100
0103
,
0001
0010
0010
0001
,
2000
0100
0100
3100
,
1000
0010
0010
1000
,
0200
0010
0010
0310
,
0100
1000
1000
0001
,
0200
0010
0010
0310
,
2002
3003
1000
1000
,
0001
0010
0100
1000
,
0001
0001
1000
1000
,
0001
0100
0010
1000
,
1001
2002
3003
1100
,
0001
0101
0000
0101
,
1000
1100
0000
1100
,
0001
0101
0000
0100
,
0110
2002
3003
1010
,
0001
0011
0000
0011
,
1000
1010
0000
1001
,
0001
0020
0032
0203
,
0310
2001
0100
0100
,
3100
1000
0010
0010
,
1000
1002
0100
0100
,
0103
0001
0010
0010
,
0001
0201
0010
0010
,
0310
0100
0001
0001
,
1000
1200
0010
0010
,
0310
2002
3003
0001
,
0001
2010
0100
0001
,
3100
1000
0010
0010
,
1000
0012
0100
1000
,
0103
0001
0010
0010
,
0001
2100
0010
0001
,
3100
1000
0010
0010
,
1000
0102
0010
1000
,
0103
0220
0330
0001
,
0001
1000
0010
0100
,
0001
1000
1000
0001
,
0001
1000
0100
0010
,
0001
1001
1000
1000
,
0100
0100
0001
0001
,
0010
0000
0010
0000
1000
0100
1000
0000
,
0001
0100
0001
0000
1000
0010
1000
0000
,
0001
0010
00M0
0000
1001
0000
0000
0000
,
0001
0101
1100
0000
,
1000
1100
0101
0000
,
0001
0011
1010
0000
,
1000
1010
0011
0000
,
0001
1010
1100
0000
,
1000
0011
0101
0000
,
0001
0110
2002
3003
,
0001
0001
2000
0100
,
0100
0100
3002
0010
,
0013
0001
0002
0100
,
0100
0100
2003
0010
,
3010
1000
0200
1000
,
1000
1000
0320
0001
,
0031
0100
0200
1000
,
0010
0301
0220
0000
,
0330
0000
2002
3003
;

//---------------dance-single - ----------------
#NOTEDATA:;
#CHARTNAME:;
#STEPSTYPE:dance-single;
#DESCRIPTION:;
#CHARTSTYLE:;
#DIFFICULTY:Beginner;
#METER:3;
#RADARVALUES:0.203238,0.228504,0.068210,0.038977,0.000000,146.000000,139.000000,7.000000,4.000000,0.000000,0.000000,0.000000,0.000000,0.000000,0.203238,0.228504,0.068210,0.038977,0.000000,146.000000,139.000000,7.000000,4.000000,0.000000,0.000000,0.000000,0.000000,0.000000;
#CREDIT:;
#OFFSET:1.395545;
#BPMS:0.000000=162.000000
;
#STOPS:;
#DELAYS:;
#WARPS:;
#TIMESIGNATURES:0.000000=4=4
;
#TICKCOUNTS:0.000000=4
;
#COMBOS:0.000000=1
;
#SPEEDS:0.000000=1.000000=0.000000=0
;
#SCROLLS:0.000000=1.000000
;
#FAKES:;
#LABELS:0.000000=Song Start
;
#NOTES:
0000
0000
0000
0000
,
0000
0000
0000
0000
,
1000
0000
1000
0000
,
0100
0100
0100
0000
,
1000
0000
1000
0000
,
0010
0010
0010
0000
,
1000
0000
1000
0000
,
0100
0100
0100
0000
,
1000
0000
0001
0000
,
1001
0000
0000
0000
,
0001
0001
0001
0000
,
0100
0000
0010
0000
,
1000
1000
1000
0000
,
1001
0000
0000
0000
,
1000
0000
1000
0000
,
0100
0000
0100
0000
,
0010
0000
0010
0000
,
0001
0000
0001
0001
,
0001
0000
0001
0000
,
0100
0000
0100
0000
,
0010
0000
0010
0000
,
1000
1000
1000
0000
,
0001
0000
0001
0000
,
0100
0100
0100
0000
,
0001
0000
0001
0000
,
0010
0010
0010
0000
,
0001
0000
0001
0000
,
0100
0100
0100
0000
,
0001
0000
0001
0000
,
1001
0000
0000
0000
,
1000
0000
0001
0000
,
0010
0010
0010
0000
,
0001
0000
1000
0000
,
0010
0010
0010
0000
,
1000
0000
0001
0000
,
0100
0100
0100
0000
,
0001
0000
1000
0000
,
1001
0000
0000
0000
,
1000
1000
1000
0000
,
0100
0000
0010
0000
,
0001
0001
0001
0000
,
1001
0000
0000
0000
,
0000
0000
2000
0000
,
3000
0000
0200
0000
,
0300
0000
0020
0000
,
0030
0000
0002
0000
,
0003
0000
1000
0000
,
0001
0000
1000
0000
,
0001
0000
1000
0000
,
0001
0000
1000
0000
,
0000
0000
0000
0000
,
1000
0000
0010
0010
,
0010
0000
0100
0100
,
0100
0000
0001
0001
,
0001
0000
0010
0010
,
0010
0000
0100
0100
,
0100
0000
1000
1000
,
1000
0000
0001
0001
,
0001
0000
0000
0000
,
1000
0000
0010
0000
,
1000
0000
0001
0000
,
1000
0000
0100
0000
,
1000
0000
0001
0000
,
0010
0000
0001
0000
,
1000
0000
0001
0000
,
0100
0000
0001
0000
,
1001
0000
0000
0000
,
0110
0000
0000
0000
;
