#VERSION:0.83;
#TITLE:Wuv U;
#SUBTITLE:;
#ARTIST:kors k;
#TITLETRANSLIT:;
#SUBTITLETRANSLIT:;
#ARTISTTRANSLIT:;
#GENRE:Candy Rave;
#ORIGIN:;
#CREDIT:;
#BANNER:Wuv U.png;
#BACKGROUND:Wuv U-bg.png;
#PREVIEWVID:;
#JACKET:Wuv U-jacket.png;
#CDIMAGE:;
#DISCIMAGE:;
#LYRICSPATH:;
#CDTITLE:cdtitle.png;
#MUSIC:Wuv U.ogg;
#OFFSET:1.890964;
#SAMPLESTART:11.995068;
#SAMPLELENGTH:11.098266;
#SELECTABLE:YES;
#BPMS:0.000=173.000;
#STOPS:36.000=0.347,
185.000=0.173,
185.500=0.173,
188.000=0.173,
188.500=0.173,
193.000=0.347;
#DELAYS:;
#WARPS:;
#TIMESIGNATURES:0.000=4=4;
#TICKCOUNTS:0.000=4;
#COMBOS:0.000=1;
#SPEEDS:0.000=1.000=0.000=0;
#SCROLLS:0.000=1.000;
#FAKES:;
#LABELS:0.000=Song Start;
#BGCHANGES:0.813=Wuv U.avi=1.000=1=0=0=StretchNoLoop==CrossFade==,
99999=-nosongbg-=1.000=0=0=0 // don't automatically add -songbackground-
;
#KEYSOUNDS:;
#ATTACKS:
;

//---------------dance-single - ----------------
#NOTEDATA:;
#CHARTNAME:;
#STEPSTYPE:dance-single;
#DESCRIPTION:;
#CHARTSTYLE:;
#DIFFICULTY:Challenge;
#METER:13;
#RADARVALUES:0.582410,0.704422,0.258030,0.299315,0.087730,395.000000,370.000000,25.000000,29.000000,0.000000,0.000000,1.000000,0.000000,0.000000,0.582410,0.704422,0.258030,0.299315,0.087730,395.000000,370.000000,25.000000,29.000000,0.000000,0.000000,1.000000,0.000000,0.000000;
#CREDIT:;
#OFFSET:1.890964;
#BPMS:0.000000=173.000000
;
#STOPS:36.000000=0.346821
,185.000000=0.173407
,185.500000=0.173411
,188.000000=0.173407
,188.500000=0.173407
,193.000000=0.346823
;
#DELAYS:;
#WARPS:;
#TIMESIGNATURES:0.000000=4=4
;
#TICKCOUNTS:0.000000=4
;
#COMBOS:0.000000=1
;
#SPEEDS:0.000000=1.000000=0.000000=0
;
#SCROLLS:0.000000=1.000000
;
#FAKES:;
#LABELS:0.000000=Song Start
;
#NOTES:
0000
0000
0000
0000
,
0000
0000
0000
0000
,
0000
0000
0000
0000
,
0000
0000
0000
0000
,
0000
0000
0000
0000
,
0000
0000
0000
0000
,
0001
0000
0100
0001
0000
0001
0100
0001
,
1000
0000
0100
1000
0000
1000
0100
1000
,
0001
0000
0100
0010
0000
0010
0100
0010
,
1001
0000
0001
0010
0001
0000
0010
0000
0100
0000
1000
0000
0001
0000
0000
0000
,
0010
0000
0001
0000
0200
0000
0000
0000
0310
0000
1000
0000
0000
0000
0010
1000
,
0010
1000
0200
0000
0310
0000
0001
0001
,
0100
0000
0010
0000
0001
0000
0000
0000
0001
0000
0020
0000
0000
0000
1030
0010
,
1000
0100
0020
0000
0031
0000
1000
0000
,
0010
0000
1000
0000
0200
0000
0000
0000
0310
0000
0001
0000
0000
0000
0010
0001
,
0010
0001
0200
0000
0310
0000
1000
0010
,
0001
0010
1000
0100
0001
0100
0000
0100
,
0000
0100
2000
0000
3001
0000
1010
0000
,
0101
0000
0001
0001
0010
0010
0001
1000
,
0010
1000
0010
1000
0001
1000
0100
0100
,
0010
0010
0001
0010
1000
0000
0110
0000
,
1001
0000
1000
0010
1000
0100
0011
0000
,
1100
0000
1000
1000
0010
0010
1000
0001
,
0010
0001
0010
0001
1000
0001
0100
0100
,
0010
0010
1000
0010
0001
0000
1010
0000
,
1010
0000
0001
1000
0100
0000
0011
0000
,
1100
0000
0001
0001
0100
0100
0001
0010
,
0100
0010
0011
0000
1000
0100
1000
1000
,
0001
0001
1000
0010
0001
0010
1000
1000
,
0100
0000
0000
0000
0100
0000
0000
0000
0020
0000
0000
0000
0000
0000
0000
0000
0004
0000
0000
0000
0000
0000
0000
0033
0011
0000
0000
0000
0001
0000
0000
0000
,
0000
1100
1000
0000
1010
1000
0000
0101
,
0001
0000
1001
0000
1000
0001
0100
0100
,
0010
0010
1000
0010
0001
0010
1000
0100
,
0001
0100
1000
0001
0100
0000
2010
0000
,
0000
0000
0000
3002
,
0000
0000
0000
0023
,
0000
0000
0000
0230
,
0000
0000
0000
0310
,
0001
1000
0000
0001
0100
0001
1000
0000
,
1000
0001
0000
1000
0100
1000
0001
0000
,
1000
0010
0000
0010
1000
0001
0010
0000
,
0010
0000
0001
0010
0001
0000
0010
0000
0100
0000
1000
0000
0001
0000
0000
0000
,
1000
0000
0001
0000
0200
0000
0000
0000
0301
0000
1000
0000
0000
0000
0001
1000
,
0001
1000
0200
0000
1300
0000
0010
0010
,
1000
0000
0001
0000
0010
0000
0000
0000
0100
0000
0020
0000
0000
0000
0031
1000
,
0001
1000
0020
0000
1030
0000
0001
0001
,
0100
0001
0011
1100
1000
1000
0100
1000
,
1010
0101
1000
0100
1100
0000
0001
0100
,
0001
0000
0010
0000
1000
0000
0010
0100
0010
0000
0001
0000
0100
0000
0010
0000
,
1000
0000
0010
1000
0200
0000
0310
0001
,
0000
0000
0010
0001
0010
0000
0001
0000
0200
0000
0000
0000
0310
0000
0000
0000
,
1000
1000
0100
0010
1000
0000
1000
0020
,
0000
0000
0031
0010
0001
0000
0100
0000
0020
0000
0000
0000
1030
0000
0000
0000
,
0001
0000
0010
0001
0200
0000
0310
1000
,
0000
0000
0010
1000
0010
0000
1000
0000
0200
0000
0000
0000
0310
0000
0000
0000
,
0001
0010
1000
0010
0001
0100
1000
0100
,
0101
0000
0000
0000
0000
0000
0001
0100
0001
0000
1000
0000
0100
0000
0010
0000
,
0001
0010
1000
0010
0002
0000
1003
0010
,
0000
0000
0010
0100
0010
0000
0001
0000
0020
0000
0000
0000
2030
0000
0000
0000
,
3001
0000
0010
0001
0010
0000
0100
1000
0100
0000
0010
0000
0001
0000
1000
0000
,
0010
0000
1000
0010
1000
0000
0001
0000
0020
0000
0000
0000
0031
0000
0000
0000
,
1000
0010
0001
0010
2000
0000
3001
0010
,
0000
0000
0010
0100
0010
0000
1000
0000
0020
0000
0000
0000
0031
0000
0000
0000
,
1000
0100
0001
1000
0010
0001
0100
1000
,
0000
1000
0100
0001
0020
0000
0130
0000
,
0110
0000
0000
0000
;

//---------------dance-single - ----------------
#NOTEDATA:;
#CHARTNAME:;
#STEPSTYPE:dance-single;
#DESCRIPTION:;
#CHARTSTYLE:;
#DIFFICULTY:Hard;
#METER:10;
#RADARVALUES:0.467403,0.532574,0.361242,0.350921,0.000000,317.000000,282.000000,35.000000,34.000000,0.000000,0.000000,0.000000,0.000000,0.000000,0.467403,0.532574,0.361242,0.350921,0.000000,317.000000,282.000000,35.000000,34.000000,0.000000,0.000000,0.000000,0.000000,0.000000;
#CREDIT:;
#OFFSET:1.890964;
#BPMS:0.000000=173.000000
;
#STOPS:36.000000=1.040463
,193.000000=1.040465
;
#DELAYS:;
#WARPS:;
#TIMESIGNATURES:0.000000=4=4
;
#TICKCOUNTS:0.000000=4
;
#COMBOS:0.000000=1
;
#SPEEDS:0.000000=1.000000=0.000000=0
;
#SCROLLS:0.000000=1.000000
;
#FAKES:;
#LABELS:0.000000=Song Start
;
#NOTES:
0000
0000
0000
0000
,
0000
0000
0000
0000
,
0000
0000
0000
0000
,
0000
0000
0000
0000
,
0000
0000
0000
0000
,
0000
0000
0000
0000
,
0001
0101
0000
0101
,
1000
1100
0000
1100
,
0001
1001
0000
0010
,
1001
0000
1001
0000
1000
0010
2000
0000
,
3001
0010
0000
0001
0010
0001
2000
0000
,
3001
0000
0100
0010
0100
0010
1000
0000
,
1000
0002
0000
1003
0001
1000
0200
0000
,
1300
0000
1001
0000
0001
0010
0002
0000
,
1003
0010
0000
1000
0010
1000
0002
0000
,
1003
0000
0001
0100
0010
1000
0001
0000
,
1000
0100
0000
0100
0000
0100
0020
0000
,
0031
0000
0101
0000
1100
0000
1000
0010
,
1000
0010
2000
0000
3200
0000
0302
0000
,
0203
0000
1300
0100
1000
0000
0010
0100
,
0001
0000
0110
0000
0110
0000
0001
1000
,
0100
0000
1100
0000
0101
0000
0001
0010
,
0001
0010
0002
0000
0203
0000
2300
0000
,
3200
0000
0301
0100
0001
0000
0010
0100
,
1000
0000
0010
0000
0010
0000
0100
0001
,
0100
0000
1010
0000
0011
0000
1000
0100
,
1000
0100
1000
0000
0010
0000
1001
0000
,
0100
0001
1000
0010
1000
0000
0010
1000
,
0100
1001
1001
0002
,
1003
0000
1100
0000
0000
0011
0000
0000
,
1100
0000
0000
0011
0000
0000
1100
0000
,
0010
0001
1000
0000
1000
0000
0010
0000
,
0010
0000
0100
0001
1000
0100
1000
0100
,
0010
0012
0000
0000
,
0000
2003
0000
0000
,
0000
3020
0000
0000
,
0000
0230
0000
0000
,
0000
0000
0310
0000
1000
0000
0010
1000
,
0000
0001
0010
0000
0001
0000
0010
0001
,
0000
1000
0010
0000
0100
0000
0001
1000
,
0000
0001
0010
0000
0000
0001
0010
0100
,
1000
0001
0001
0100
,
0100
1000
1000
0010
,
0010
1000
1000
0100
,
0100
0001
0001
0010
,
0010
0000
0001
0100
0010
1000
0001
0000
,
0101
0000
1000
0100
0010
0001
1000
0000
,
1100
0000
0001
0010
0001
0000
1000
0010
,
1000
0000
1001
0000
1001
0000
0001
0010
,
0002
0000
1003
0010
0000
1000
0010
1000
,
0002
0000
1003
0000
0100
0010
0100
0010
,
0001
0000
0001
2000
0000
3001
1000
0001
,
0200
0000
0301
0000
1001
0000
1000
0010
,
2000
0000
3001
0010
0000
0001
0010
0001
,
2000
0000
3001
0000
1000
0100
0010
0001
,
1000
0000
0001
0100
0020
0000
0030
0000
,
0100
0010
1000
0000
0001
0000
0010
0001
,
0200
0000
0310
1000
0000
1000
0010
1000
,
0200
0000
0320
0000
0031
0100
1000
0000
,
1000
0100
0001
0000
1000
0100
0010
0001
,
2000
0000
3001
0000
1000
0000
0010
1000
,
0200
0000
0310
0001
0000
0001
0010
0001
,
0200
0000
0310
0000
1010
0000
0000
0011
,
0000
0000
0101
0000
0000
1100
0000
1000
,
0020
1030
0101
0000
;

//---------------dance-single - ----------------
#NOTEDATA:;
#CHARTNAME:;
#STEPSTYPE:dance-single;
#DESCRIPTION:;
#CHARTSTYLE:;
#DIFFICULTY:Medium;
#METER:8;
#RADARVALUES:0.393680,0.466002,0.247709,0.227066,0.000000,267.000000,243.000000,24.000000,22.000000,0.000000,0.000000,0.000000,0.000000,0.000000,0.393680,0.466002,0.247709,0.227066,0.000000,267.000000,243.000000,24.000000,22.000000,0.000000,0.000000,0.000000,0.000000,0.000000;
#CREDIT:;
#OFFSET:1.890964;
#BPMS:0.000000=173.000000
;
#STOPS:36.000000=1.040463
,193.000000=1.040465
;
#DELAYS:;
#WARPS:;
#TIMESIGNATURES:0.000000=4=4
;
#TICKCOUNTS:0.000000=4
;
#COMBOS:0.000000=1
;
#SPEEDS:0.000000=1.000000=0.000000=0
;
#SCROLLS:0.000000=1.000000
;
#FAKES:;
#LABELS:0.000000=Song Start
;
#NOTES:
0000
0000
0000
0000
,
0000
0000
0000
0000
,
0000
0000
0000
0000
,
0000
0000
0000
0000
,
0000
0000
0000
0000
,
0000
0000
0000
0000
,
0000
1000
0000
1000
,
0000
0001
0000
0001
,
0000
1000
0000
1000
,
1001
0000
1000
0000
0010
1000
0020
0000
,
1030
0000
0001
0000
0010
0001
0020
0000
,
0031
1000
0010
0001
,
0010
1000
0000
1000
0100
0000
0020
0000
,
0031
0000
1000
0000
0100
1000
0200
0000
,
0310
0000
0001
0000
0100
0001
0200
0000
,
0310
1000
0100
0001
,
0100
1000
0000
1000
0000
1000
0020
0000
,
0030
0000
1001
0000
1001
0000
0001
0010
,
0001
0000
1000
0001
1000
0000
0001
0100
,
0001
0000
1000
0000
1000
0000
0010
1000
,
0001
0000
0010
0000
0010
0000
0100
0010
,
0100
0000
1001
0000
1001
0000
1000
0010
,
1000
0000
0001
1000
0001
0000
1000
0100
,
1000
0000
0001
0000
0001
0000
0010
0001
,
1000
0020
0100
0130
,
0000
0000
1010
0000
0101
0000
1000
0100
,
1000
0000
0001
1000
0001
0000
1000
0010
,
1000
0000
0001
0000
0001
0000
0100
0010
,
1000
0001
0001
0020
,
0030
0000
0011
0000
0000
1100
0000
0000
,
0011
0000
0000
1100
0000
0000
0011
0000
,
1100
0001
0001
1000
,
1000
0000
0001
1000
0001
1000
0001
0000
,
0110
1002
0000
0000
,
0000
2003
0000
0000
,
0000
3200
0000
0000
,
0000
0320
0000
0000
,
0000
0000
0031
0000
1000
0000
0000
1000
,
0000
1000
0000
0000
0001
0000
0000
0001
,
0000
0001
0000
0000
1000
0000
0000
1000
,
0000
1000
0001
0000
0000
0000
0010
0000
,
0001
1000
1000
0010
,
0010
0100
0100
0001
,
0001
0010
0010
0100
,
0100
1000
1000
0001
,
0001
0000
1000
0010
1000
0000
2020
0000
,
3030
0000
0001
0010
0001
0000
0022
0000
,
0033
0000
1000
0010
1000
0000
0001
0010
,
0001
0000
1001
0000
0001
0000
0010
0001
,
0020
0000
0031
0000
1000
0000
0010
1000
,
0020
1030
0001
0010
,
1000
0000
0010
0001
0000
0001
0100
0000
,
0020
0000
1030
0000
0001
0000
0100
0001
,
0200
0000
0310
0000
1000
0000
0100
1000
,
0200
0310
0001
0100
,
1000
0000
0100
0001
0200
0000
0300
0000
,
0001
0010
0001
0000
1000
0000
0010
1000
,
0001
0000
1000
0000
0001
0000
0010
0001
,
1000
0000
0001
0000
1000
0010
1000
0000
,
0001
0010
0001
0000
0100
0000
0010
0100
,
0010
0000
1000
0000
0001
0000
1000
0001
,
0100
0000
0001
0000
1000
0000
0001
1000
,
0100
0000
1000
0000
1001
0000
0000
0110
,
0000
0000
1001
0000
0000
0110
0000
0000
,
1001
0010
1001
0000
;

//---------------dance-single - ----------------
#NOTEDATA:;
#CHARTNAME:;
#STEPSTYPE:dance-single;
#DESCRIPTION:;
#CHARTSTYLE:;
#DIFFICULTY:Easy;
#METER:5;
#RADARVALUES:0.287519,0.366144,0.185782,0.433490,0.000000,195.000000,177.000000,18.000000,42.000000,0.000000,0.000000,0.000000,0.000000,0.000000,0.287519,0.366144,0.185782,0.433490,0.000000,195.000000,177.000000,18.000000,42.000000,0.000000,0.000000,0.000000,0.000000,0.000000;
#CREDIT:;
#OFFSET:1.890964;
#BPMS:0.000000=173.000000
;
#STOPS:36.000000=1.040463
,193.000000=1.040465
;
#DELAYS:;
#WARPS:;
#TIMESIGNATURES:0.000000=4=4
;
#TICKCOUNTS:0.000000=4
;
#COMBOS:0.000000=1
;
#SPEEDS:0.000000=1.000000=0.000000=0
;
#SCROLLS:0.000000=1.000000
;
#FAKES:;
#LABELS:0.000000=Song Start
;
#NOTES:
0000
0000
0000
0000
,
0000
0000
0000
0000
,
0000
0000
0000
0000
,
0000
0000
0000
0000
,
0000
0000
0000
0000
,
0000
0000
0000
0000
,
0000
1000
0000
0001
,
0000
1000
0000
0001
,
0000
1000
0000
0001
,
1001
1000
0010
2020
,
3030
0001
0010
0022
,
0033
1000
0100
0010
,
0001
0100
0010
2000
,
3000
0001
0100
0202
,
0303
1000
0100
2200
,
3300
0001
0010
1000
,
0100
0001
0001
0002
,
0003
0010
0010
0001
,
1000
0010
0100
0010
,
0100
0001
0100
1000
,
1000
0100
0100
0001
,
1000
0010
0010
1000
,
0001
0010
0100
0010
,
0100
1000
0100
0001
,
0001
0100
0100
2000
,
3000
0010
0010
0100
,
0001
1000
0100
1000
,
0100
1000
0010
0001
,
0001
0010
0010
2000
,
3000
0000
0022
0000
0000
0033
0000
0000
,
2200
0000
0000
3300
0000
0000
0011
0000
,
1000
0001
0001
1000
,
1000
0010
0100
0001
,
0000
2001
0000
0000
,
0000
3200
0000
0000
,
0000
0320
0000
0000
,
0000
0032
0000
0000
,
0000
1003
0010
0000
,
0010
1000
0001
0000
,
0001
1000
0100
0000
,
0100
1000
0000
0010
,
0100
0001
0000
1000
,
0000
0001
0000
1000
,
0000
0001
0000
1000
,
0000
0001
0000
1000
,
0000
0001
0010
2000
,
3000
1000
0010
0002
,
0003
0001
0100
1000
,
0100
0001
0001
0010
,
0022
0033
1000
0010
,
2020
3030
0001
0100
,
0010
1000
0100
0010
,
0002
0003
1000
0100
,
2200
3300
0001
0100
,
0202
0303
1000
0010
,
0001
0100
2000
3000
,
0010
0010
1000
0100
,
0220
0330
0001
0100
,
0220
0330
1000
0010
,
0001
0010
1000
0001
,
0020
0030
0100
0010
,
0022
0033
0100
0010
,
2020
3030
0001
0010
,
1000
0010
0000
0010
,
0002
0003
1001
0000
;

//---------------dance-single - ----------------
#NOTEDATA:;
#CHARTNAME:;
#STEPSTYPE:dance-single;
#DESCRIPTION:;
#CHARTSTYLE:;
#DIFFICULTY:Beginner;
#METER:3;
#RADARVALUES:0.204949,0.272480,0.020642,0.061927,0.000000,139.000000,137.000000,2.000000,6.000000,0.000000,0.000000,0.000000,0.000000,0.000000,0.204949,0.272480,0.020642,0.061927,0.000000,139.000000,137.000000,2.000000,6.000000,0.000000,0.000000,0.000000,0.000000,0.000000;
#CREDIT:;
#OFFSET:1.890964;
#BPMS:0.000000=173.000000
;
#STOPS:;
#DELAYS:;
#WARPS:;
#TIMESIGNATURES:0.000000=4=4
;
#TICKCOUNTS:0.000000=4
;
#COMBOS:0.000000=1
;
#SPEEDS:0.000000=1.000000=0.000000=0
;
#SCROLLS:0.000000=1.000000
;
#FAKES:;
#LABELS:0.000000=Song Start
;
#NOTES:
0000
0000
0000
0000
,
0000
0000
0000
0000
,
0000
0000
0000
0000
,
0000
0000
0000
0000
,
0000
0000
0000
0000
,
0000
0000
0000
0000
,
1000
0000
0000
0000
,
0001
0000
0000
0000
,
1000
0000
0000
0000
,
1001
0000
0000
0000
,
1000
1000
1000
0000
,
0001
0001
0001
0000
,
0010
0000
0100
0000
,
0010
0010
0010
0000
,
0001
0001
0001
0000
,
1000
1000
1000
0000
,
0010
0000
0100
0000
,
0010
0010
0010
0000
,
1000
0000
1000
1000
,
1000
0000
0100
0000
,
0010
0000
0100
0000
,
0010
0010
0010
0000
,
0001
0000
0001
0001
,
0001
0000
0100
0000
,
0010
0000
0100
0000
,
0010
0010
0010
0000
,
1000
0000
0100
0100
,
0100
0000
0010
0000
,
0001
0000
0100
0000
,
0010
0010
0010
0000
,
2000
0000
0000
3000
0000
0000
0002
0000
,
0000
0003
0000
0000
1000
0000
0000
0000
,
0001
0000
1000
0000
,
0001
1000
0001
0000
,
2000
0000
3000
0000
,
0200
0000
0300
0000
,
0020
0000
0030
0000
,
0002
0000
0003
0000
,
0001
0000
0000
0000
,
0010
0000
0000
0000
,
0100
0000
0000
0000
,
1000
0000
0000
0000
,
0001
0000
1000
0000
,
0001
0000
1000
0000
,
0001
0000
1000
0000
,
0001
0000
1000
0000
,
0010
0010
0010
0000
,
0010
0010
0010
0000
,
0010
0010
0010
0010
,
0010
0000
0000
0000
,
1000
1000
1000
0000
,
0001
0001
0001
0000
,
0010
0000
0100
0000
,
0010
0010
0010
0000
,
0001
0001
0001
0000
,
1000
1000
1000
0000
,
0010
0000
0100
0000
,
0010
0010
0010
0000
,
1000
0001
1000
0000
,
0001
1000
0001
0000
,
0010
0000
0100
0000
,
0010
0100
0010
0000
,
0001
1000
0001
0000
,
1000
0001
1000
0000
,
0010
0010
0010
0010
,
0000
0010
0010
0000
,
1001
0000
0000
0000
;
