#TITLE:Wandering Gravity;
#SUBTITLE:;
#ARTIST:Nazzo-Non-Heat;
#TITLETRANSLIT:;
#SUBTITLETRANSLIT:;
#ARTISTTRANSLIT:;
#GENRE:Electric Pop;
#CREDIT:;
#BANNER:Wandering Gravity.png;
#BACKGROUND:Wandering Gravity-bg.png;
#LYRICSPATH:;
#CDTITLE:cdtitle.png;
#MUSIC:Wandering Gravity.ogg;
#OFFSET:-0.554768;
#SAMPLESTART:35.849884;
#SAMPLELENGTH:11.294121;
#SELECTABLE:YES;
#BPMS:0.000000=170.000000
;
#STOPS:
;
#BGCHANGES:;
#KEYSOUNDS:;
#ATTACKS:;

//---------------dance-single - ----------------
#NOTES:
     dance-single:
     :
     Challenge:
     17:
     0.964036,1.049270,0.757121,0.419708,1.041041,820.000000,728.000000,92.000000,51.000000,0.000000,0.000000,0.964036,1.049270,0.757121,0.419708,1.041041,820.000000,728.000000,92.000000,51.000000,0.000000,0.000000:
0000
0000
0000
0000
,
0000
0000
0000
0000
,
0000
0000
0000
0000
,
0000
0000
0000
0000
,
1001
0000
0000
0000
1001
0000
0000
0000
0001
0010
0001
0010
0001
0000
1000
0010
,
1000
0010
1000
0000
0001
1000
0001
1000
0001
0000
1000
0100
0010
0001
0010
0100
,
1000
0000
0000
0110
0000
0000
0001
0000
0000
0110
0000
0000
1000
0000
0000
1001
,
0000
0001
0100
0001
1000
0010
1000
0001
0010
0001
0100
0001
1000
0100
0010
0001
,
1000
0000
0000
0000
1010
0000
0000
0000
1000
0010
0100
0010
0100
0000
0010
1000
,
0001
1000
0001
0000
1000
0100
0010
0100
0010
0000
0001
0100
0010
1000
0100
0010
,
0001
0000
0000
0000
0011
0000
0000
0000
0001
0010
0100
0010
0100
0000
0010
0001
,
1000
0001
1000
0000
0001
0100
0010
0100
0010
0000
0100
0010
1000
0001
0010
0100
,
1000
0000
0000
0000
1001
0000
0000
0000
0001
1000
0100
1000
0100
0000
1000
0001
,
0100
0001
0100
0000
0010
1000
0001
1000
0001
0000
1000
0100
0010
0001
0100
0010
,
1000
0000
0000
1010
0000
0000
0110
0000
0000
0101
0000
0000
1001
0000
0000
0001
,
0100
0001
0020
0000
0000
0000
0000
0000
0000
0000
0000
0000
0000
0000
0130
0000
,
0010
0100
0000
0010
0100
0000
1000
0000
0001
0100
0001
0100
0010
1000
0010
1000
,
0001
0000
0000
0001
0010
0000
0011
0000
0000
0000
0110
0000
0000
0000
0012
0000
,
1000
0000
0003
1000
0010
0000
0101
0000
0000
0000
1002
0000
0010
0000
0013
0000
,
1100
0000
0000
1000
0001
0000
0101
0000
0000
0000
0110
0000
0000
0000
0102
0000
,
1000
0000
0003
1000
0100
0000
0110
0000
0000
0000
0012
0000
1000
0000
1003
0000
,
1010
0000
0000
1000
0010
0000
1010
0000
0000
0000
0110
0000
0000
0000
2010
0000
,
0001
0000
3000
0001
0010
0000
1100
0000
0000
0000
2001
0000
0010
0000
3010
0000
,
0101
0000
0000
0110
0000
0000
1010
0000
0001
0000
0010
0000
1100
0000
0000
0110
,
0000
0000
0011
0000
0100
0000
1001
0000
0000
0000
1000
0010
0100
0001
1000
0000
,
0001
0000
1000
0100
1000
0000
0001
0000
1000
0010
1000
0000
0100
0000
0010
0001
,
0010
0000
0100
0000
1000
0001
1000
0001
0100
0010
1000
0010
0100
0001
1000
0100
,
0010
0000
0001
1000
0010
0000
0100
0000
0010
1000
0001
0000
0010
0000
0100
1000
,
0001
0100
0010
0100
0001
0100
0010
1000
0001
0010
0100
1000
0001
1000
0100
0010
,
0001
0000
1000
0010
1000
0000
0001
0000
1000
0100
1000
0000
0010
0000
0100
0001
,
0100
0000
0010
0000
1000
0100
1000
0100
0010
0001
0100
0010
1000
0001
0010
0001
,
1000
0010
1000
0010
0100
0000
0001
0010
0001
0010
0100
0000
1000
0001
1000
0001
,
0100
0000
0010
1000
0010
1000
0001
0010
0100
1000
0001
1000
0100
0010
0001
1000
,
0010
0000
0000
0000
1010
0000
0000
0000
0001
0100
0010
0100
0010
0100
0001
0100
,
0010
0100
0010
0100
0001
0100
0010
1000
0100
0000
0021
0000
0000
0000
0130
0000
,
1100
0000
0000
0000
1100
0000
0000
0000
1000
0100
0010
0100
0010
0100
1000
0100
,
0010
0100
0010
0100
1000
0100
0010
0001
0100
0000
1020
0000
0000
0000
0130
0000
,
0101
0000
0000
0000
0101
0000
0000
0000
1000
0010
0100
0010
0100
0010
1000
0100
,
0010
0100
0010
0100
1000
0010
0100
0001
0010
0000
1002
0000
0000
0000
0013
0000
,
1100
0000
0000
0000
1100
0000
0000
0000
0001
0010
0100
0010
0100
0010
0001
0100
,
0010
0100
0010
0100
0001
0010
0100
1000
0010
0000
0002
0000
0000
0000
0003
0000
,
0110
0010
1000
0001
1000
0100
0010
1000
,
0010
0000
0100
0000
1000
0000
0010
0000
0001
0000
0010
0000
1000
0010
1000
0010
,
2000
0000
0000
3010
0000
0000
2001
0000
0000
3100
0000
0000
1001
0000
0001
1000
,
0002
0000
0000
0103
0000
0000
1002
0000
0000
0013
0000
0000
1100
0000
0000
0000
,
1001
0001
1000
0010
0100
1000
0100
0010
,
1000
0000
0100
0000
0001
0000
0100
0000
1000
0000
0010
0100
0001
1000
0001
1000
,
0200
0000
0000
0301
0000
0000
0210
0000
0000
1300
0000
0000
1001
0000
1000
0001
,
0200
0000
0000
1300
0000
0000
0210
0000
0000
0301
0000
0000
0001
0100
0010
1000
,
0001
0010
0100
1000
0001
0100
0010
0001
,
0010
0000
0100
0000
0001
0000
0010
0000
1000
0000
0010
0000
0001
0010
0001
0010
,
0002
0000
0000
0013
0000
0000
1002
0000
0000
0103
0000
0000
1001
0000
1000
0001
,
2000
0000
0000
3100
0000
0000
2001
0000
0000
3010
0000
0000
1000
0010
0100
0001
,
1000
0100
0010
0100
0001
0100
1000
0100
0010
0100
0001
0100
1000
0100
0010
0100
,
0001
0100
1000
0100
0010
0100
0001
0100
2000
0000
0000
0000
0000
0000
0000
0000
,
3001
0100
0010
0100
1000
0100
0001
0100
0010
0100
1000
0100
0001
0100
0010
0100
,
1000
0000
0100
0000
0001
0000
0100
0000
0010
0000
0100
0000
1000
0000
0100
0000
0002
0000
0000
0000
0000
0000
0000
0000
0000
0000
0000
0000
0000
0000
0000
0003
,
2001
0000
0000
0000
0000
0000
0000
0000
0000
0000
0000
3000
2010
0000
0000
0000
0000
0000
0000
0000
0000
0000
0000
3000
2100
0000
0000
0000
0000
0000
0000
0000
,
3001
0000
0100
0000
0001
0000
0100
0000
0010
0000
1000
0000
0100
0000
0010
0000
0002
0000
0000
0000
0000
0000
0000
0000
0000
0000
0000
0003
0012
0000
0000
0000
,
0000
0000
0000
0000
0000
0000
0000
0003
0102
0000
0000
0000
0000
0000
0000
0000
1003
0000
0100
0000
1000
0000
0100
0000
0010
0000
0001
0000
0100
0000
0010
0000
,
2000
0000
0000
0000
0000
0000
0000
0000
0000
0000
0000
3000
1002
0000
0000
0000
0000
0000
0000
0000
0000
0000
0000
0000
1003
0000
0100
0000
0010
0000
0100
0000
,
0002
0000
0000
0000
0000
0000
0000
0000
0203
0000
0000
0000
0000
0000
0000
0000
2300
0000
0000
0000
0000
0000
0000
0000
3020
0000
0000
0000
0000
0000
0000
0030
,
1020
0000
0000
0000
0000
0000
0000
0000
0230
0000
0000
0000
0000
0000
0000
0000
0302
0000
0000
0000
0000
0000
0000
0000
0023
0000
0000
0000
0000
0000
0000
0030
,
0022
0000
0000
0000
,
0030
0000
0000
0000
,
0000
0000
0000
0000
,
1003
0000
0010
1000
0001
0000
0001
0000
0000
0010
0001
1000
0010
0000
0000
0000
,
0110
0000
0000
0010
1000
0000
1001
0000
0000
0000
1100
0000
0000
0000
0120
0000
,
0001
0000
0030
0001
0100
0000
1010
0000
0000
0000
1002
0000
0010
0000
0013
0000
,
1100
0000
0000
1000
0001
0000
0101
0000
0000
0000
0110
0000
0000
0000
2010
0000
,
0001
0000
3000
0001
0010
0000
0110
0000
0000
0000
2001
0000
0100
0000
3100
0000
,
0110
0000
0000
0010
0001
0000
1001
0000
0000
0000
0101
0000
0000
0000
0120
0000
,
1000
0000
0030
1000
0100
0000
0011
0000
0000
0000
2001
0000
0010
0000
3010
0000
,
0101
0000
0000
1010
0000
0000
0011
0000
0100
0000
0010
0000
1100
0000
0000
0011
,
0000
0000
1010
0000
0100
0000
1001
0000
0000
0000
0001
0010
0100
1000
0001
0000
,
1000
0000
0001
0100
0001
0000
1000
0000
0001
0010
0001
0000
0100
0000
0010
1000
,
0010
0000
0100
0000
0001
1000
0001
1000
0100
0010
0001
0010
0100
1000
0001
0100
,
0010
0000
1000
0001
0010
0000
0100
0000
0010
0001
1000
0000
0010
0000
0100
0001
,
1000
0100
0010
0100
1000
0100
0010
0001
1000
0010
0100
0001
1000
0001
0100
0010
,
1000
0000
0001
0010
0001
0000
1000
0000
0001
0100
0001
0000
0010
0000
0100
1000
,
0100
0000
0010
0000
0001
0100
0001
0100
0010
1000
0100
0010
0001
1000
0010
1000
,
0001
0010
0001
0100
0001
0000
1000
0010
1000
0100
1000
0000
0001
0100
0001
0010
,
0001
0000
1000
0010
0100
0001
0010
0001
0100
0010
1000
0000
0000
0000
0220
0000
,
0000
0000
0000
0000
,
0000
0000
0000
0000
,
0330
0000
0000
0000
;

//---------------dance-single - ----------------
#NOTES:
     dance-single:
     :
     Hard:
     13:
     0.660717,0.664538,0.683055,0.790039,0.106984,562.000000,479.000000,83.000000,96.000000,0.000000,0.000000,0.660717,0.664538,0.683055,0.790039,0.106984,562.000000,479.000000,83.000000,96.000000,0.000000,0.000000:
0000
0000
0000
0000
,
0000
0000
0000
0000
,
0000
0000
0000
0000
,
0000
0000
0000
0000
,
1001
0000
1001
0000
2000
0000
3100
0020
,
0000
0031
0200
0000
0300
0010
1000
0001
,
0011
0000
0000
0001
0000
0000
0101
0000
0000
0100
0000
0000
0110
0000
0000
1000
,
0000
0001
0100
1000
0100
0001
0010
0100
,
1100
0000
1100
0000
2000
0010
3010
2000
,
0001
3001
2000
0100
3100
1000
0010
0100
,
0101
0000
0101
0000
0002
0010
0013
0002
,
1000
1003
0002
0100
0103
0001
0010
0100
,
0110
0000
0110
0000
2000
0100
3100
0002
,
0100
0103
2000
0010
3010
0001
0010
1000
,
1010
0000
0000
1000
0000
0000
1100
0000
0000
0100
0000
0000
0110
0000
0000
0001
,
0000
2002
0000
0000
0000
0000
3003
0000
,
0001
1000
0000
0001
1000
0000
0200
0000
0310
0000
0001
0000
0100
0000
0010
0000
,
1020
0000
1030
1010
0000
0110
0000
2010
,
0001
0000
3001
1200
0000
0320
0100
0130
,
1200
0000
1300
1100
0000
0110
0000
2100
,
0001
0000
3010
2010
0000
3200
0010
0310
,
0021
0000
0031
0011
0000
0110
0000
0012
,
1000
0000
1003
0201
0000
0320
0100
0130
,
0101
0000
0000
0010
0000
0000
1000
0000
0010
0000
1000
0000
1100
0000
0000
0010
,
0000
0001
0010
1001
0000
0001
0100
0010
,
1000
0100
0100
0010
0001
0001
1000
0100
,
0100
0001
0100
1000
0010
0100
0001
0010
,
0001
0100
0100
0010
1000
1000
0100
0010
,
0001
0100
1000
0100
0001
0010
0100
1000
,
0001
0100
0100
0010
1000
1000
0001
0100
,
0100
1000
0100
0001
0010
0100
1000
0001
,
0201
0000
0310
2010
0000
3100
1200
0000
,
0310
0000
0011
0000
0000
0000
1100
0000
0000
0010
0001
0000
1000
0000
0001
0000
,
0101
0000
0101
0000
0001
0100
0001
1000
,
0100
1000
0001
0100
0010
2020
0000
3030
,
1100
0000
1100
0000
1000
0100
1000
0001
,
0100
0001
1000
0100
0010
0220
0000
0330
,
0011
0000
0011
0000
0001
0100
0010
0001
,
0010
0100
0001
0010
0100
2200
0000
3300
,
1010
0000
1010
0000
1000
0010
0100
1000
,
0100
0010
1000
0001
0010
2000
0000
3000
,
0010
0100
0010
0001
1000
0001
0100
0010
,
1000
0100
1000
0010
0100
0001
1000
0100
,
0020
0000
0000
0001
0000
0000
0230
0000
0000
1000
0000
0000
0320
0000
0000
0000
,
0032
0000
0000
0100
0000
0000
2003
0000
0000
0010
0000
0000
3002
0000
0000
0000
,
1003
0010
1000
0100
0010
0001
0100
0001
,
1000
0100
1000
0010
0100
1000
0100
0001
,
0020
0000
0000
1000
0000
0000
0230
0000
0000
0001
0000
0000
2300
0000
0000
0000
,
3020
0000
0000
0001
0000
0000
0230
0000
0000
1300
0000
0000
0110
0000
0000
0000
,
0010
0100
0001
0010
0100
1000
0100
0010
,
0001
0100
0010
1000
0100
1000
0001
0100
,
0020
0000
0000
1000
0000
0000
0230
0000
0000
0001
0000
0000
0320
0000
0000
0000
,
2030
0000
0000
0100
0000
0000
3002
0000
0000
0010
0000
0000
1003
0000
0001
0000
,
1000
0100
0001
1000
0010
0001
1000
0100
,
0001
1000
0010
0001
2000
0000
0000
0000
,
3001
0100
1000
0001
0010
1000
0001
0100
,
1000
0001
0010
1000
0002
0000
0000
0003
,
0022
0000
0033
0220
0000
0330
0011
0000
,
0010
0001
0100
0010
2020
0000
3030
0220
,
0000
0330
1010
0000
0010
1000
0100
0010
,
0220
0000
0330
2002
0000
3003
0001
0100
,
0102
2003
3200
0320
,
0032
0203
2300
3200
,
0002
0000
0000
0000
,
0300
0000
0000
0000
,
0000
0000
0000
0000
,
1003
0000
0100
0000
0010
0000
0020
0000
0030
0100
0010
0000
0002
0000
0003
0000
,
0021
0000
0031
1001
0000
1010
0000
0102
,
1000
0000
1003
0021
0000
0230
1000
1300
,
1002
0000
0103
0110
0000
0101
0000
2001
,
0100
0000
3001
1002
0000
0203
0010
0310
,
1020
0000
1030
1001
0000
0011
0000
2100
,
0001
0000
3001
1020
0000
0230
0001
0301
,
1100
0000
0000
0010
0000
0000
0001
0000
0010
0000
0001
0000
0101
0000
0000
0010
,
0000
1000
0010
1001
0000
1000
0100
0010
,
0001
0100
0100
0010
1000
1000
0001
0100
,
0100
1000
0100
0001
0010
0100
1000
0010
,
1000
0100
0100
0010
0001
0001
0100
0010
,
1000
0100
0001
0100
1000
0010
0100
0001
,
1000
0100
0100
0010
0001
0001
1000
0100
,
0100
0001
0100
1000
0010
0100
0001
0010
,
0210
0000
0310
2001
0000
3010
0102
0000
,
0013
2100
0000
3010
1000
0101
0000
2020
,
0000
0000
0000
0000
,
0000
0000
0000
0000
,
3030
0000
0000
0000
;

//---------------dance-single - ----------------
#NOTES:
     dance-single:
     :
     Medium:
     9:
     0.445573,0.524635,0.584300,0.773580,0.000000,379.000000,308.000000,71.000000,94.000000,0.000000,0.000000,0.445573,0.524635,0.584300,0.773580,0.000000,379.000000,308.000000,71.000000,94.000000,0.000000,0.000000:
0000
0000
0000
0000
,
0000
0000
0000
0000
,
0000
0000
0000
0000
,
0000
0000
0000
0000
,
1001
0000
1001
0000
0002
0000
0000
0203
,
0000
0000
0320
0000
0000
1030
0001
0000
,
0022
0000
0000
0033
0000
0000
0220
0000
0000
0330
0000
0000
2200
0000
0000
3300
,
0000
2002
0000
3003
0000
0200
0000
0300
,
1010
0000
1010
0000
2000
0000
0000
3200
,
0000
0000
0302
0000
0000
0103
1000
0000
,
0011
0000
0011
0000
0002
0000
0000
0203
,
0000
0000
2300
0000
0000
3100
0001
0000
,
1001
0000
1001
0000
0002
0000
0000
0023
,
0000
0000
2030
0000
0000
3010
0001
0000
,
0202
0000
0000
0303
0000
0000
0220
0000
0000
0330
0000
0000
2020
0000
0000
3030
,
0000
2002
0000
0000
0000
0000
0000
0000
,
0000
0000
0000
3003
,
1002
0000
0010
0013
0000
0001
0000
0201
,
0000
0310
0000
1020
0000
0130
0001
0000
,
2001
0000
0100
3100
0000
1000
0000
1002
,
0000
0103
0000
1002
0000
0013
0001
0000
,
2001
0000
0010
3010
0000
1000
0000
1200
,
0000
0310
0000
0021
0000
0130
1000
0000
,
1001
0000
0010
0001
0100
0000
1001
0000
,
0010
1000
0100
0010
0000
0000
0001
0000
,
1000
0010
0000
0010
0100
0000
0100
0001
,
0000
0001
1000
0000
1000
0100
0010
0000
,
0001
0100
0000
0100
0010
0000
0010
1000
,
0200
0302
0203
2300
,
3001
0100
0000
0100
0010
0000
0010
1000
,
0000
1000
0100
0000
0010
0001
0100
0000
,
1010
0000
0000
1001
0000
0000
1100
0000
,
0000
0110
0000
0012
0000
1000
1003
0000
,
0101
0000
0101
0000
2000
0000
0000
3020
,
0000
0000
2030
0000
0000
3100
0000
0000
,
1100
0000
1100
0000
0002
0000
0000
0023
,
0000
0000
0032
0000
0000
0103
0000
0000
,
1010
0000
1010
0000
0002
0000
0000
0203
,
0000
0000
0302
0000
0000
0013
0000
0000
,
0011
0000
0011
0000
0200
0000
0000
2300
,
0000
0000
3020
0000
0000
0031
0000
0000
,
0010
0000
1000
0010
0000
1000
0001
0000
,
1000
0100
0000
0010
0001
0000
0100
0010
,
2000
0000
3000
0102
0000
0000
2003
0000
,
3002
0000
0003
2100
0000
0000
3002
0000
,
0013
0000
0100
1000
0000
0001
0100
0000
,
0010
1000
0000
0001
0010
0000
0100
0010
,
0200
0000
0300
1002
0000
0000
0203
0000
,
0320
0000
0030
2001
0000
0000
3200
0000
,
1300
0000
0001
0100
0000
0001
1000
0000
,
0001
0010
0000
0100
1000
0000
0010
0100
,
0002
0000
0003
2010
0000
0000
3002
0000
,
2003
0000
3000
0012
0000
0000
2003
0000
,
3001
0000
0001
0100
0000
0100
1000
0000
,
1000
0100
0000
0100
0002
0000
0000
0000
,
1003
0000
1000
0100
0000
0100
0001
0000
,
0001
0100
0000
0100
2000
0000
0000
0000
,
3001
0000
0000
0101
0000
0000
0110
0000
,
0002
0000
0000
0000
1003
0000
0000
1100
,
0000
0110
2000
0000
,
3001
0000
0000
1010
0000
0000
0101
0000
,
1001
0100
0010
0100
,
1001
0010
0100
0010
,
2002
0000
0000
0000
,
3000
0000
0000
0000
,
0000
0000
0000
0000
,
0013
0000
0100
0010
0000
0100
0010
0000
,
2001
0000
0010
3010
0000
0100
0000
2010
,
0000
3100
0000
0012
0000
0103
0001
0000
,
2001
0000
0100
3100
0000
0010
0000
0012
,
0000
1003
0000
0102
0000
1003
0100
0000
,
1002
0000
0010
0013
0000
0100
0000
0012
,
0000
0103
0000
2010
0000
3100
1000
0000
,
1001
0000
0010
1000
0100
0000
1001
0000
,
0010
0001
0100
0010
0000
0000
1000
0000
,
0001
0010
0000
0010
0100
0000
0100
1000
,
0000
1000
0001
0000
0001
0100
0010
0000
,
1000
0100
0000
0100
0010
0000
0010
0001
,
0200
2300
3200
0302
,
1003
0100
0000
0100
0010
0000
0010
0001
,
0000
0001
0100
0000
0010
1000
0100
0000
,
0011
0000
0000
1001
0000
0000
0101
0000
,
0000
1000
0010
1000
0000
0011
0000
2200
,
0000
0000
0000
0000
,
0000
0000
0000
0000
,
3300
0000
0000
0000
;

//---------------dance-single - ----------------
#NOTES:
     dance-single:
     :
     Easy:
     7:
     0.353872,0.454684,0.633677,0.362101,0.000000,301.000000,224.000000,77.000000,44.000000,0.000000,0.000000,0.353872,0.454684,0.633677,0.362101,0.000000,301.000000,224.000000,77.000000,44.000000,0.000000,0.000000:
0000
0000
0000
0000
,
0000
0000
0000
0000
,
0000
0000
0000
0000
,
0000
0000
0000
0000
,
1001
0000
1001
0000
2000
0000
0000
3200
,
0000
0000
0320
0000
0000
0130
0000
0000
,
1100
0000
0000
1001
0000
0000
0101
0000
,
0000
2000
0000
0000
0000
3010
0000
0000
,
1010
0000
1010
0000
0200
0000
0000
0302
,
0000
0000
0023
0000
0000
0031
0000
0000
,
0011
0000
0011
0000
0200
0000
0000
2300
,
0000
0000
3020
0000
0000
1030
0000
0000
,
0101
0000
0101
0000
0020
0000
0000
2030
,
0000
0000
3002
0000
0000
0013
0000
0000
,
1100
0000
0000
1001
0000
0000
0101
0000
,
0000
0220
0000
0000
0000
0000
0000
0000
,
0000
0000
0000
0330
,
1001
0000
0000
1000
0000
1000
0000
1100
,
0000
0000
0000
0011
0000
1000
0000
0000
,
1001
0000
0000
0001
0000
0001
0000
0101
,
0000
0000
0000
1010
0000
0001
0000
0000
,
1001
0000
0000
0100
0000
0100
0000
1001
,
0000
0000
0000
1001
0000
0010
0000
0000
,
2000
0000
0000
3200
0000
0000
0320
0000
,
0000
0031
0000
1001
0000
0000
0001
0000
,
1000
0000
0000
0010
0000
0000
0001
0000
,
0000
0010
0000
0000
1000
0000
1000
0000
,
0001
0000
0000
0010
0000
0000
0001
0000
,
1000
0010
0100
0001
,
1000
0000
0000
0100
0000
0000
0001
0000
,
0000
0100
0000
0000
1000
0000
1000
0000
,
1001
0000
0000
0110
0000
0000
1001
0000
,
0000
0110
0000
2002
0000
0000
3003
0000
,
0101
0000
0101
0000
1000
0000
0000
1000
,
0000
0000
1000
0000
0000
1010
0000
0000
,
1100
0000
1100
0000
0001
0000
0000
0001
,
0000
0000
0001
0000
0000
0011
0000
0000
,
1010
0000
1010
0000
0001
0000
0000
0001
,
0000
0000
0001
0000
0000
0101
0000
0000
,
0011
0000
0011
0000
1000
0000
0000
1000
,
0000
0000
1000
0000
0000
0110
0000
0000
,
0001
0010
0100
1000
,
0010
0100
0001
1000
,
0200
0000
0000
0320
0000
0000
0032
0000
,
0203
0000
0000
0320
0000
0000
2030
0000
,
3001
0010
0001
0100
,
0010
1000
0100
1000
,
0002
0000
0000
0203
0000
0000
2300
0000
,
3002
0000
0000
0023
0000
0000
2030
0000
,
3100
0010
0001
1000
,
0010
0100
0001
1000
,
0002
0000
0000
0023
0000
0000
0230
0000
,
2300
0000
0000
3020
0000
0000
0130
0000
,
0101
0000
0000
1100
0000
0000
0101
0000
,
0000
1100
0000
0000
0000
0000
0000
0000
,
1010
0000
0000
0011
0000
0000
1010
0000
,
0000
0011
0000
0000
0000
0000
0000
0000
,
0011
0000
0000
0110
0000
0000
1100
0000
,
0000
0000
0000
0000
1010
0000
0000
0110
,
0000
0101
0000
0000
,
1001
0000
0000
0110
0000
0000
1001
0000
,
1001
0001
0010
0001
,
1001
1000
0010
1000
,
2002
0000
0000
0000
,
3000
0000
0000
0000
,
0000
0000
0000
0000
,
1003
0000
0000
0000
,
1001
0000
0000
0001
0000
0001
0000
0011
,
0000
0000
0000
1100
0000
0001
0000
0000
,
1001
0000
0000
1000
0000
1000
0000
1010
,
0000
0000
0000
0101
0000
1000
0000
0000
,
1001
0000
0000
0100
0000
0100
0000
1001
,
0000
0000
0000
1001
0000
0010
0000
0000
,
0002
0000
0000
0203
0000
0000
0320
0000
,
0000
1030
0000
1001
0000
0000
1000
0000
,
0001
0000
0000
0010
0000
0000
1000
0000
,
0000
0010
0000
0000
0001
0000
0001
0000
,
1000
0000
0000
0010
0000
0000
1000
0000
,
0001
0010
0100
1000
,
0001
0000
0000
0100
0000
0000
1000
0000
,
0000
0100
0000
0000
0001
0000
0001
0000
,
1001
0000
0000
0110
0000
0000
1001
0000
,
0000
0001
0000
0010
0000
1100
0000
0022
,
0000
0000
0000
0000
,
0000
0000
0000
0000
,
0033
0000
0000
0000
;

//---------------dance-single - ----------------
#NOTES:
     dance-single:
     :
     Beginner:
     3:
     0.170470,0.238709,0.090525,0.329183,0.000000,145.000000,134.000000,11.000000,40.000000,0.000000,0.000000,0.170470,0.238709,0.090525,0.329183,0.000000,145.000000,134.000000,11.000000,40.000000,0.000000,0.000000:
0000
0000
0000
0000
,
0000
0000
0000
0000
,
0000
0000
0000
0000
,
0000
0000
0000
0000
,
0010
0010
0020
0000
,
0000
0000
0000
0000
0000
0030
0000
0000
,
2002
0000
0000
0000
,
0000
3003
0000
0000
0000
0000
0000
0000
,
1000
1000
2000
0000
,
0000
0000
0000
0000
0000
3000
0000
0000
,
0001
0001
0002
0000
,
0000
0000
0000
0000
0000
0003
0000
0000
,
1000
1000
2000
0000
,
0000
0000
0000
0000
0000
3000
0000
0000
,
2002
0000
0000
3000
0000
0000
0003
0000
,
0000
0220
0000
0000
0000
0000
0000
0000
,
0000
0000
0330
0000
,
1000
0000
1000
0000
,
1000
0000
0010
0010
,
0010
0000
0010
0000
,
0010
0000
0001
0001
,
0001
0000
0001
0000
,
0001
0000
0100
0100
,
0200
0000
0000
0300
0000
0000
2000
0000
,
0000
3000
0000
0010
0000
0000
0000
0000
,
1000
0000
0010
0000
,
1000
0000
0100
0100
,
0100
0000
0010
0000
,
0100
0100
0100
0000
,
1000
0000
0001
0000
,
1000
0000
0010
0010
,
0020
0000
0000
0030
0000
0000
0200
0000
,
0000
0300
0000
0001
0000
0000
0000
0000
,
1000
1000
2000
0000
,
0000
0000
0000
0000
0000
3000
0000
0000
,
0001
0001
0002
0000
,
0000
0000
0000
0000
0000
0003
0000
0000
,
1000
1000
2000
0000
,
0000
0000
0000
0000
0000
3000
0000
0000
,
0001
0001
0002
0000
,
0000
0000
0000
0000
0000
0003
0000
0000
,
1000
0000
0100
0000
,
0010
0000
0001
0000
,
0200
0000
0000
0300
0000
0000
0010
0000
,
0020
0000
0000
0030
0000
0000
1000
0000
,
1000
0000
0010
0000
,
1000
0000
0100
0000
,
0020
0000
0000
0030
0000
0000
0100
0000
,
0200
0000
0000
0300
0000
0000
0010
0000
,
0010
0000
0001
0000
,
1000
0000
0010
0000
,
0200
0000
0000
0300
0000
0000
0001
0000
,
0002
0000
0000
0003
0000
0000
1000
0000
,
2000
0000
0000
3000
0000
0000
0002
0000
,
0000
0003
0000
0000
0000
0000
0000
0000
,
0002
0000
0000
0003
0000
0000
2000
0000
,
0000
3000
0000
0000
0000
0000
0000
0000
,
2002
0000
0000
3000
0000
0000
0003
0000
,
0000
0000
0000
0000
2002
0000
0000
0003
,
0000
3000
0000
0000
,
0220
0000
0000
0300
0000
0000
0030
0000
,
1001
0000
0000
0000
,
0110
0000
0000
0000
,
2002
0000
0000
0000
,
3003
0000
0000
0000
,
0000
0000
0000
0000
,
0000
0000
0000
0000
,
0001
0000
0001
0000
,
0001
0000
0010
0010
,
0010
0000
0010
0000
,
0010
0000
1000
1000
,
1000
0000
1000
0000
,
1000
0000
0100
0100
,
0200
0000
0000
0300
0000
0000
0002
0000
,
0000
0003
0000
0010
0000
0000
0000
0000
,
0001
0000
0010
0000
,
0001
0000
0100
0100
,
0100
0000
0010
0000
,
0100
0100
0100
0000
,
0001
0000
1000
0000
,
0001
0000
0010
0010
,
0020
0000
0000
0030
0000
0000
0200
0000
,
0000
0300
0000
0000
0000
1001
0000
1001
;
