#VERSION:0.83;
#TITLE:WICKeD CROSS;
#SUBTITLE:;
#ARTIST:OSTER project;
#TITLETRANSLIT:;
#SUBTITLETRANSLIT:;
#ARTISTTRANSLIT:;
#GENRE:Gothic Rock;
#ORIGIN:;
#CREDIT:;
#BANNER:WICKeD CROSS.png;
#BACKGROUND:WICKeD CROSS-bg.png;
#PREVIEWVID:;
#JACKET:WICKeD CROSS-jacket.png;
#CDIMAGE:;
#DISCIMAGE:;
#LYRICSPATH:;
#CDTITLE:cdtitle.png;
#MUSIC:WICKeD CROSS.ogg;
#OFFSET:-0.008719;
#SAMPLESTART:12.013719;
#SAMPLELENGTH:13.333334;
#SELECTABLE:YES;
#BPMS:0.000=180.000,
70.000=90.000,
84.000=180.000,
124.000=90.000,
136.000=180.000,
148.000=90.000,
154.000=45.000,
155.000=180.000,
242.000=90.000;
#STOPS:32.000=0.667,
159.000=1.000,
192.000=0.667;
#DELAYS:;
#WARPS:;
#TIMESIGNATURES:0.000=4=4;
#TICKCOUNTS:0.000=4;
#COMBOS:0.000=1;
#SPEEDS:0.000=1.000=0.000=0;
#SCROLLS:0.000=1.000;
#FAKES:;
#LABELS:0.000=Song Start;
#BGCHANGES:;
#KEYSOUNDS:;
#ATTACKS:
;

//---------------dance-single - ----------------
#NOTEDATA:;
#CHARTNAME:;
#STEPSTYPE:dance-single;
#DESCRIPTION:;
#CHARTSTYLE:;
#DIFFICULTY:Challenge;
#METER:17;
#RADARVALUES:0.858406,1.095725,0.201824,0.357778,1.059575,655.000000,633.000000,22.000000,39.000000,0.000000,0.000000,0.000000,0.000000,0.000000,0.858406,1.095725,0.201824,0.357778,1.059575,655.000000,633.000000,22.000000,39.000000,0.000000,0.000000,0.000000,0.000000,0.000000;
#CREDIT:;
#OFFSET:-0.008719;
#BPMS:0.000000=180.000000
,74.000000=90.000000
,86.000000=180.000000
,126.000000=90.000000
,138.000000=180.000000
,150.000000=90.000000
,156.000000=45.000000
,157.000000=180.000000
,244.000000=90.000000
;
#STOPS:32.000000=0.666666
,161.000000=0.999999
,194.000000=0.666663
;
#DELAYS:;
#WARPS:;
#TIMESIGNATURES:0.000000=4=4
;
#TICKCOUNTS:0.000000=4
;
#COMBOS:0.000000=1
;
#SPEEDS:0.000000=1.000000=0.000000=0
;
#SCROLLS:0.000000=1.000000
,70.500000=0.937500
,71.000000=0.875000
,71.500000=0.812500
,72.000000=0.750000
,72.500000=0.687500
,73.000000=0.625000
,73.500000=0.562500
,74.000000=1.000000
;
#FAKES:;
#LABELS:0.000000=Song Start
;
#NOTES:
// measure 0
0000
0000
0000
0000
,  // measure 1
0000
0000
0000
0000
,  // measure 2
0000
0000
0000
0000
,  // measure 3
0000
0000
0000
0000
,  // measure 4
0011
0000
0000
0000
1000
0000
0010
1000
0010
0000
0000
0000
1001
0000
0000
0000
,  // measure 5
1000
0100
1000
0001
0100
0001
1000
0100
,  // measure 6
0120
0000
0100
0100
0100
0100
0100
0130
,  // measure 7
0010
0010
0001
0001
1000
1000
0010
0010
,  // measure 8
0100
0000
0000
0000
0001
0100
0010
1000
0001
0000
1000
0100
1000
0000
0100
0000
,  // measure 9
0110
0000
0010
0001
1000
0001
1000
0001
0100
0000
0001
0100
0001
0000
0100
0000
,  // measure 10
0110
0000
0010
1000
0001
1000
0001
1000
0100
0000
0010
0100
0010
0000
0001
0000
,  // measure 11
1001
0000
1000
0001
0100
0010
0100
0010
1000
0000
0001
0100
0001
0000
1000
0100
,  // measure 12
0010
0001
0010
0001
1000
0010
1000
0010
0100
0000
0001
1000
0100
0000
0010
0000
,  // measure 13
0001
1000
0010
1000
0001
1000
0100
1000
0001
0000
1000
0001
0100
0000
0010
0000
,  // measure 14
1000
0001
0010
0001
1000
0001
0100
0001
1000
0000
0100
0010
0001
0000
1000
0000
,  // measure 15
0001
0100
0010
0100
0001
1000
0100
0010
0100
0000
1000
0001
1000
0000
0001
0000
,  // measure 16
0100
0010
1000
0100
0010
0001
1000
0010
0100
0001
0010
0100
,  // measure 17
1000
0010
0010
0001
0100
0100
2000
0000
0000
0000
0000
0000
,  // measure 18
0000
0000
0000
0000
0000
0000
0000
0000
3002
0103
0001
0100
0020
1030
0010
1000
,  // measure 19
0002
0013
0100
1000
0020
0130
0001
1000
0200
0310
0100
0010
0002
1003
0001
1000
,  // measure 20
0002
0103
0001
1000
0200
1300
0010
0100
0002
0000
0000
0000
0023
0000
0000
0000
,  // measure 21
2030
0000
0000
0000
3200
0000
0000
0000
0301
0010
0001
0000
0100
0001
0100
0000
,  // measure 22
0010
1000
0010
1000
0100
1000
0100
1000
0001
0000
0100
0010
0100
0000
0001
0000
,  // measure 23
1000
0000
0000
0100
0010
0100
0010
0000
0000
0001
0000
0000
1001
0000
0000
1000
0000
0000
0100
0000
0000
1000
0000
0000
,  // measure 24
1001
0001
0100
0001
1001
1000
0100
0010
,  // measure 25
0001
0001
0100
0010
1010
1000
0001
0010
,  // measure 26
0011
0001
1000
0010
0110
0100
0001
1000
,  // measure 27
0100
0000
0000
0000
0000
0000
0010
0000
0000
0100
0000
0000
1000
0000
0000
0001
0000
0000
1000
0000
0000
0001
0000
0000
0200
0000
0000
0000
0000
0000
0000
0000
0000
0000
0000
0000
0310
0000
0000
0000
1000
0000
0000
0000
0010
0000
0000
0000
,  // measure 28
0100
0010
0001
0010
0100
0010
2000
0000
0000
3001
0010
0100
,  // measure 29
0010
1000
0010
0100
0010
0001
1000
0010
1000
0001
0010
0001
,  // measure 30
1000
0100
0010
0001
0100
0010
2000
0000
0000
0000
0000
0000
,  // measure 31
0002
0000
0000
0000
3003
0000
0000
0000
1001
0000
1000
0010
1000
0010
0100
0010
,  // measure 32
1000
0001
0010
0100
2000
0000
3001
0010
0001
0010
0100
0010
0001
1000
0010
0100
,  // measure 33
0002
0000
1003
0100
0010
0100
0001
0100
0010
0100
1000
0001
0200
0000
0301
0100
,  // measure 34
1000
0000
0100
0000
0001
0000
0010
0000
0100
1000
0100
1000
0001
0100
0001
0100
0010
0000
1000
0000
0010
0000
1000
0000
0001
0000
1000
0000
0001
0000
1000
0000
,  // measure 35
0100
1000
0100
1000
0001
0010
0001
0010
0001
1000
0001
1000
0010
1000
0010
1000
,  // measure 36
0001
0010
0001
0010
0001
1000
0001
1000
0001
0100
0001
0100
0010
1000
0010
1000
,  // measure 37
0001
0010
0100
1000
0001
0010
0100
1000
0002
0000
1003
0010
0100
0001
0020
0031
,  // measure 38
1000
0020
1030
0001
0020
0000
0031
0000
0100
0000
1000
0000
0010
0000
0001
0000
,  // measure 39
2002
3003
0001
0001
0100
0100
0010
0010
,  // measure 40
1000
0000
1000
0000
0100
0000
0000
0000
1000
0000
0100
0000
0010
0000
0001
0100
,  // measure 41
0010
0000
0100
0001
0010
0000
0200
0000
0310
0100
1000
0001
0100
0000
0010
0000
,  // measure 42
1000
0001
0010
0000
0200
0000
0010
0000
0310
0000
0001
0000
1000
0000
0001
0000
,  // measure 43
0100
0010
0100
0000
1000
0000
0100
0000
0010
0100
0001
0000
0100
0001
1000
0000
,  // measure 44
0100
0000
0010
0001
1000
0000
0010
1000
0001
0000
0100
0000
0010
0000
1000
0100
,  // measure 45
0010
0000
0100
1000
0010
0000
0200
0000
0310
0100
0001
1000
0100
0000
0010
0000
,  // measure 46
0001
1000
0010
0000
0200
0000
0001
0000
0301
0000
0010
0000
0100
0000
1000
0000
,  // measure 47
0010
0100
0001
0000
0010
0000
1000
0000
0010
0100
0010
0001
1000
0000
0001
0000
,  // measure 48
0100
0000
0010
0100
0010
0100
0001
1000
0100
0000
0000
0000
1001
0000
0000
0000
,  // measure 49
1000
0000
0000
0000
0010
0000
0000
0000
0001
0000
0000
0000
1000
0000
0000
0000
0100
0000
0000
0000
0001
0000
0000
0000
1000
0000
0000
0000
0100
0000
0000
0000
0001
0000
0000
0000
0100
0000
0000
0010
0000
0000
0100
0000
0000
1000
0000
0000
,  // measure 50
0001
0100
0001
0000
0100
0010
0100
0000
0010
0000
1002
0000
0000
0000
0013
0000
,  // measure 51
0210
0000
0000
0000
0000
0000
0000
0000
0000
0000
0000
0000
0310
0000
0000
0000
0001
0000
0000
0000
1000
0000
0000
0000
0020
0000
0000
0000
0000
0000
0000
0000
0000
0000
0000
0000
1030
0000
0000
0100
0000
0000
0010
0000
0000
0001
0000
0000
,  // measure 52
1000
0000
0010
1000
0010
0000
0100
0000
0101
0000
0001
0010
0100
1000
0100
1000
,  // measure 53
0001
0000
0010
0001
0010
0000
0100
0000
1100
0000
1000
0010
0100
0001
0100
0001
,  // measure 54
1000
0000
0100
0010
0100
0000
1000
0000
1001
0000
0001
1000
0010
0100
0010
0100
,  // measure 55
0001
0000
1000
0100
1000
0000
0001
0100
0010
1000
0001
1000
0100
1000
0001
1000
,  // measure 56
0010
0000
0100
0001
0010
0000
0100
0000
1000
0010
0100
0001
0010
0001
0100
0010
,  // measure 57
1000
0000
0100
1000
0010
0000
0100
0000
0001
0010
0100
1000
0010
1000
0100
0010
,  // measure 58
0001
0000
1000
0010
0100
0000
0001
0000
1000
0100
0010
0001
0100
0010
1000
0100
,  // measure 59
0010
0000
0000
0000
0000
0000
0001
0000
0000
0100
0000
0000
0010
0000
0000
0000
0000
0000
1000
0000
0000
0000
0000
0000
0001
0000
0000
0000
0100
0000
0000
0000
1000
0000
0000
0000
0100
0000
0000
0000
0010
0000
0000
0000
1000
0000
0000
0000
,  // measure 60
0001
0010
0100
0001
0100
1000
0001
0010
0010
1000
0100
0100
,  // measure 61
0002
0000
0000
0003
,  // measure 62
2002
0000
0000
0000
0000
0000
0000
3003
,  // measure 63
0000
0220
0000
0000
0000
0000
0000
0000
,  // measure 64
0000
0000
0000
0000
0000
0000
0000
0000
0000
0330
0000
0000
0000
0000
0000
0000
;

//---------------dance-single - ----------------
#NOTEDATA:;
#CHARTNAME:;
#STEPSTYPE:dance-single;
#DESCRIPTION:;
#CHARTSTYLE:;
#DIFFICULTY:Hard;
#METER:13;
#RADARVALUES:0.545186,0.592284,0.366952,0.394474,0.105499,416.000000,376.000000,40.000000,43.000000,0.000000,0.000000,0.000000,0.000000,0.000000,0.545186,0.592284,0.366952,0.394474,0.105499,416.000000,376.000000,40.000000,43.000000,0.000000,0.000000,0.000000,0.000000,0.000000;
#CREDIT:;
#OFFSET:-0.008719;
#BPMS:0.000000=180.000000
,74.000000=90.000000
,86.000000=180.000000
,126.000000=90.000000
,138.000000=180.000000
,150.000000=90.000000
,156.000000=45.000000
,157.000000=180.000000
,244.000000=90.000000
;
#STOPS:32.000000=0.666666
,161.000000=0.999999
,194.000000=0.666663
;
#DELAYS:;
#WARPS:;
#TIMESIGNATURES:0.000000=4=4
;
#TICKCOUNTS:0.000000=4
;
#COMBOS:0.000000=1
;
#SPEEDS:0.000000=1.000000=0.000000=0
;
#SCROLLS:0.000000=1.000000
,70.500000=0.937500
,71.000000=0.875000
,71.500000=0.812500
,72.000000=0.750000
,72.500000=0.687500
,73.000000=0.625000
,73.500000=0.562500
,74.000000=1.000000
;
#FAKES:;
#LABELS:0.000000=Song Start
;
#NOTES:
// measure 0
0000
0000
0000
0000
,  // measure 1
0000
0000
0000
0000
,  // measure 2
0000
0000
0000
0000
,  // measure 3
0000
0000
0000
0000
,  // measure 4
1001
0100
1001
0110
,  // measure 5
1000
0100
0010
0001
1000
0100
0010
0001
,  // measure 6
0200
0000
0310
0100
0010
0100
0010
0100
,  // measure 7
0001
0010
0100
1000
0010
0100
0001
1000
,  // measure 8
0100
0010
1001
0000
,  // measure 9
0011
0110
1100
0000
,  // measure 10
1010
0110
0101
0000
,  // measure 11
1001
0000
0110
0000
0001
1000
0001
1000
,  // measure 12
0200
0000
0320
0000
0031
0100
0010
0100
,  // measure 13
0001
0010
0100
1000
0010
0100
0010
1000
,  // measure 14
0100
0010
0001
1000
0001
0100
0001
1000
,  // measure 15
0100
0010
0100
1000
0010
0100
0001
0010
,  // measure 16
0001
0000
0001
0100
0000
0100
0010
0000
0010
1000
0000
1000
,  // measure 17
0100
0000
0100
0010
0000
0010
0002
0000
0000
0000
0000
0000
,  // measure 18
0000
0000
0000
0000
2003
3100
0020
0130
,  // measure 19
2000
3010
0002
0013
2000
3001
0020
0031
,  // measure 20
0200
1300
0200
0301
0020
0000
0230
0000
,  // measure 21
2300
3001
0101
0110
,  // measure 22
1010
0000
1001
0000
0001
0010
0100
1000
,  // measure 23
0010
0100
0001
0000
1000
0100
1000
0100
,  // measure 24
0010
0100
0010
0100
1000
0100
0001
0100
,  // measure 25
1000
0100
0010
0001
0100
0001
0100
0001
,  // measure 26
0100
0010
0100
0010
0100
0001
0100
0010
,  // measure 27
0100
0000
0000
1000
0000
0000
0100
0000
0000
0001
0000
0000
0020
0000
0000
0000
0000
0000
0130
0000
0000
0000
0100
0000
,  // measure 28
1000
0000
1000
0001
0000
0001
0200
0000
0000
0310
0000
0010
,  // measure 29
1000
0000
1000
0001
0000
0000
0011
0000
0000
0110
0000
0000
,  // measure 30
1100
1001
0201
0000
,  // measure 31
0020
0000
0330
0000
2001
3010
1000
0200
,  // measure 32
0301
0100
2000
3010
0100
0002
0103
1000
,  // measure 33
0200
0301
0010
0200
1300
0001
0200
0310
,  // measure 34
0100
0000
1001
0000
1000
0100
0010
0001
1000
0000
0010
0000
1000
0000
0010
0000
,  // measure 35
1000
0010
0001
0010
0100
0010
1000
0001
,  // measure 36
1000
0100
1000
0100
1000
0100
0001
0100
,  // measure 37
0010
0100
1000
0001
0200
0310
1000
1010
,  // measure 38
0000
1001
0000
0000
0021
0000
0100
0000
0130
0000
1000
0000
0001
0000
0100
0000
,  // measure 39
0220
0330
0001
0010
0001
0010
1000
0010
,  // measure 40
1000
0010
0001
0000
0001
0100
0010
0100
,  // measure 41
0001
0010
0100
0002
0000
0103
0010
0100
,  // measure 42
1000
0001
0200
0000
0310
1000
0001
1000
,  // measure 43
0100
1000
0100
0010
0001
0100
0001
0100
,  // measure 44
0010
1000
1000
0001
1000
0100
0010
0100
,  // measure 45
1000
0010
0100
2000
0000
3100
0010
0100
,  // measure 46
0001
1000
0200
0000
0310
0001
1000
0010
,  // measure 47
0001
0010
1000
0001
1000
0100
0010
0100
,  // measure 48
0001
0100
2000
0000
3001
0000
0110
0000
,  // measure 49
1001
0000
1000
0010
0000
0010
0100
0000
0100
0002
0000
0000
,  // measure 50
1003
0010
0100
0001
1000
0200
0000
0301
,  // measure 51
0200
0000
0300
0000
0110
0000
1000
0001
,  // measure 52
1000
0000
1010
1001
,  // measure 53
1100
0000
0011
1001
,  // measure 54
0101
0000
1001
0110
,  // measure 55
0001
0100
0010
1000
0100
0010
0001
0000
,  // measure 56
1000
0010
0100
0010
0001
0010
0100
0010
,  // measure 57
1000
0100
0010
0100
0001
0100
0010
0100
,  // measure 58
1000
0001
0100
0010
0100
1000
0100
0010
,  // measure 59
1000
0000
0000
0100
0000
0000
0001
0000
0000
0100
0000
0000
1000
0000
0000
0000
1000
0000
0010
0000
0000
0000
0010
0000
,  // measure 60
0100
0000
0100
0001
0000
0001
0010
0000
0010
0100
0000
0100
,  // measure 61
2000
0000
0000
3000
,  // measure 62
2002
0000
0000
0000
0000
0000
0000
3003
,  // measure 63
0000
0220
0000
0000
0000
0000
0000
0000
,  // measure 64
0000
0000
0000
0000
0000
0000
0000
0000
0000
0330
0000
0000
0000
0000
0000
0000
;

//---------------dance-single - ----------------
#NOTEDATA:;
#CHARTNAME:;
#STEPSTYPE:dance-single;
#DESCRIPTION:;
#CHARTSTYLE:;
#DIFFICULTY:Medium;
#METER:9;
#RADARVALUES:0.389232,0.528927,0.293562,0.504559,0.004587,297.000000,265.000000,32.000000,55.000000,0.000000,0.000000,0.000000,0.000000,0.000000,0.389232,0.528927,0.293562,0.504559,0.004587,297.000000,265.000000,32.000000,55.000000,0.000000,0.000000,0.000000,0.000000,0.000000;
#CREDIT:;
#OFFSET:-0.008719;
#BPMS:0.000000=180.000000
,70.000000=90.000000
,84.000000=180.000000
,124.000000=90.000000
,136.000000=180.000000
,148.000000=90.000000
,154.000000=180.000000
,242.000000=90.000000
;
#STOPS:32.000000=0.666666
,154.000000=0.999999
,159.000000=0.999999
,192.000000=0.666663
;
#DELAYS:;
#WARPS:;
#TIMESIGNATURES:0.000000=4=4
;
#TICKCOUNTS:0.000000=4
;
#COMBOS:0.000000=1
;
#SPEEDS:0.000000=1.000000=0.000000=0
;
#SCROLLS:0.000000=1.000000
;
#FAKES:;
#LABELS:0.000000=Song Start
;
#NOTES:
// measure 0
0000
0000
0000
0000
,  // measure 1
0000
0000
0000
0000
,  // measure 2
0000
0000
0000
0000
,  // measure 3
0000
0000
0000
0000
,  // measure 4
0220
0330
1001
1001
,  // measure 5
0001
0010
0100
1000
,  // measure 6
0020
1000
1000
1000
,  // measure 7
0230
0001
0001
0301
,  // measure 8
1001
0000
1001
0000
,  // measure 9
0001
0010
0011
0000
,  // measure 10
1000
0010
1010
0000
,  // measure 11
0001
0100
0010
1000
,  // measure 12
0100
0100
1000
0010
,  // measure 13
1000
0010
1000
0010
1000
0000
0001
0000
,  // measure 14
1000
0100
1000
0100
1000
0000
0001
0000
,  // measure 15
0100
0010
0100
0010
0100
0000
0001
0000
,  // measure 16
2000
3200
0302
2003
,  // measure 17
3020
0032
0203
0000
,  // measure 18
0301
0100
0001
1000
0001
0010
0001
1000
,  // measure 19
0010
1000
0001
1000
0100
1000
0001
0100
,  // measure 20
0020
2030
3002
0013
,  // measure 21
1100
1000
0101
0001
,  // measure 22
1000
0000
0100
0000
0010
0001
0100
0000
,  // measure 23
0010
0000
1000
0001
0100
0000
0100
0001
,  // measure 24
1000
0000
0001
0010
0001
0010
0001
0000
,  // measure 25
1000
0000
0001
1000
0100
0000
0100
1000
,  // measure 26
0001
0000
1000
0010
1000
0010
1000
0000
,  // measure 27
0002
0203
0320
2030
,  // measure 28
3002
0023
0230
2300
,  // measure 29
3002
0203
2300
3200
,  // measure 30
0302
0000
2000
3003
,  // measure 31
1000
0100
1000
0001
0010
0001
1000
0010
,  // measure 32
1000
0001
0100
0001
1000
0100
0001
1000
,  // measure 33
0010
0001
1000
0010
0001
1000
0100
0001
,  // measure 34
1002
0010
0013
0011
,  // measure 35
0100
1000
0100
0000
2001
0000
0010
0000
,  // measure 36
3010
1010
0110
0101
,  // measure 37
2002
0000
0000
3003
0000
0000
1000
0000
0000
0100
0000
0000
0022
0000
0000
0000
,  // measure 38
0033
0000
1001
0100
,  // measure 39
0100
0100
0100
0100
,  // measure 40
0001
0000
0001
0000
0010
0001
1000
0020
,  // measure 41
0000
0130
0001
0000
0101
0000
1010
0000
,  // measure 42
0001
0000
0001
0000
1000
0100
1000
0000
,  // measure 43
0001
0100
0001
0000
0100
0000
0010
0000
,  // measure 44
1000
0000
1000
0000
0010
1000
0001
0020
,  // measure 45
0000
0130
1000
0000
1100
0000
0011
0000
,  // measure 46
1000
0000
1000
0000
0010
0100
0001
0000
,  // measure 47
0010
0100
1000
0000
0010
0000
0010
0000
,  // measure 48
1001
0110
0002
0023
,  // measure 49
2030
3200
0301
0001
,  // measure 50
1000
0200
0000
0310
0002
0000
0003
0000
,  // measure 51
0220
0330
1001
0000
,  // measure 52
1000
0010
0101
0000
,  // measure 53
0001
0010
1100
0000
,  // measure 54
1000
0001
0100
1000
,  // measure 55
1100
0101
0001
0010
,  // measure 56
0100
1000
0001
1000
0010
0000
0100
0000
,  // measure 57
0010
1000
0001
1000
0100
0000
0010
0000
,  // measure 58
0001
0010
0100
1000
0001
0000
1000
0000
,  // measure 59
0002
0203
2300
3002
,  // measure 60
0023
2030
3200
0000
,  // measure 61
0000
0300
2002
0000
,  // measure 62
0000
0000
0000
3003
0000
0220
0000
0000
,  // measure 63
0000
0000
0000
0000
,  // measure 64
0000
0330
0000
0000
0000
0000
0000
0000
0000
0000
0000
0000
0000
0000
0000
0000
;

//---------------dance-single - ----------------
#NOTEDATA:;
#CHARTNAME:;
#STEPSTYPE:dance-single;
#DESCRIPTION:;
#CHARTSTYLE:;
#DIFFICULTY:Easy;
#METER:6;
#RADARVALUES:0.258177,0.293849,0.128433,0.486212,0.000000,197.000000,183.000000,14.000000,53.000000,0.000000,0.000000,0.000000,0.000000,0.000000,0.258177,0.293849,0.128433,0.486212,0.000000,197.000000,183.000000,14.000000,53.000000,0.000000,0.000000,0.000000,0.000000,0.000000;
#CREDIT:;
#OFFSET:-0.008719;
#BPMS:0.000000=180.000000
,70.000000=90.000000
,84.000000=180.000000
,124.000000=90.000000
,136.000000=180.000000
,148.000000=90.000000
,154.000000=180.000000
,242.000000=90.000000
;
#STOPS:32.000000=0.666666
,154.000000=0.999999
,159.000000=0.999999
,192.000000=0.666663
;
#DELAYS:;
#WARPS:;
#TIMESIGNATURES:0.000000=4=4
;
#TICKCOUNTS:0.000000=4
;
#COMBOS:0.000000=1
;
#SPEEDS:0.000000=1.000000=0.000000=0
;
#SCROLLS:0.000000=1.000000
;
#FAKES:;
#LABELS:0.000000=Song Start
;
#NOTES:
// measure 0
0000
0000
0000
0000
,  // measure 1
0000
0000
0000
0000
,  // measure 2
0000
0000
0000
0000
,  // measure 3
0000
0000
0000
0000
,  // measure 4
0220
0330
1000
0001
,  // measure 5
1000
0100
0010
0001
,  // measure 6
0200
0000
0000
0000
,  // measure 7
0020
0000
0000
0000
,  // measure 8
0330
0000
1001
0000
,  // measure 9
0001
0010
0100
0000
,  // measure 10
1000
0010
0100
0000
,  // measure 11
0001
1000
0100
0100
,  // measure 12
0010
0010
0001
0100
,  // measure 13
0001
0100
0010
1000
,  // measure 14
0010
1000
0001
0010
,  // measure 15
0001
0010
0100
1000
,  // measure 16
0002
0203
0320
2030
,  // measure 17
3200
0320
0032
0000
,  // measure 18
1003
1000
0010
0010
,  // measure 19
0001
0001
0100
0100
,  // measure 20
2000
3020
0230
0302
,  // measure 21
0013
0010
0100
0100
,  // measure 22
1000
0010
0100
0001
,  // measure 23
1000
0000
0100
0000
,  // measure 24
0001
0000
0010
1000
,  // measure 25
0001
0000
0100
0000
,  // measure 26
1000
0000
0010
0001
,  // measure 27
0022
0033
0001
1000
,  // measure 28
2020
3030
1000
0001
,  // measure 29
0010
0100
0010
0100
,  // measure 30
2000
0000
0002
3003
,  // measure 31
1000
0000
0000
0010
0000
0000
0100
0000
,  // measure 32
0000
0001
0000
0000
0020
0000
0000
0230
,  // measure 33
0000
0000
2300
0000
0000
3001
0100
0010
,  // measure 34
2020
0000
3030
1000
,  // measure 35
0100
0010
0022
0000
,  // measure 36
0033
0001
1000
0010
,  // measure 37
0220
0000
0000
0330
0000
0000
2002
0000
,  // measure 38
3003
0000
0100
2002
,  // measure 39
0000
0000
0000
3003
,  // measure 40
0001
0010
0001
0020
,  // measure 41
0000
0130
1000
1000
,  // measure 42
0001
0100
0001
1000
,  // measure 43
0100
1000
0001
0000
,  // measure 44
1000
0010
1000
0020
,  // measure 45
0000
0130
0001
0001
,  // measure 46
1000
0100
0010
0001
,  // measure 47
1000
0010
0100
0001
,  // measure 48
0010
1001
0002
0023
,  // measure 49
0230
2300
3001
0001
,  // measure 50
0100
0000
1002
0000
,  // measure 51
2000
3003
1001
0000
,  // measure 52
0001
0010
0100
0000
,  // measure 53
1000
0010
0100
0000
,  // measure 54
0001
1000
0100
0100
,  // measure 55
0010
0001
1000
0010
,  // measure 56
1000
0001
1000
0100
,  // measure 57
1000
0001
0010
0001
,  // measure 58
1000
0001
0100
0001
,  // measure 59
2000
3200
0320
0032
,  // measure 60
0203
0320
2030
0000
,  // measure 61
0000
3000
2002
0000
,  // measure 62
0000
0000
0000
3003
0000
0220
0000
0000
,  // measure 63
0000
0000
0000
0000
,  // measure 64
0000
0330
0000
0000
0000
0000
0000
0000
0000
0000
0000
0000
0000
0000
0000
0000
;

//---------------dance-single - ----------------
#NOTEDATA:;
#CHARTNAME:;
#STEPSTYPE:dance-single;
#DESCRIPTION:;
#CHARTSTYLE:;
#DIFFICULTY:Beginner;
#METER:3;
#RADARVALUES:0.137607,0.215011,0.045869,0.174302,0.000000,105.000000,100.000000,5.000000,19.000000,0.000000,0.000000,0.000000,0.000000,0.000000,0.137607,0.215011,0.045869,0.174302,0.000000,105.000000,100.000000,5.000000,19.000000,0.000000,0.000000,0.000000,0.000000,0.000000;
#CREDIT:;
#OFFSET:-0.008719;
#BPMS:0.000000=180.000000
;
#STOPS:;
#DELAYS:;
#WARPS:;
#TIMESIGNATURES:0.000000=4=4
;
#TICKCOUNTS:0.000000=4
;
#COMBOS:0.000000=1
;
#SPEEDS:0.000000=1.000000=0.000000=0
;
#SCROLLS:0.000000=1.000000
;
#FAKES:;
#LABELS:0.000000=Song Start
;
#NOTES:
// measure 0
0000
0000
0000
0000
,  // measure 1
0000
0000
0000
0000
,  // measure 2
0000
0000
0000
0000
,  // measure 3
0000
0000
0000
0000
,  // measure 4
2002
0000
3003
0000
,  // measure 5
1000
0000
0001
0000
,  // measure 6
0020
0000
0030
0000
,  // measure 7
0200
0000
0000
0000
,  // measure 8
0300
0000
0000
0000
,  // measure 9
1000
0000
1000
0000
,  // measure 10
0010
0000
0010
0000
,  // measure 11
0100
0000
0100
0000
,  // measure 12
0001
0000
0001
0000
,  // measure 13
1000
0000
0100
0000
,  // measure 14
1000
0000
0100
0000
,  // measure 15
0010
0000
0001
0000
,  // measure 16
0010
0000
0100
0000
,  // measure 17
1000
0000
0001
0000
,  // measure 18
0100
0000
0000
0000
,  // measure 19
0010
0000
0000
0000
,  // measure 20
0100
0000
0000
0000
,  // measure 21
0010
0000
0000
0000
,  // measure 22
0100
0000
0000
0000
,  // measure 23
0002
0000
0003
0000
,  // measure 24
2000
0000
3000
0000
,  // measure 25
0100
0000
0100
0000
,  // measure 26
1000
0000
0001
0000
,  // measure 27
0100
0000
0100
0000
,  // measure 28
0010
0000
0100
0000
,  // measure 29
0001
0000
0001
0000
,  // measure 30
1000
0000
0001
0000
,  // measure 31
0020
0000
0030
0000
,  // measure 32
0200
0000
0300
0000
,  // measure 33
1000
0000
0001
0000
,  // measure 34
0200
0000
0300
0000
,  // measure 35
0001
0000
0000
0000
,  // measure 36
0000
0000
0010
0000
,  // measure 37
0000
0000
0000
0000
,  // measure 38
1000
0000
0000
0000
,  // measure 39
0000
0000
0100
0000
,  // measure 40
0000
0000
0000
0000
,  // measure 41
0002
0000
0000
0003
,  // measure 42
0000
0000
2000
0000
,  // measure 43
0000
3000
0000
0000
,  // measure 44
0100
0000
0000
0000
,  // measure 45
0000
0000
1001
0000
,  // measure 46
0000
0000
0000
0000
,  // measure 47
0010
0000
0000
0000
,  // measure 48
0020
0000
0000
0000
,  // measure 49
0030
0000
0000
0000
,  // measure 50
1000
0000
1000
0000
,  // measure 51
0100
0000
0010
0000
,  // measure 52
0001
0000
1000
0000
,  // measure 53
0001
0000
1000
0000
,  // measure 54
0001
0000
0001
0000
,  // measure 55
0100
0000
0010
0000
,  // measure 56
1000
0000
0100
0000
,  // measure 57
0010
0000
0001
0000
,  // measure 58
0100
0000
0000
0000
,  // measure 59
0010
0000
0010
0000
,  // measure 60
1000
0000
0001
0000
,  // measure 61
2002
0000
3003
0000
,  // measure 62
0001
0000
0001
0000
,  // measure 63
0010
0000
0010
0000
,  // measure 64
0100
0000
0100
0000
,  // measure 65
1000
0000
1000
0000
,  // measure 66
0001
0000
0100
0000
,  // measure 67
0001
0000
0100
0000
,  // measure 68
0010
0000
1000
0000
,  // measure 69
0010
0000
0100
0000
,  // measure 70
0001
0000
1000
0000
,  // measure 71
0200
0000
0000
0000
,  // measure 72
0000
0000
0300
0000
,  // measure 73
2002
0000
0000
0000
,  // measure 74
0000
0000
0000
3003
,  // measure 75
0000
0220
0000
0000
,  // measure 76
0000
0000
0000
0000
,  // measure 77
0000
0000
0000
0000
,  // measure 78
0000
0330
0000
0000
0000
0000
0000
0000
;
