#VERSION:0.83;
#TITLE:Votania Beat;
#SUBTITLE:;
#ARTIST:まろん vs. ビートまりお;
#TITLETRANSLIT:;
#SUBTITLETRANSLIT:;
#ARTISTTRANSLIT:MARON vs. beatMARIO;
#GENRE:Hyperbeat;
#ORIGIN:;
#CREDIT:;
#BANNER:Votania Beat.png;
#BACKGROUND:Votania Beat-bg.png;
#PREVIEWVID:;
#JACKET:Votania Beat-jacket.png;
#CDIMAGE:;
#DISCIMAGE:;
#LYRICSPATH:;
#CDTITLE:cdtitle.png;
#MUSIC:Votania Beat.ogg;
#OFFSET:-0.175138;
#SAMPLESTART:55.958923;
#SAMPLELENGTH:10.378380;
#SELECTABLE:YES;
#BPMS:0.000=185.000;
#STOPS:;
#DELAYS:;
#WARPS:;
#TIMESIGNATURES:0.000=4=4;
#TICKCOUNTS:0.000=4;
#COMBOS:0.000=1;
#SPEEDS:0.000=1.000=0.000=0;
#SCROLLS:0.000=1.000;
#FAKES:;
#LABELS:0.000=Song Start;
#BGCHANGES:;
#KEYSOUNDS:;
#ATTACKS:
;

//---------------dance-single - ----------------
#NOTEDATA:;
#CHARTNAME:;
#STEPSTYPE:dance-single;
#DESCRIPTION:;
#CHARTSTYLE:;
#DIFFICULTY:Beginner;
#METER:3;
#RADARVALUES:0.192415,0.255606,0.061223,0.201161,0.000000,154.000000,147.000000,7.000000,23.000000,0.000000,0.000000,0.000000,0.000000,0.000000,0.192415,0.255606,0.061223,0.201161,0.000000,154.000000,147.000000,7.000000,23.000000,0.000000,0.000000,0.000000,0.000000,0.000000;
#CREDIT:;
#NOTES:
// measure 0
0000
0000
0000
0000
,  // measure 1
0000
0000
0000
0000
,  // measure 2
1000
0000
1000
0000
,  // measure 3
0100
0000
0010
0000
,  // measure 4
0001
0000
0001
0000
,  // measure 5
0100
0000
0010
0000
,  // measure 6
1000
0000
1000
0000
,  // measure 7
0100
0000
0010
0000
,  // measure 8
0001
0000
1000
0000
,  // measure 9
0002
0000
0003
0000
,  // measure 10
0100
0000
0100
0000
,  // measure 11
0100
0000
0100
0000
,  // measure 12
0010
0000
0100
0000
,  // measure 13
0020
0000
0030
0000
,  // measure 14
1000
0000
1000
0000
,  // measure 15
1000
0000
1000
0000
,  // measure 16
0001
0000
1000
0000
,  // measure 17
0002
0000
0003
0000
,  // measure 18
0010
0000
0010
0000
,  // measure 19
0100
0000
0100
0000
,  // measure 20
0010
0000
0100
0000
,  // measure 21
0020
0000
0030
0000
,  // measure 22
0001
0000
0001
0000
,  // measure 23
1000
0000
1000
0000
,  // measure 24
0001
0000
1000
0000
,  // measure 25
0002
0000
0003
0000
,  // measure 26
0000
2002
0000
0000
,  // measure 27
0000
0000
0000
0000
0000
3003
0000
0000
,  // measure 28
0001
0000
0100
0000
,  // measure 29
0010
0000
1000
0000
,  // measure 30
0000
2002
0000
0000
,  // measure 31
0000
0000
0000
0000
0000
3003
0000
0000
,  // measure 32
1000
0000
0100
0000
,  // measure 33
0020
0000
0030
0000
,  // measure 34
0001
0000
0001
0000
,  // measure 35
1000
0000
1000
0000
,  // measure 36
0010
0000
0010
0000
,  // measure 37
0100
0000
0100
0000
,  // measure 38
2002
0000
0000
3003
0000
0000
0000
0000
,  // measure 39
0220
0000
0000
0330
0000
0000
0000
0000
,  // measure 40
0001
0000
1000
0000
,  // measure 41
2002
0000
0000
0000
,  // measure 42
3003
0000
0000
0000
,  // measure 43
0001
0000
0001
0000
,  // measure 44
0010
0010
0010
0000
,  // measure 45
0100
0000
0100
0000
,  // measure 46
1000
1000
1000
0000
,  // measure 47
0010
0000
0010
0000
,  // measure 48
0100
0100
0100
0000
,  // measure 49
0001
0000
1000
0000
,  // measure 50
2002
0000
3003
0000
,  // measure 51
0001
0000
1000
0000
,  // measure 52
0001
0001
0001
0000
,  // measure 53
0010
0000
0100
0000
,  // measure 54
0000
0010
0010
0000
,  // measure 55
0001
0000
0001
0000
,  // measure 56
1000
0000
1000
0000
,  // measure 57
0010
0000
0100
0000
,  // measure 58
0020
0000
0030
0000
,  // measure 59
1000
0000
0001
0000
,  // measure 60
2000
0000
3000
0000
,  // measure 61
0100
0000
0010
0000
,  // measure 62
0200
0000
0300
0000
,  // measure 63
0010
0000
0010
0000
,  // measure 64
0001
0000
1000
0000
,  // measure 65
0010
0000
0000
0000
,  // measure 66
1000
0000
1000
0000
,  // measure 67
0010
0000
0100
0000
,  // measure 68
0001
0000
0001
0000
,  // measure 69
0010
0000
0100
0000
,  // measure 70
1000
0000
1000
0000
,  // measure 71
0010
0000
0100
0000
,  // measure 72
0001
0000
1000
0000
,  // measure 73
0002
0000
0003
0000
,  // measure 74
0010
0010
0010
0000
,  // measure 75
0100
0100
0100
0000
,  // measure 76
1000
1000
1000
0000
,  // measure 77
0001
0001
0001
0000
,  // measure 78
0100
0100
0100
0000
,  // measure 79
0010
0010
0010
0000
,  // measure 80
1000
0000
0001
0000
,  // measure 81
2000
0000
3000
0000
,  // measure 82
0000
0000
0000
0000
,  // measure 83
0000
0000
1001
0000
;

//---------------dance-single - [B-SIDE] Car In Dumpster.png----------------
#NOTEDATA:;
#CHARTNAME:;
#STEPSTYPE:dance-single;
#DESCRIPTION:[B-SIDE] Car In Dumpster.png;
#CHARTSTYLE:;
#DIFFICULTY:Edit;
#METER:17;
#RADARVALUES:1.012055,1.205001,0.743423,0.306115,0.739050,810.000000,725.000000,85.000000,35.000000,12.000000,0.000000,0.000000,0.000000,0.000000,1.012055,1.205001,0.743423,0.306115,0.739050,810.000000,725.000000,85.000000,35.000000,12.000000,0.000000,0.000000,0.000000,0.000000;
#CREDIT:;
#NOTES:
// measure 0
0000
0000
0000
0000
,  // measure 1
0000
0000
0000
0000
,  // measure 2
1000
0000
0001
0010
0001
0000
1000
0010
1000
0000
0100
0000
0001
0000
0101
0000
,  // measure 3
0000
1100
1000
0010
0001
1000
0100
0001
,  // measure 4
0010
0000
0100
1000
0100
0000
1000
0010
1000
0000
0010
0000
0001
0000
0011
0000
,  // measure 5
0000
0000
1010
0000
0010
0000
1000
0000
0100
0010
0100
0010
0001
1000
0010
0100
,  // measure 6
0001
0000
1000
0010
1000
0000
0001
0010
0001
0000
0100
0000
1000
0000
1100
0000
,  // measure 7
0000
0101
0001
0010
1000
0001
0100
1000
,  // measure 8
0010
0000
0100
0001
0100
0000
0001
0010
0001
0000
0010
0000
1000
0000
1020
0000
,  // measure 9
0000
0130
0010
0001
1000
1000
0001
0100
,  // measure 10
0010
0100
0010
1010
0000
0010
1000
0100
,  // measure 11
0010
0100
0010
0011
0000
0010
0001
0100
,  // measure 12
0101
0000
0001
0000
0101
0000
0001
0000
1001
0000
0010
0001
0010
0000
0100
0000
,  // measure 13
2000
0000
0001
0000
3001
0000
1000
0010
0000
0010
0100
0010
1000
0001
1000
0100
,  // measure 14
0010
0100
0010
1100
0000
1000
0001
1000
,  // measure 15
0010
0100
0010
0101
0000
0001
1000
0001
,  // measure 16
0011
0010
1010
1000
1100
0100
0101
0001
,  // measure 17
2002
0000
0000
0000
3003
0000
0000
0000
0001
0010
0100
1000
0001
1000
0100
0010
,  // measure 18
0001
0000
0100
0000
1000
0000
1100
0000
0000
0000
0100
0010
0100
0000
0010
0000
,  // measure 19
1000
0000
0100
0000
0001
0000
0101
0000
0000
0000
0100
0010
0100
0000
1000
0000
,  // measure 20
1100
0000
1000
0000
1100
0000
1000
0000
1001
0000
0010
1000
0010
0000
0100
0000
,  // measure 21
0002
0000
1000
0000
1003
0000
0001
0010
0000
0010
0100
0010
0001
1000
0010
0100
,  // measure 22
0001
0000
0010
0000
1000
0000
1010
0000
0000
0000
0010
0100
0010
0000
0001
0000
,  // measure 23
1000
0000
0010
0000
0001
0000
0011
0000
0000
0000
0010
0100
0010
0000
1000
0000
,  // measure 24
1010
1000
1100
0100
0011
0001
0101
0100
,  // measure 25
2001
0000
0000
0000
3010
0100
0010
0100
0010
0100
0001
1000
0100
0000
0010
0000
,  // measure 26
MMMM
0000
0011
0000
0022
0000
0033
0011
,  // measure 27
0000
0000
0011
0000
0110
0000
0011
0000
0000
0000
1002
0000
0000
0000
0013
0001
,  // measure 28
1000
0010
1000
0010
0100
0000
0001
0010
0001
0010
0100
0000
1000
0001
1000
0001
,  // measure 29
1000
0010
0100
0001
1000
0000
0100
0010
0000
0010
0001
0000
0100
0000
0010
0000
,  // measure 30
MMMM
0000
1010
0000
2020
0000
3030
1010
,  // measure 31
0000
0000
1010
0000
0110
0000
1010
0000
0000
0000
2001
0000
0000
0000
3010
1000
,  // measure 32
0001
0010
0100
1000
0001
1000
0100
0010
0001
0000
1000
0010
0100
0000
0010
0000
,  // measure 33
0200
0000
0000
0000
,  // measure 34
0301
0100
1000
0001
1000
0001
0010
1000
,  // measure 35
0001
1000
0010
0001
0010
2010
0001
3001
,  // measure 36
1000
0100
0001
0100
0001
1000
0010
0001
,  // measure 37
1000
0001
0010
1000
0010
0012
1000
1003
,  // measure 38
2001
0000
0000
0010
0000
3100
1000
0010
,  // measure 39
1002
0000
0000
0000
0000
0000
0010
0000
0000
0000
0103
0001
0010
0000
0100
1000
,  // measure 40
0010
0000
0000
0101
0000
0000
0011
0000
,  // measure 41
2200
0000
0000
0000
,  // measure 42
0300
3000
1002
0000
0203
0000
0320
0000
,  // measure 43
1030
0000
0000
0010
0000
0000
1000
0000
0000
0010
1000
0001
1000
0000
0000
0100
0000
0000
0001
0000
0000
0201
0000
0000
,  // measure 44
0000
0000
0301
0100
0010
0000
0001
0000
0021
0000
0000
0031
0010
0000
0100
0000
,  // measure 45
1000
0000
0000
0001
0000
0000
1000
0000
0000
0001
0100
0010
0100
0000
0000
0010
0000
0000
0100
0000
0000
0210
0000
0000
,  // measure 46
0000
0000
0310
1000
0100
0000
0010
0000
0001
0010
0100
1000
0001
1000
0010
0100
,  // measure 47
0001
0000
0000
0010
0000
0000
0001
0000
0000
0010
0001
1000
0001
0000
0000
0100
0000
0000
1000
0000
0000
1200
0000
0000
,  // measure 48
0000
0000
1300
0100
0010
0000
1000
0000
1020
0000
0000
1030
0010
0000
0100
0001
,  // measure 49
0010
0000
0000
0000
0011
0000
0100
1000
0010
0000
0100
0000
0010
0000
1002
0000
,  // measure 50
0000
0000
0013
0100
0010
0000
0100
0000
1001
0000
0000
0000
0001
0100
0010
1000
,  // measure 51
0001
0000
0000
0000
0000
0000
1001
0000
0000
0001
0010
0100
1000
0000
0000
0001
0000
0000
0100
0000
0000
0120
0000
0000
,  // measure 52
0000
0000
0130
0001
1000
0000
0100
0000
0001
0000
1000
0000
0010
0000
0001
0000
,  // measure 53
1000
0000
0000
0000
0000
0000
0010
0000
0000
0100
0000
0000
0010
0000
0000
0000
0000
0000
0100
0000
0001
0000
1000
0000
0100
0000
0000
0000
0000
0000
0010
0000
0000
0000
0000
0000
0100
0000
0000
0000
0000
0000
0110
0000
0000
0000
0000
0000
,  // measure 54
0000
0000
0011
0000
1001
0000
0101
0000
0000
0000
1000
0010
1000
0001
1000
0100
,  // measure 55
0020
0000
0000
0000
0130
0000
0010
0001
0100
0000
0010
1000
0100
0000
0010
0000
,  // measure 56
0001
0000
1000
0001
0100
0000
0010
0000
0100
0000
0010
0100
0001
1000
0001
1000
,  // measure 57
0100
0000
0001
0100
0001
0000
0100
0000
1000
0000
0010
0000
0001
0000
0012
0000
,  // measure 58
0000
1003
0001
0010
1000
0100
0010
0001
,  // measure 59
1000
0000
0001
0100
0001
0000
0100
0000
1000
0000
0100
0000
0001
0000
1002
0000
,  // measure 60
0000
0000
1003
0000
0100
0000
0001
0000
0100
0000
0010
0100
0010
0001
1000
0001
,  // measure 61
0100
0000
1000
0100
1000
0000
0100
0000
0001
0000
0010
0000
1000
0000
2010
0000
,  // measure 62
0000
3001
1000
0010
0001
0100
1000
0100
,  // measure 63
0110
0000
0100
0010
1001
0000
1000
0001
,  // measure 64
1000
0100
1000
0100
0010
0001
0010
0001
1000
0010
1000
0010
0100
0001
1000
0100
,  // measure 65
0010
MMMM
0011
1100
,  // measure 66
0001
0000
1000
0010
0100
0000
0010
1000
0100
0000
0010
0000
0100
0000
0101
0000
,  // measure 67
0000
0000
0001
0100
0001
0000
0100
0000
1000
0000
0010
0000
0001
0000
0010
0000
,  // measure 68
1000
0000
0001
0010
0100
0000
1000
0010
0100
0000
0010
0000
0001
0000
0011
0000
,  // measure 69
0000
0000
1010
0000
1000
0000
0001
0000
0010
0100
1000
0001
1000
0010
0100
0001
,  // measure 70
1000
0000
0001
0010
0100
0000
0010
0001
0100
0000
0010
0000
0100
0000
1100
0000
,  // measure 71
0000
0000
1000
0100
1000
0000
0100
0000
0001
0000
0010
0000
1000
0000
0010
0000
,  // measure 72
0001
0000
1000
0010
0100
0000
0001
0010
0100
0000
0010
0000
0100
0000
2001
0000
,  // measure 73
0010
0000
0010
0000
0010
0000
0010
0000
3010
0100
0001
1000
0100
0000
0000
0000
,  // measure 74
0010
0100
0010
0100
1000
0001
1000
0001
0010
0100
0010
0100
1000
0100
0010
0001
,  // measure 75
1000
0010
1000
0010
0100
0001
0100
0001
1000
0010
0100
0010
1000
0000
0001
0000
,  // measure 76
1000
0100
1000
0100
0010
0100
0010
0100
0010
0001
0010
0001
1000
0001
0100
0000
,  // measure 77
0010
0000
0100
0000
0001
0100
0010
1000
0100
0010
0100
0010
0001
1000
0100
0000
,  // measure 78
0010
0001
0010
0001
1000
0001
0010
0001
0100
0001
0100
0001
0010
0001
1000
0001
,  // measure 79
1000
0010
1000
0010
1000
0001
1000
0010
1000
0100
1000
0100
0010
0001
1000
0001
,  // measure 80
0100
0000
0010
0000
0100
0000
0010
1000
0100
0000
0010
0000
0100
0000
1001
0000
,  // measure 81
0000
0000
0001
0000
0100
0000
0010
0000
1000
0100
0010
0001
0100
0010
1000
0100
,  // measure 82
0010
0000
0000
0000
0000
0000
0002
0000
0000
0000
1003
0001
1000
0000
0000
0001
0000
0000
0000
0000
0000
1001
0000
0000
,  // measure 83
0000
0101
0110
1010
1001
0000
0000
0000
;

//---------------dance-single - ----------------
#NOTEDATA:;
#CHARTNAME:;
#STEPSTYPE:dance-single;
#DESCRIPTION:;
#CHARTSTYLE:;
#DIFFICULTY:Challenge;
#METER:14;
#RADARVALUES:0.794650,0.803334,0.752169,0.341100,0.209908,636.000000,550.000000,86.000000,39.000000,0.000000,0.000000,0.000000,0.000000,0.000000,0.794650,0.803334,0.752169,0.341100,0.209908,636.000000,550.000000,86.000000,39.000000,0.000000,0.000000,0.000000,0.000000,0.000000;
#CREDIT:;
#NOTES:
// measure 0
0000
0000
0000
0000
,  // measure 1
0000
0000
0000
0000
,  // measure 2
1010
0000
0000
0000
0011
0000
0000
0001
0100
0000
0001
0000
0100
0000
1000
0000
,  // measure 3
0000
1000
0100
0001
1000
0010
0100
0001
,  // measure 4
1001
0000
0000
0000
0011
0000
0000
0001
0010
0000
1000
0000
0010
0000
0001
0000
,  // measure 5
0000
1000
0010
0100
0001
0001
1000
0001
,  // measure 6
0011
0000
0000
0000
1010
0000
0000
1000
0100
0000
1000
0000
0100
0000
0001
0000
,  // measure 7
0000
0001
0100
1000
0001
0010
0100
1000
,  // measure 8
1001
0000
0000
0000
1010
0000
0000
1000
0010
0000
0001
0000
0010
0000
0120
0000
,  // measure 9
0000
1000
1030
0010
0100
0001
1000
0100
,  // measure 10
0010
0010
0000
0110
0000
0010
0001
0100
,  // measure 11
0010
0010
0000
0110
0000
0010
1000
0100
,  // measure 12
1100
0000
0000
0000
1001
0000
0000
0000
1010
0000
0000
1000
0010
0000
0001
0000
,  // measure 13
0020
0000
1000
0000
1030
0000
0001
0010
0000
0010
0001
0000
1000
0000
0001
0000
,  // measure 14
0100
0100
0000
1100
0000
0100
0001
1000
,  // measure 15
0100
0100
0000
0101
0000
0100
1000
0001
,  // measure 16
1001
0011
1001
1010
,  // measure 17
2002
0000
3003
0000
1000
0010
0100
0001
,  // measure 18
1000
0000
0100
0000
0001
0000
0100
0000
0000
0000
0100
0010
0100
0000
1000
0000
,  // measure 19
0001
0000
0100
0000
1000
0000
0100
0000
0000
0000
0100
0010
0100
0000
0001
0000
,  // measure 20
0101
0000
0000
0000
1001
0000
0000
0000
0011
0000
0000
0001
0010
0000
1000
0000
,  // measure 21
0020
0000
0001
0000
0031
0000
0100
0010
0000
0010
1000
0000
0100
0000
0010
0000
,  // measure 22
0001
0000
0010
0000
1000
0000
0010
0000
0000
0000
0010
0100
0010
0000
0001
0000
,  // measure 23
1000
0000
0010
0000
0001
0000
0010
0000
0000
0000
0010
0100
0010
0000
1000
0000
,  // measure 24
1001
0101
1001
1100
,  // measure 25
1001
0000
0001
0100
0010
1000
0100
0010
,  // measure 26
0100
0000
0011
0000
0022
0000
0033
0011
,  // measure 27
0000
0011
0001
1001
0000
0202
0303
1001
,  // measure 28
1000
0010
0010
0001
0010
0010
1000
0100
,  // measure 29
0001
0000
0100
0000
1000
0000
0001
1000
0000
0000
0001
0000
0100
0000
0010
0000
,  // measure 30
0100
0000
1010
0000
2020
0000
3030
1010
,  // measure 31
0000
1010
1000
1001
0000
2200
3300
1001
,  // measure 32
0001
0000
0010
0000
0100
0000
0010
1000
0000
0000
0010
0000
0100
0000
0010
0000
,  // measure 33
0002
0000
0000
0000
,  // measure 34
1003
0010
0001
0010
0001
0010
1000
0001
,  // measure 35
1000
0010
0001
0010
1000
0002
1000
1003
,  // measure 36
0001
0010
1000
0010
1000
0010
0001
1000
,  // measure 37
0001
0010
1000
0010
0001
0200
0010
0310
,  // measure 38
0210
0000
0000
0001
0000
0301
1000
0100
,  // measure 39
0210
0000
0000
0000
0000
0000
1000
0000
0000
0000
1300
0001
1000
0000
0010
0100
,  // measure 40
0010
0000
0000
0101
0000
0000
1010
0000
,  // measure 41
2002
0000
0000
0000
,  // measure 42
0003
3000
2001
0000
3100
0000
0010
0000
,  // measure 43
0021
0000
0000
0000
1030
0000
0010
0100
0010
0000
0001
0000
0000
0000
2001
0000
,  // measure 44
0000
0000
3001
0100
0001
0000
0100
0000
2000
0000
0000
0000
3100
0000
0001
0000
,  // measure 45
2000
0000
0000
0000
3001
0000
1000
0100
1000
0000
0100
0000
0000
0000
0120
0000
,  // measure 46
0000
0000
0031
0010
0001
0000
1000
0000
0001
0000
0100
0000
0010
0000
1000
0000
,  // measure 47
1020
0000
0000
0000
0031
0000
0010
0100
0010
0000
1000
0000
0000
0000
1002
0000
,  // measure 48
0000
0000
1003
0100
1000
0000
0100
0000
0002
0000
0000
0000
0103
0000
0010
0000
,  // measure 49
0110
0000
1100
0000
1001
0001
0100
0120
,  // measure 50
0000
0000
0130
0010
0100
0000
0010
0000
0110
0000
0000
0000
1000
0000
0001
0000
,  // measure 51
1000
0000
0000
0000
1001
0000
0001
1000
0100
0000
0010
0000
0000
0000
0210
0000
,  // measure 52
0000
0000
1300
0001
0100
0000
0010
0000
1000
0000
0100
0000
0001
0000
0100
0000
,  // measure 53
1000
0000
0000
0010
0000
0000
0100
0010
0100
0000
0001
0000
0010
0000
0011
0000
,  // measure 54
0000
1000
0010
1010
0000
0110
0000
0001
,  // measure 55
2002
0000
0000
0000
3003
0000
0001
0010
0001
0000
1000
0010
1000
0000
0001
0000
,  // measure 56
1000
0000
0100
0010
0100
0000
0010
0000
0001
0000
1000
0001
1000
0000
0001
0000
,  // measure 57
0101
0000
0000
0100
0000
0000
0001
0000
0100
0000
1000
0000
0001
0000
0020
0000
,  // measure 58
0000
0031
0010
0100
0001
0010
0100
1000
,  // measure 59
0001
0000
0000
0010
0000
0000
1000
0000
0010
0000
0001
0000
1000
0000
1002
0000
,  // measure 60
0000
1003
0010
0001
0010
1000
0100
0010
,  // measure 61
0110
0000
0000
0100
0000
0000
1000
0000
0100
0000
0001
0000
1000
0000
0020
0000
,  // measure 62
0000
1030
0010
0100
1000
0010
0100
0001
,  // measure 63
1001
0000
0100
1000
1001
0000
0100
0001
,  // measure 64
1001
0000
0110
0000
1000
0010
0001
0010
,  // measure 65
1000
0000
1000
0001
,  // measure 66
0011
0000
0000
0000
1010
0000
0000
1000
0100
0000
1000
0000
0100
0000
0001
0000
,  // measure 67
0000
0000
0100
0010
0100
0000
1000
0000
0010
0000
0001
0000
0010
0000
1000
0000
,  // measure 68
1010
0000
0000
0000
0101
0000
0000
0001
0010
0000
1000
0000
0001
0000
0100
0000
,  // measure 69
0000
0100
1000
0001
0010
0010
0001
1000
,  // measure 70
1010
0000
0000
0000
0011
0000
0000
0001
0100
0000
0001
0000
0100
0000
1000
0000
,  // measure 71
0000
0000
0100
0010
0100
0000
0001
0000
0010
0000
1000
0000
0010
0000
0001
0000
,  // measure 72
0011
0000
0000
0000
1100
0000
0000
1000
0010
0000
0001
0000
1000
0000
0200
0000
,  // measure 73
0001
0001
0001
0301
0100
0010
1001
0000
,  // measure 74
1000
0100
1000
0100
0001
0100
0001
1000
,  // measure 75
0010
0001
0100
1000
0100
0001
0100
0001
,  // measure 76
0010
1000
0010
0001
0100
1000
0100
0001
,  // measure 77
1001
0000
1000
1000
0001
0001
1000
1000
,  // measure 78
0001
0010
1000
0001
0100
0010
1000
0001
,  // measure 79
0100
1000
0010
0001
1000
0100
0010
0001
,  // measure 80
1000
0000
0100
0000
0001
0000
1000
0001
1000
0000
0100
0000
0010
0000
2001
0000
,  // measure 81
0000
0000
0001
0000
0001
0000
3001
0000
1000
0001
1000
0001
1000
0001
1000
0001
,  // measure 82
1000
0000
0000
0000
0002
0000
0000
0013
0001
0000
1000
0000
0000
0000
1010
0000
,  // measure 83
0000
1100
0010
0100
0011
0000
0000
0000
;

//---------------dance-single - ----------------
#NOTEDATA:;
#CHARTNAME:;
#STEPSTYPE:dance-single;
#DESCRIPTION:;
#CHARTSTYLE:;
#DIFFICULTY:Hard;
#METER:11;
#RADARVALUES:0.589741,0.584243,0.516023,0.411069,0.008746,472.000000,413.000000,59.000000,47.000000,0.000000,0.000000,0.000000,0.000000,0.000000,0.589741,0.584243,0.516023,0.411069,0.008746,472.000000,413.000000,59.000000,47.000000,0.000000,0.000000,0.000000,0.000000,0.000000;
#CREDIT:;
#NOTES:
// measure 0
0000
0000
0000
0000
,  // measure 1
0000
0000
0000
0000
,  // measure 2
1100
0000
0011
0000
1000
0100
0000
0001
,  // measure 3
0000
0100
1000
0000
0010
1000
0010
0000
,  // measure 4
1010
0000
0101
0000
0001
0010
0000
1000
,  // measure 5
0000
0010
0001
0010
0001
0000
1001
0000
,  // measure 6
0101
0000
1010
0000
0001
0100
0000
1000
,  // measure 7
0000
0100
0001
0000
0010
0001
0010
0000
,  // measure 8
0011
0000
1100
0000
1000
0010
0000
1001
,  // measure 9
0000
0001
0010
0001
0020
0000
0130
1000
,  // measure 10
0001
1000
0000
1000
0000
1000
0010
0000
,  // measure 11
1000
0001
0000
0001
0000
0001
0010
0000
,  // measure 12
0100
0000
0000
0000
0100
0000
0000
0000
0010
0000
0000
0100
0000
0000
1000
0000
,  // measure 13
0020
0000
0130
0010
0100
0000
0001
1000
,  // measure 14
0100
0010
0000
0010
0000
0010
0001
0000
,  // measure 15
0100
0010
0000
0010
0000
0010
1000
0000
,  // measure 16
0001
0001
1000
1000
,  // measure 17
2002
0000
3003
0000
0001
1000
0001
0000
,  // measure 18
1000
0100
0000
0100
0000
0010
0001
0010
,  // measure 19
0001
0100
0000
0100
0000
0010
1000
0010
,  // measure 20
1000
0000
0000
0000
1000
0000
0000
0000
0010
0000
0000
0100
0000
0000
0001
0000
,  // measure 21
0020
0000
0130
0010
0100
0000
1000
0001
,  // measure 22
0100
0010
0000
0010
0000
0100
0001
1000
,  // measure 23
0100
0010
0000
0010
0000
0100
1000
0001
,  // measure 24
1000
0001
0100
0010
,  // measure 25
2002
0000
0000
0000
3003
0000
0001
1000
,  // measure 26
0100
0000
0011
0000
0022
0000
0033
0011
,  // measure 27
0000
0001
0010
0001
0000
0012
0000
1003
,  // measure 28
0010
0000
0010
0100
0000
0100
0001
0000
,  // measure 29
1000
0100
0010
0000
0001
0100
0010
0000
,  // measure 30
0100
0000
1010
0000
2020
0000
3030
1010
,  // measure 31
0000
1000
0010
1000
0000
2010
0000
3001
,  // measure 32
0010
0000
0100
1000
0010
0000
0100
0001
,  // measure 33
0020
0000
0000
0000
,  // measure 34
0130
1000
0001
0000
1001
0000
1000
0010
,  // measure 35
0000
0010
0100
0010
0000
0002
0000
0013
,  // measure 36
1000
0000
1001
0000
1001
0000
0001
0010
,  // measure 37
0000
0010
0100
0010
0000
2000
0000
3010
,  // measure 38
0002
0000
0000
0023
0000
0000
0130
1000
,  // measure 39
0020
0000
0000
2030
0000
3100
0010
0000
,  // measure 40
0110
0000
0000
0011
0000
0000
1001
0000
,  // measure 41
2020
0000
0000
0000
,  // measure 42
3030
2001
3100
0010
,  // measure 43
0021
0000
1000
0000
0031
0010
0000
2000
,  // measure 44
0000
3010
0100
0010
0002
0000
1003
0001
,  // measure 45
0200
0000
0301
1000
0100
0100
0000
0200
,  // measure 46
0000
0310
0001
0100
0010
0000
0101
0000
,  // measure 47
1020
0000
0001
0000
1030
0010
0000
0002
,  // measure 48
0000
0013
0100
0010
2000
0000
3100
0000
,  // measure 49
0110
0000
1001
0000
0001
0100
0010
1000
,  // measure 50
0000
1000
0100
0010
0001
0000
0100
0010
,  // measure 51
0100
0000
1001
0000
0001
0010
0000
2000
,  // measure 52
0000
3010
0001
0000
1000
0010
0001
0000
,  // measure 53
0010
0000
1000
0001
1000
0000
0100
0020
,  // measure 54
0000
0100
0100
0130
0000
0010
0100
0010
,  // measure 55
2002
0000
3003
0001
0010
0001
1000
0000
,  // measure 56
0010
1000
0001
0000
1000
0100
0010
0001
,  // measure 57
2000
0000
3020
0000
0230
0000
1000
2300
,  // measure 58
0000
3100
0010
0200
0000
0302
0000
1003
,  // measure 59
1001
0000
0011
0000
1000
0001
0100
0001
,  // measure 60
0000
1000
0100
1000
0000
0010
1000
0000
,  // measure 61
1002
0000
0023
0000
0230
0000
0001
0302
,  // measure 62
0000
0103
0010
0200
0000
2300
0000
3001
,  // measure 63
1001
0010
1001
0100
,  // measure 64
1010
0011
0101
1100
,  // measure 65
1001
0000
1000
0001
,  // measure 66
0101
0000
1010
0000
0001
0100
0000
1000
,  // measure 67
0000
0001
0010
0000
1000
0001
1000
0000
,  // measure 68
0110
0000
1001
0000
0001
0010
0000
0100
,  // measure 69
0000
1000
0010
0100
0001
0000
1001
0000
,  // measure 70
1100
0000
0011
0000
1000
0100
0000
0001
,  // measure 71
0000
1000
0010
0000
0001
0010
0001
0000
,  // measure 72
0110
0000
1001
0000
0001
0100
0000
1001
,  // measure 73
0000
1000
0100
1000
0100
0010
0001
0000
,  // measure 74
1000
0010
1000
0000
0010
0100
0010
0000
,  // measure 75
0001
0010
0001
0000
0010
0100
0010
0000
,  // measure 76
1000
0001
0100
0000
0001
1000
0100
1000
,  // measure 77
0100
0000
0010
0001
0100
0010
1000
0000
,  // measure 78
0001
0010
0001
0000
0010
1000
0010
0000
,  // measure 79
0001
0100
0001
0000
0100
1000
0100
0000
,  // measure 80
0101
0000
1001
0000
0001
0010
0000
0110
,  // measure 81
0000
0100
1000
0001
0100
0010
0100
0010
,  // measure 82
0100
0000
0001
0000
1000
0001
0000
1001
,  // measure 83
0000
1000
0001
0010
0010
0000
0000
0000
;

//---------------dance-single - ----------------
#NOTEDATA:;
#CHARTNAME:;
#STEPSTYPE:dance-single;
#DESCRIPTION:;
#CHARTSTYLE:;
#DIFFICULTY:Medium;
#METER:9;
#RADARVALUES:0.467294,0.511213,0.463546,0.227400,0.000000,374.000000,321.000000,53.000000,26.000000,0.000000,0.000000,0.000000,0.000000,0.000000,0.467294,0.511213,0.463546,0.227400,0.000000,374.000000,321.000000,53.000000,26.000000,0.000000,0.000000,0.000000,0.000000,0.000000;
#CREDIT:;
#NOTES:
// measure 0
0000
0000
0000
0000
,  // measure 1
0000
0000
0000
0000
,  // measure 2
1001
0000
1001
0000
0001
0100
0000
0001
,  // measure 3
0000
0100
0010
0000
1000
0000
0001
0000
,  // measure 4
1001
0000
1001
0000
1000
0100
0000
1000
,  // measure 5
0000
0100
0010
0000
0001
0000
1000
0000
,  // measure 6
1010
0000
1010
0000
0001
0100
0000
0001
,  // measure 7
0000
0100
0010
0000
0100
0000
0001
0000
,  // measure 8
0011
0000
0011
0000
1000
0100
0000
0100
,  // measure 9
0000
0100
0010
0000
0100
0000
1000
0000
,  // measure 10
0001
0000
0000
0001
0000
0000
1000
0000
,  // measure 11
0100
0000
0000
0100
0000
0000
1000
0000
,  // measure 12
0001
0100
0010
1000
,  // measure 13
0002
0000
0013
0100
,  // measure 14
1000
0000
0000
1000
0000
0000
0001
0000
,  // measure 15
0100
0000
0000
0100
0000
0000
0001
0000
,  // measure 16
1000
0100
0001
0010
,  // measure 17
2000
0000
3000
0001
,  // measure 18
0010
0100
0000
0100
0000
0010
0001
0000
,  // measure 19
0100
0010
0000
0010
0000
0100
0001
0000
,  // measure 20
1000
0100
0010
0001
,  // measure 21
2000
0000
3001
0100
,  // measure 22
0010
0100
0000
0100
0000
0010
1000
0000
,  // measure 23
0100
0010
0000
0010
0000
0100
1000
0000
,  // measure 24
0001
0100
1000
0010
,  // measure 25
0002
0000
0000
0000
,  // measure 26
0013
0000
0011
0000
0022
0000
0033
0011
,  // measure 27
0000
0001
0000
1000
0000
2020
0000
3030
,  // measure 28
0001
0100
0010
1000
,  // measure 29
0100
0010
0001
0100
,  // measure 30
0010
0000
1010
0000
2020
0000
3030
1010
,  // measure 31
0000
1000
0000
0001
0000
0022
0000
0033
,  // measure 32
1000
0100
0001
0100
,  // measure 33
2000
0000
0000
0000
,  // measure 34
3001
0100
1000
0100
,  // measure 35
0001
0000
0100
0000
0010
1000
0010
0000
,  // measure 36
1000
0100
0001
0100
,  // measure 37
1000
0000
0100
0000
0010
0001
0010
0000
,  // measure 38
0002
0000
0000
0010
0000
0000
1003
0000
,  // measure 39
2000
0000
0000
0010
0000
0000
3001
0000
,  // measure 40
1001
0000
0000
0011
0000
0000
1100
0000
,  // measure 41
2002
0000
0000
0000
,  // measure 42
3003
1002
0103
0010
,  // measure 43
1000
0000
0010
0000
1000
0010
0000
0001
,  // measure 44
0000
0010
1000
0000
0001
0000
1000
0001
,  // measure 45
1000
0000
0100
0000
1000
0100
0000
0001
,  // measure 46
0000
0100
1000
0000
0110
0000
1001
0000
,  // measure 47
0001
0000
0010
0000
0001
0010
0000
1000
,  // measure 48
0000
0010
0001
0000
1000
0000
0001
0000
,  // measure 49
0101
0000
0110
0000
1010
0000
0000
1001
,  // measure 50
0000
0110
1001
0000
,  // measure 51
0010
0000
1001
0000
1000
0100
0000
0001
,  // measure 52
0000
0100
1000
0000
0001
0000
0100
0000
,  // measure 53
1000
0100
0001
1001
,  // measure 54
0000
1000
0001
1000
0000
0110
0000
0000
,  // measure 55
2002
3003
0001
0010
,  // measure 56
1000
0001
0100
1000
,  // measure 57
0001
0000
0100
0000
0010
0000
1000
0100
,  // measure 58
0000
0100
1000
0000
0010
0000
0100
0000
,  // measure 59
0001
0000
0010
0000
0001
0000
0010
0100
,  // measure 60
0000
0010
0100
0000
1000
0000
0001
0000
,  // measure 61
1000
0000
0010
0000
0100
0000
0001
0010
,  // measure 62
0000
0010
0001
0000
0100
0000
0010
0000
,  // measure 63
0220
0330
2002
3003
,  // measure 64
1001
1010
1001
0011
,  // measure 65
1001
0000
1000
0001
,  // measure 66
0011
0000
0101
0000
0010
0001
0000
0100
,  // measure 67
0000
0001
0010
0000
0001
0000
1000
0000
,  // measure 68
1010
0000
1100
0000
0010
1000
0000
0100
,  // measure 69
0000
1000
0010
0000
1000
0000
0001
0000
,  // measure 70
0011
0000
1100
0000
0100
1000
0000
0010
,  // measure 71
0000
0100
0001
0000
1000
0000
0100
0000
,  // measure 72
0110
0000
1001
0000
0001
0100
0000
0100
,  // measure 73
0000
0100
0010
0000
0100
0000
1001
0000
,  // measure 74
0001
0010
1000
0100
,  // measure 75
1000
0010
0001
0100
,  // measure 76
1000
0010
1000
0100
,  // measure 77
0001
0000
0010
0100
0010
0000
0100
0000
,  // measure 78
1000
0010
0001
1000
,  // measure 79
0100
0001
0010
1000
,  // measure 80
0001
0000
0100
0000
1000
0001
0000
2002
,  // measure 81
0000
0000
3003
0000
0001
1000
0001
0000
,  // measure 82
0100
0000
0010
0000
0100
0010
0000
1001
,  // measure 83
0000
1100
0011
0000
;

//---------------dance-single - ----------------
#NOTEDATA:;
#CHARTNAME:;
#STEPSTYPE:dance-single;
#DESCRIPTION:;
#CHARTSTYLE:;
#DIFFICULTY:Easy;
#METER:5;
#RADARVALUES:0.277378,0.365152,0.227400,0.201161,0.000000,222.000000,196.000000,26.000000,23.000000,0.000000,0.000000,0.000000,0.000000,0.000000,0.277378,0.365152,0.227400,0.201161,0.000000,222.000000,196.000000,26.000000,23.000000,0.000000,0.000000,0.000000,0.000000,0.000000;
#CREDIT:;
#NOTES:
// measure 0
0000
0000
0000
0000
,  // measure 1
0000
0000
0000
0000
,  // measure 2
1000
1000
1000
0000
,  // measure 3
0100
0000
0010
0000
,  // measure 4
0001
0001
0001
0000
,  // measure 5
0100
0000
0010
0000
,  // measure 6
1000
0001
1000
0000
,  // measure 7
0100
0000
0010
0000
,  // measure 8
0001
1000
0001
0000
,  // measure 9
2002
0000
3003
0000
,  // measure 10
0001
0100
0001
0000
,  // measure 11
0001
0100
0001
0000
,  // measure 12
0010
0000
0010
0000
,  // measure 13
0002
0000
0003
0000
,  // measure 14
1000
0100
1000
0000
,  // measure 15
1000
0100
1000
0000
,  // measure 16
0010
0000
0010
0000
,  // measure 17
2000
0000
3000
0000
,  // measure 18
1000
0010
1000
0000
,  // measure 19
0001
0010
0001
0000
,  // measure 20
1000
0010
1000
0010
,  // measure 21
2000
0000
3000
0000
,  // measure 22
0001
0100
0001
0000
,  // measure 23
1000
0100
1000
0000
,  // measure 24
0001
0100
0001
0100
,  // measure 25
0002
0000
0003
0000
,  // measure 26
0000
1001
2002
0000
,  // measure 27
0000
0000
0000
0000
0000
3003
0000
0000
,  // measure 28
0001
0010
0100
0000
,  // measure 29
0010
0100
1000
0000
,  // measure 30
0000
1001
2002
0000
,  // measure 31
0000
0000
0000
0000
0000
3003
0000
0000
,  // measure 32
1000
0010
0100
0001
,  // measure 33
2000
0000
3000
0000
,  // measure 34
0100
0010
0100
0000
,  // measure 35
1000
0001
1000
0000
,  // measure 36
0010
0100
0010
0000
,  // measure 37
1000
0001
1000
0000
,  // measure 38
2002
0000
0000
3003
0000
0000
0000
0000
,  // measure 39
0220
0000
0000
0330
0000
0000
0000
0000
,  // measure 40
0001
0000
1000
0000
,  // measure 41
2002
0000
0000
0000
,  // measure 42
3003
0000
0000
0000
,  // measure 43
0011
0000
0011
0000
,  // measure 44
0010
0001
0100
0000
,  // measure 45
0101
0000
0101
0000
,  // measure 46
1000
0100
1000
0010
,  // measure 47
1010
0000
1010
0000
,  // measure 48
0010
1000
0100
0000
,  // measure 49
0010
0001
0100
0000
,  // measure 50
0220
0000
0330
0000
,  // measure 51
1001
0000
0110
0000
,  // measure 52
1000
0001
1000
0000
,  // measure 53
0001
0010
0100
1000
,  // measure 54
0000
1001
1001
0000
,  // measure 55
1000
0000
0010
0100
,  // measure 56
0010
0100
0001
0000
,  // measure 57
1000
0100
0010
0000
,  // measure 58
0110
0000
0001
0000
,  // measure 59
1000
0001
1000
0000
,  // measure 60
0010
0000
0100
0000
,  // measure 61
0001
0100
0010
0000
,  // measure 62
0110
0000
1000
0000
,  // measure 63
1001
0000
1001
0000
,  // measure 64
0001
1000
0001
1000
,  // measure 65
0100
0000
0000
0000
,  // measure 66
1000
0100
1000
0000
,  // measure 67
0010
0000
1000
0000
,  // measure 68
0001
0100
0001
0000
,  // measure 69
0010
0000
0001
0000
,  // measure 70
1000
0010
0100
0000
,  // measure 71
0001
0000
0010
0000
,  // measure 72
0100
1000
0010
0000
,  // measure 73
2002
0000
3003
0000
,  // measure 74
0001
0001
0010
0000
,  // measure 75
0010
0010
1000
0000
,  // measure 76
1000
1000
0100
0000
,  // measure 77
0100
0100
0001
0000
,  // measure 78
1000
0100
0001
0000
,  // measure 79
0001
0010
1000
0000
,  // measure 80
0001
1000
0001
0000
,  // measure 81
2002
0000
3003
0000
,  // measure 82
0000
0010
0010
0000
,  // measure 83
0100
0010
1001
0000
;
