#VERSION:0.83;
#TITLE:Virus Funk;
#SUBTITLE:;
#ARTIST:Nhato;
#TITLETRANSLIT:;
#SUBTITLETRANSLIT:;
#ARTISTTRANSLIT:;
#GENRE:Progressive Disco;
#ORIGIN:;
#CREDIT:;
#BANNER:Virus Funk.png;
#BACKGROUND:Virus Funk-bg.png;
#PREVIEWVID:;
#JACKET:Virus Funk-jacket.png;
#CDIMAGE:;
#DISCIMAGE:;
#LYRICSPATH:;
#CDTITLE:cdtitle.png;
#MUSIC:Virus Funk.ogg;
#OFFSET:0.467143;
#SAMPLESTART:34.079315;
#SAMPLELENGTH:14.545456;
#SELECTABLE:YES;
#BPMS:0.000=132.000;
#STOPS:;
#DELAYS:;
#WARPS:;
#TIMESIGNATURES:0.000=4=4;
#TICKCOUNTS:0.000=4;
#COMBOS:0.000=1;
#SPEEDS:0.000=1.000=0.000=0;
#SCROLLS:0.000=1.000;
#FAKES:;
#LABELS:0.000=Song Start;
#BGCHANGES:0.063=Virus Funk.avi=1.000=1=0=0=StretchNoLoop==CrossFade==,
99999=-nosongbg-=1.000=0=0=0 // don't automatically add -songbackground-
;
#KEYSOUNDS:;
#ATTACKS:
;

//---------------dance-single - ----------------
#NOTEDATA:;
#CHARTNAME:;
#STEPSTYPE:dance-single;
#DESCRIPTION:;
#CHARTSTYLE:;
#DIFFICULTY:Hard;
#METER:11;
#RADARVALUES:0.401420,0.456615,0.206613,0.504136,0.086778,340.000000,315.000000,25.000000,61.000000,0.000000,0.000000,0.000000,0.000000,0.000000,0.401420,0.456615,0.206613,0.504136,0.086778,340.000000,315.000000,25.000000,61.000000,0.000000,0.000000,0.000000,0.000000,0.000000;
#CREDIT:;
#NOTES:
0000
0000
0000
0000
,
0000
0000
0000
0000
,
0000
0000
0000
0000
,
0000
0000
0000
0000
,
0000
0000
0000
0000
,
1000
1000
0000
0000
0001
0001
0000
0000
,
0100
0000
0000
0000
0010
0000
0000
1001
0000
0000
0000
0000
0000
0000
0000
0000
,
0001
0100
0000
0000
1000
0100
0000
0000
,
0002
0203
0320
2030
,
3000
0001
1000
0100
0000
0100
1000
0001
,
0000
0001
1000
0010
0000
0010
1000
0001
,
0000
0010
0001
0100
0000
0010
1000
0100
,
0000
0010
0001
0100
0100
0100
0001
0000
,
0000
1000
0001
0010
0000
0010
0001
1000
,
0000
1000
0001
0100
0000
0100
0001
1000
,
0200
0000
0000
0320
0000
0000
0032
0000
0000
0000
2003
0000
0000
0000
0000
0000
,
0001
0001
0001
0001
,
3001
1000
0001
1000
0010
0100
0001
1000
,
0200
0000
0000
0000
1300
0100
0001
0000
,
0110
0000
2001
0000
3010
1000
0010
1000
,
0100
0000
0000
0100
0000
0000
1100
0000
0000
0010
0000
0000
0102
0000
0000
0000
,
1003
0000
1002
0000
0103
0001
0100
0001
,
1000
0001
0010
0100
1000
0010
0200
0000
,
0301
0000
1002
0000
0013
0001
0010
0001
,
0100
0000
0000
0100
0000
0000
0101
0000
0000
0010
0000
0000
2100
0000
0000
0000
,
3001
0000
2001
0000
3100
1000
0010
0100
,
0002
2003
3002
2003
,
3001
1000
0100
0001
0000
0001
0100
1000
,
0000
1000
0010
0001
0000
0001
0010
1000
,
0000
0100
1000
0010
0000
0100
0001
0010
,
0000
0100
1000
0010
0010
0010
1000
0000
,
0010
1000
0100
0001
0000
1000
0010
0001
,
0000
0001
0100
1000
0000
0001
0010
1000
,
0200
0000
0000
0320
0000
0000
0032
0000
0000
0000
0203
0000
0310
0000
1000
0000
,
1010
0101
0011
1100
,
0000
0000
0000
0002
0203
0320
0030
2020
,
0000
0000
0000
0000
,
3030
0000
0000
0000
0000
0000
0000
0000
0000
0000
0200
0000
0300
0020
0000
0030
,
0022
0000
0000
0030
,
2000
0000
0000
0000
3003
0000
0002
0000
0203
0000
0300
2000
0000
3000
0220
0000
,
0000
0000
0000
0000
,
0330
0000
0000
0000
0000
0000
0000
0000
0000
0000
0000
0000
2000
0000
0000
0000
0000
0000
0000
0000
3200
0000
0000
0000
0302
0000
0000
0000
0203
0000
0000
0300
,
0220
0000
0000
0000
0030
0000
0000
0000
0000
2000
0000
0000
0000
0000
0000
0000
,
0000
0000
0000
3300
,
0002
0000
0000
0203
0000
0000
0320
0000
0000
0000
2030
0000
0000
0000
0000
0000
,
3010
1000
0001
1000
0010
1000
0001
1000
,
0100
0001
0100
1000
0001
0010
1000
0010
,
0002
0000
0000
0000
0000
0000
1003
0010
,
0002
0000
0013
0000
0001
0010
0100
0010
,
1000
0000
0000
1000
0000
0000
0001
0000
0000
0001
0000
0000
1000
0000
0000
0100
,
0000
0000
0010
0000
0001
0000
0000
0100
0000
0000
0010
0000
1000
0000
0100
0000
,
0001
0100
0001
0100
1000
0010
0100
0010
,
2000
0000
3020
0000
0031
0010
1000
0100
,
0010
0000
0000
0001
0000
0001
0000
0000
1000
0000
0100
0000
0010
0000
0001
0000
,
1000
0001
0100
2000
0000
3001
0010
1000
,
0100
0000
0000
0100
0000
0000
0100
0000
0001
0000
0100
0000
1000
0000
0000
0000
,
0110
0000
2001
0000
3001
0100
1000
0100
,
0001
0000
0000
0001
0000
0000
0101
0000
0000
0010
0000
0000
2100
0000
0000
0000
,
3001
0000
1002
0000
1003
0100
0001
0100
,
1000
0010
0001
0010
1000
0100
0010
0000
,
0110
0000
1002
0000
1003
0010
0100
0001
,
2000
0000
3100
1000
0002
0000
0103
0001
,
1000
0100
1000
0100
0001
0100
0010
0100
,
1000
0000
0000
0000
1000
0000
0000
0000
0010
0000
0000
0100
0000
0000
0001
0000
,
0010
0100
0100
1000
0001
0001
1000
0010
,
0001
0000
0000
0000
;

//---------------dance-single - ----------------
#NOTEDATA:;
#CHARTNAME:;
#STEPSTYPE:dance-single;
#DESCRIPTION:;
#CHARTSTYLE:;
#DIFFICULTY:Medium;
#METER:8;
#RADARVALUES:0.341207,0.456615,0.173555,0.181820,0.004132,289.000000,268.000000,21.000000,22.000000,0.000000,0.000000,0.000000,0.000000,0.000000,0.341207,0.456615,0.173555,0.181820,0.004132,289.000000,268.000000,21.000000,22.000000,0.000000,0.000000,0.000000,0.000000,0.000000;
#CREDIT:;
#NOTES:
0000
0000
0000
0000
,
0000
0000
0000
0000
,
0000
0000
0000
0000
,
0000
0000
0000
0000
,
0000
0000
0000
0000
,
1000
0010
0000
0000
0001
0010
0000
0000
,
1000
0000
0000
0000
0001
0000
0000
1001
0000
0000
0000
0000
0000
0000
0000
0000
,
0001
0001
0000
0000
1000
1000
0000
0000
,
0002
0023
0230
2300
,
3000
0001
0000
0200
0000
0301
0000
0001
,
0000
1000
0000
0200
0000
1300
0000
1000
,
0000
0001
0000
0100
0000
0010
0000
1000
,
0000
0001
0000
0100
0000
0010
1000
0001
,
0000
1000
0000
0020
0000
1030
0000
1000
,
0000
0001
0000
0020
0000
0031
0000
0001
,
1000
0010
0001
0010
,
1001
1001
0110
0110
,
1000
0001
1000
0001
1000
0001
1000
0001
,
2000
0000
3100
0010
,
0001
0000
0101
0000
1000
0010
1000
0010
,
1000
0100
0010
0001
,
1000
0000
1001
0000
0001
0100
0010
0000
,
1000
0100
0010
0000
0001
0100
0010
0000
,
1000
0000
1100
0000
0001
0010
0001
0010
,
0001
0100
0010
1000
,
0001
0000
1001
0000
0001
0100
0010
1000
,
0002
0023
0230
2300
,
3000
0001
0100
0010
0000
0010
0100
0001
,
0000
1000
0100
0010
0000
0010
0100
1000
,
0000
0001
1000
0001
0000
1000
0001
1000
,
0000
0001
1000
0001
1000
0001
1000
0000
,
0000
1000
0010
1000
0000
0100
1000
0100
,
0000
0010
0001
0010
0000
0001
0100
0001
,
1000
0100
0010
0001
,
0011
1100
1010
0101
,
0000
0000
0000
0001
0100
0010
0000
2000
,
0010
0000
0000
0000
,
3001
0000
0000
0000
,
2100
0000
0000
0000
,
3001
0000
0000
0000
0000
0000
0000
0002
,
0100
0000
0000
0000
,
1003
0000
0000
0000
,
0012
0000
0000
0000
,
1003
0010
0100
0001
,
0010
0010
0010
0010
,
0100
0010
0001
0000
0100
0010
1000
0000
,
0100
0010
0100
0010
0100
0010
0100
0010
,
0200
0000
0000
0310
,
2002
0000
3003
0000
0001
0000
0100
0010
,
1000
0000
0100
0000
0010
0000
0001
0100
,
1000
0000
1000
0100
0001
0000
0100
0000
,
0001
0100
1000
0100
0001
0000
1000
0000
,
0010
0000
1000
0100
0001
0000
0001
0100
,
1000
0000
0100
0000
1000
0100
0001
0000
,
0100
0010
0100
0010
0000
0001
0100
0010
,
2000
0000
3010
1001
,
1000
0000
1100
0000
0001
0010
0100
0010
,
0001
0100
1000
0100
,
0001
0000
1001
0000
0010
0001
0100
0000
,
0010
1000
0100
0000
0010
0001
0100
0000
,
0001
0000
0101
0000
1000
0010
0100
0010
,
1000
1000
0001
0001
,
1000
0100
0010
0000
0001
0100
0010
0000
,
0200
0000
0301
0010
,
0100
1000
0001
0000
0100
0001
1000
0000
,
1001
0000
0000
0000
;

//---------------dance-single - ----------------
#NOTEDATA:;
#CHARTNAME:;
#STEPSTYPE:dance-single;
#DESCRIPTION:;
#CHARTSTYLE:;
#DIFFICULTY:Easy;
#METER:4;
#RADARVALUES:0.211336,0.295457,0.074381,0.247936,0.000000,179.000000,170.000000,9.000000,30.000000,0.000000,0.000000,0.000000,0.000000,0.000000,0.211336,0.295457,0.074381,0.247936,0.000000,179.000000,170.000000,9.000000,30.000000,0.000000,0.000000,0.000000,0.000000,0.000000;
#CREDIT:;
#NOTES:
0000
0000
0000
0000
,
0000
0000
0000
0000
,
0000
0000
0000
0000
,
0000
0000
0000
0000
,
0000
0000
0000
0000
,
1000
0000
0001
0000
,
0010
0010
0010
0000
,
0001
0000
1000
0000
,
0020
0230
0320
0230
,
0300
0001
0000
0001
,
0000
1000
0000
1000
,
0000
0100
0000
0100
,
0000
0100
0100
0100
,
0000
1000
0000
1000
,
0000
0001
0000
0001
,
0100
0010
2000
0000
,
0001
0001
0001
3001
,
1000
0001
1000
0001
,
0020
0000
0130
0010
,
1001
0000
0001
0100
,
0010
0010
1000
1000
,
0001
0000
1000
0100
,
0010
0001
0010
0100
,
1000
0000
1000
0010
,
0100
0100
0001
0001
,
1000
0000
0001
1000
,
0200
0320
0230
0320
,
0030
0001
0100
0001
,
0000
1000
0100
1000
,
0000
1001
0000
1001
,
0000
1001
1001
1001
,
0000
0001
0010
0001
,
0000
1000
0010
1000
,
0001
0100
0020
0030
,
2000
3200
0320
0032
,
0003
0000
0100
0010
,
2000
0000
3000
0000
,
0200
0000
0300
0000
,
0020
0000
0030
0000
,
0002
0000
0003
0000
,
0200
0000
0300
0000
,
0020
0000
0030
0000
,
2000
0000
3000
0000
,
0001
0010
0100
1000
,
0010
0100
0002
0000
,
1003
1000
0001
0001
,
1000
0001
1000
0001
,
0020
0000
0000
0030
,
2002
3003
1000
0100
,
0001
0100
1000
0000
,
0010
0000
0010
0000
,
1000
0010
0001
0010
,
1000
0000
0001
0010
,
1000
0100
0001
0000
,
1000
0100
0010
0001
,
0200
0000
0310
0100
,
1001
0000
1000
0100
,
0010
0001
0010
0001
,
0100
0000
0001
0100
,
0010
1000
0010
1000
,
0100
0000
0010
0001
,
0200
0000
0320
0000
,
1030
0100
0010
0001
,
0200
0000
0310
0000
,
1000
0001
0100
0010
,
1001
0000
0000
0000
;

//---------------dance-single - ----------------
#NOTEDATA:;
#CHARTNAME:;
#STEPSTYPE:dance-single;
#DESCRIPTION:;
#CHARTSTYLE:;
#DIFFICULTY:Beginner;
#METER:2;
#RADARVALUES:0.136955,0.188018,0.008265,0.049587,0.000000,116.000000,115.000000,1.000000,6.000000,0.000000,0.000000,0.000000,0.000000,0.000000,0.136955,0.188018,0.008265,0.049587,0.000000,116.000000,115.000000,1.000000,6.000000,0.000000,0.000000,0.000000,0.000000,0.000000;
#CREDIT:;
#NOTES:
0000
0000
0000
0000
,
0000
0000
0000
0000
,
0000
0000
0000
0000
,
0000
0000
0000
0000
,
0000
0000
0000
0000
,
0010
0000
0010
0000
,
0010
0010
0010
0000
,
0100
0000
0100
0000
,
0100
0100
0100
0000
,
0001
0000
0000
0000
,
1000
0000
0000
0000
,
0001
0000
1000
0000
,
0001
0000
0000
0000
,
1000
0000
0000
0000
,
0001
0000
0000
0000
,
0100
0000
0010
0000
,
0100
0000
0100
0000
,
0100
0100
0100
0000
,
0200
0000
0300
0000
,
0001
0000
0001
0000
,
0010
0010
0010
0000
,
0100
0000
1000
0000
,
0010
0010
0010
0000
,
1000
0000
0100
0000
,
0010
0010
0010
0000
,
0001
0000
1000
0000
,
0010
0010
0010
0000
,
1000
0000
1000
0000
,
0001
0000
0001
0000
,
1000
0000
0001
0000
,
1000
0000
0001
0000
,
0010
0000
0010
0000
,
0100
0000
0100
0000
,
0010
0010
0010
0000
,
0100
0100
0100
0100
,
0000
0000
0000
0000
,
2000
0000
0000
0000
,
3000
0000
0000
0000
,
0020
0000
0000
0000
,
0030
0000
0000
0000
,
0200
0000
0000
0000
,
0300
0000
0000
0000
,
0002
0000
0000
0000
,
0003
0000
0000
0000
,
1000
0000
0001
0000
,
0010
0000
0010
0000
,
0010
0010
0010
0000
,
0020
0000
0030
0000
,
0001
0000
0100
0000
,
0010
0000
1000
0000
,
0100
0000
0010
0000
,
0001
0001
0001
0000
,
1000
0000
0010
0000
,
0100
0000
0001
0000
,
0010
0000
0100
0000
,
1000
1000
1000
0000
,
0001
0000
0001
0000
,
0100
0100
0100
0000
,
1000
0000
0010
0000
,
0001
0001
0001
0000
,
1000
0000
0001
0000
,
1000
0000
1000
0000
,
0100
0000
0010
0000
,
0001
0000
0100
0000
,
0010
0000
1000
0000
,
1001
0000
0000
0000
;

//---------------dance-single - ----------------
#NOTEDATA:;
#CHARTNAME:;
#STEPSTYPE:dance-single;
#DESCRIPTION:;
#CHARTSTYLE:;
#DIFFICULTY:Challenge;
#METER:15;
#RADARVALUES:0.606853,0.778932,0.421491,0.504136,0.561988,514.000000,463.000000,51.000000,61.000000,30.000000,0.000000,0.000000,0.000000,0.000000,0.606853,0.778932,0.421491,0.504136,0.561988,514.000000,463.000000,51.000000,61.000000,30.000000,0.000000,0.000000,0.000000,0.000000;
#CREDIT:;
#NOTES:
0000
0000
0000
0000
,
0000
0000
0000
0000
,
0000
0000
0000
0000
,
0000
0000
0000
0000
,
0000
0000
0000
0000
,
0001
0101
0000
0000
1000
1100
0000
0000
,
0011
0000
0000
0000
1100
0000
0000
0011
0000
0000
0001
0000
0010
0001
0100
0010
,
1000
1010
0000
0000
0001
0011
0000
0000
,
2000
0000
3200
0000
0302
0000
0013
1000
,
0001
1000
0100
0001
000M
0010
0010
0100
,
0000
1000
0100
0001
000M
0010
0010
0100
,
0000
1000
0100
0001
000M
1000
0100
0001
,
000M
1000
0100
0001
0001
0001
0100
0000
,
0010
0001
0100
1000
M000
0010
0010
0100
,
0000
0001
0100
1000
M000
0010
0100
0001
,
2000
0000
0000
3200
0000
0000
0320
0000
0000
0000
0032
0000
0000
0000
0003
0000
,
1001
0011
1001
1010
,
1000
0010
0001
1000
0100
0001
1000
0100
,
0020
0000
0000
0000
0100
0000
0000
0000
0130
0010
0001
1000
0010
0000
0000
0000
,
0110
0000
MMMM
0000
1002
0000
0000
0000
0013
0100
0010
0100
1000
0001
1000
0001
,
0100
0000
0000
0010
0000
0000
1010
0000
0000
1001
0000
0000
0012
0000
0000
0000
,
1003
0000
0000
0000
2001
0000
0000
0000
3001
0100
0001
0100
0010
1000
0010
1000
,
0001
0010
0100
1000
0001
1000
0100
0010
0001
0100
0010
1000
0100
0000
0000
0000
,
0110
0000
MMMM
0000
2001
0000
0000
0000
3010
0100
0010
0100
0001
1000
0001
1000
,
0100
0000
0000
0010
0000
0000
0011
0000
0000
1001
0000
0000
2010
0000
0000
0000
,
3001
0000
0000
0000
1002
0000
0000
0000
1003
0010
0100
0001
0010
0001
0100
0010
,
2000
3200
0302
0023
,
1030
0000
0010
1000
0010
0000
2010
0000
31M0
0000
0010
0001
0010
0000
0012
0000
,
01M3
0000
0010
1000
0010
0000
2010
0000
31M0
1000
0010
0100
0001
0000
0001
0000
,
0100
0000
0010
1000
0010
0000
2001
0000
310M
0000
0010
0001
0010
0000
1002
0000
,
M103
0000
0010
1000
0010
0000
1001
0000
0001
0100
0001
0010
0100
1000
0100
1000
,
0001
0000
0100
0001
0100
0000
0102
0000
0M13
0000
0100
1000
0100
0000
2100
0000
,
3M10
0000
0100
0001
0100
0000
0102
0000
0M13
0001
0100
0010
1000
0000
0001
0000
,
0010
0000
1000
0010
0001
0000
1000
0000
0001
0100
1000
0000
0100
0000
0001
0000
,
0101
1010
1100
0011
,
1000
0000
1000
0200
0320
0032
0003
0022
,
0000
0000
0000
0000
,
0033
0000
0000
0000
0000
0000
0000
0000
0000
0000
0200
0000
0300
0020
0000
0030
,
2020
0000
0000
0030
,
0002
0000
0000
0000
3003
0000
2000
0000
3200
0000
0300
0002
0000
0003
0220
0000
,
0000
0000
0000
0000
,
0330
0000
0000
0000
0000
0000
0000
0000
0000
0000
0000
0000
0002
0000
0000
0000
0000
0000
0000
0000
0203
0000
0000
0000
2300
0000
0000
0000
3200
0000
0000
0300
,
0220
0000
0000
0000
0030
0000
0000
0000
0000
0002
0000
0000
0000
0000
0000
0000
,
0000
0000
0000
0303
,
2000
0000
0000
3200
0000
0000
0320
0000
0000
0000
0032
0000
0000
0000
0000
0000
,
0013
0010
0001
0001
1000
1000
0010
0010
,
0100
0001
0100
0001
1000
0001
1000
0001
0010
0001
0010
0001
0010
0100
1000
0001
,
0100
0000
0010
0000
1000
0000
1000
0000
0001
0010
0100
1000
0001
1000
0100
0010
,
0002
0000
0000
0000
0000
0000
0000
0003
0011
0000
0000
0000
0000
0000
0000
0000
0002
0000
0000
0000
0013
0000
0001
0000
1000
0000
0001
0000
0100
0000
0010
0000
,
1000
0000
0000
0010
0000
0000
0100
0000
0000
0001
0000
0000
1000
0010
1000
0100
,
0000
0000
0010
0000
0001
0010
0001
0100
0000
0000
0010
0000
1000
0000
0100
0000
,
0001
0000
0100
0000
0001
0000
0100
0000
0001
0100
0010
0100
0010
0100
1000
0010
,
0200
0000
0000
0000
1300
0100
0010
0100
0001
0000
0010
0100
1000
0010
0100
0001
,
1000
0000
0000
0000
0000
0000
0100
0000
0000
0010
0000
0000
0000
0000
0000
0002
0000
0000
0000
0000
0000
0000
0000
0000
1003
0000
0000
0000
0000
0000
0001
0000
0100
0000
0001
0000
0100
0000
0000
0010
0000
0000
1000
0000
0000
0001
0000
0000
,
0010
0100
1000
0010
1000
0010
0002
0000
0000
0000
0013
0100
0010
1000
0001
1000
,
0100
0000
0000
0000
0000
0000
0000
0000
0000
0110
0000
0000
0000
0000
0000
0000
0000
0000
0001
0000
0010
0000
0001
0000
0010
0000
0000
0000
0000
0000
0001
0000
0100
0000
0001
0000
0100
0000
0000
0000
0000
0000
0000
0000
0000
0000
0000
0000
,
0110
0000
MMMM
0000
2001
0000
0000
0000
3010
1000
0100
1000
0001
1000
0100
1000
,
0010
0000
0000
1001
0000
0000
0011
0000
0000
1001
0000
0000
0201
0000
0000
0000
,
0310
0000
0000
0000
1002
0000
0000
0000
0013
0001
0100
0001
1000
0001
0100
0001
,
0010
0100
0010
0100
1000
0001
1000
0001
0100
0010
1000
0001
0010
0000
0000
0000
,
0110
0000
MMMM
0000
1002
0000
0000
0000
1003
0010
0100
0001
0010
0100
1000
0001
,
0100
0100
0010
0010
1000
1000
0001
0001
,
1000
0100
1000
0100
0001
0100
0001
0100
1000
0010
1000
0010
0001
0010
0001
0010
,
1000
0000
0000
0000
1000
0000
0000
0000
0010
0000
0000
1000
0000
0000
0100
0000
,
1000
0100
0010
0001
0100
0000
0100
0000
0010
1000
0100
0000
0010
0001
1000
0010
,
0001
0000
0000
0000
;
