#VERSION:0.83;
#TITLE:Uno;
#SUBTITLE:;
#ARTIST:Little Big;
#TITLETRANSLIT:;
#SUBTITLETRANSLIT:;
#ARTISTTRANSLIT:;
#GENRE:Latinskiy;
#ORIGIN:;
#CREDIT:;
#BANNER:Uno.png;
#BACKGROUND:Uno-bg.png;
#PREVIEWVID:;
#JACKET:Uno-jacket.png;
#CDIMAGE:;
#DISCIMAGE:;
#LYRICSPATH:;
#CDTITLE:cdtitle.png;
#MUSIC:Uno.ogg;
#OFFSET:1.024367;
#SAMPLESTART:36.158733;
#SAMPLELENGTH:13.521130;
#SELECTABLE:YES;
#BPMS:0.000=142.000;
#STOPS:152.000=0.845,
158.000=0.845;
#DELAYS:;
#WARPS:;
#TIMESIGNATURES:0.000=4=4;
#TICKCOUNTS:0.000=4;
#COMBOS:0.000=1;
#SPEEDS:0.000=1.000=0.000=0;
#SCROLLS:0.000=1.000;
#FAKES:;
#LABELS:0.000=Song Start;
#BGCHANGES:2.500=Uno.avi=1.000=1=0=0=StretchNoLoop==CrossFade==,
276.000=Uno-bg.png=1.000=1=0=1===CrossFade==,
99999=-nosongbg-=1.000=0=0=0 // don't automatically add -songbackground-
;
#KEYSOUNDS:;
#ATTACKS:
;

//---------------dance-single - ----------------
#NOTEDATA:;
#CHARTNAME:;
#STEPSTYPE:dance-single;
#DESCRIPTION:;
#CHARTSTYLE:;
#DIFFICULTY:Challenge;
#METER:13;
#RADARVALUES:0.566990,0.585162,0.322263,0.330744,0.161132,468.000000,430.000000,38.000000,39.000000,56.000000,0.000000,0.000000,0.000000,0.000000,0.566990,0.585162,0.322263,0.330744,0.161132,468.000000,430.000000,38.000000,39.000000,56.000000,0.000000,0.000000,0.000000,0.000000;
#CREDIT:;
#OFFSET:1.024367;
#BPMS:0.000000=142.000000
;
#STOPS:152.000000=0.845070
,158.000000=0.845070
;
#DELAYS:;
#WARPS:;
#TIMESIGNATURES:0.000000=4=4
;
#TICKCOUNTS:0.000000=4
;
#COMBOS:0.000000=1
;
#SPEEDS:0.000000=1.000000=0.000000=0
;
#SCROLLS:0.000000=1.000000
;
#FAKES:;
#LABELS:0.000000=Song Start
;
#NOTES:
// measure 0
0000
0000
0000
0000
,  // measure 1
0000
0000
0000
0000
,  // measure 2
0000
0000
0000
0000
,  // measure 3
0000
0000
0000
0000
,  // measure 4
0000
0000
0000
0000
,  // measure 5
0000
0000
0000
0000
,  // measure 6
0001
0000
1000
0000
0100
0000
1000
0000
0100
0000
0000
0010
0000
0000
0100
0000
,  // measure 7
0001
0000
0000
0100
0000
0000
0010
0000
0100
0000
0000
0000
1100
0000
0000
0000
,  // measure 8
1000
0000
0001
0000
0100
0000
0001
0000
0100
0000
0000
0010
0000
0000
0100
0000
,  // measure 9
1000
0000
0000
0100
0000
0000
0010
0000
0100
0000
0000
0000
0101
0000
0000
0000
,  // measure 10
0001
0000
1000
0000
0100
0000
1000
0000
0100
0000
0000
0010
0000
0000
0001
0000
,  // measure 11
0010
0000
0000
1000
0000
0000
0010
0000
0001
0000
0000
0000
1001
0000
0000
0000
,  // measure 12
1000
0001
1000
0001
0100
0010
0100
0010
,  // measure 13
1000
0001
0010
0100
1000
0001
0100
0000
,  // measure 14
0010
1000
1000
0100
0001
0100
1000
0010
,  // measure 15
MMMM
0001
0001
0100
1000
0100
0001
0010
,  // measure 16
MMMM
0000
1000
0001
1000
0000
0010
0000
0001
0000
0010
0000
1000
0000
0100
0000
,  // measure 17
0002
0000
0000
0203
0000
0000
2300
0000
3010
0000
0000
0000
1010
0000
1000
0000
,  // measure 18
0001
0010
0010
0100
0001
0100
1000
0001
,  // measure 19
MMMM
0010
0010
0100
1000
0100
0001
1000
,  // measure 20
0100
0010
0100
0010
0001
1000
0001
1000
,  // measure 21
0010
0100
0001
1000
0100
0010
0001
0000
,  // measure 22
0201
0000
0000
0310
0100
0000
1000
0000
0100
0000
0000
0000
0010
0000
0100
0000
,  // measure 23
0101
0000
0000
0101
0000
0000
1000
0000
0001
0000
0010
MM0M
0010
0000
1000
0000
,  // measure 24
1200
0000
0000
0310
0100
0000
0001
0000
0100
0000
0000
0000
0010
0000
0100
0000
,  // measure 25
1100
0000
0000
1100
0000
0000
0001
0000
1000
0000
0010
MM0M
0010
0000
0001
0000
,  // measure 26
2001
0000
0000
3010
0100
0000
0010
0000
0001
0000
0000
0000
0010
0000
0100
0000
,  // measure 27
0110
0000
0000
1001
0000
0000
0001
0000
2000
0000
0000
3200
0000
0000
0302
0000
,  // measure 28
2003
0000
0000
3020
0000
0000
0031
0000
1001
0000
0000
1010
0000
0000
0220
0000
,  // measure 29
0000
0000
0330
0000
0001
0001
1000
1000
,  // measure 30
0001
0010
0001
0010
0001
0010
0001
0010
,  // measure 31
1000
0001
0100
0010
0100
0001
1000
0010
,  // measure 32
0001
0100
0001
0100
0001
0100
0001
1000
,  // measure 33
0010
0100
1000
0100
0001
0010
MMMM
0000
,  // measure 34
1000
0010
1000
0010
1000
0010
1000
0010
,  // measure 35
0001
1000
0100
0010
0100
1000
0001
0010
,  // measure 36
1000
0100
1000
0100
1000
0100
1000
0001
,  // measure 37
0010
0100
0001
0100
1000
0010
1000
0001
,  // measure 38
1001
0000
0001
1000
0200
0000
0001
0001
,  // measure 39
0000
0020
0000
0330
0110
0000
1000
0001
,  // measure 40
0200
0000
1000
1000
0000
0020
0000
0330
,  // measure 41
1001
0000
0010
0000
0000
0000
1000
0001
,  // measure 42
2000
0000
0010
0010
0000
0002
0000
3003
,  // measure 43
1000
0100
1000
0100
0010
0001
0010
0001
,  // measure 44
1000
0010
0100
0001
0010
0100
1000
0000
,  // measure 45
0001
0100
0100
0001
0010
1000
0001
0100
,  // measure 46
MMMM
0100
0100
1000
0010
0001
1000
0100
,  // measure 47
MMMM
0000
0100
0001
0100
0000
0001
0000
0010
0000
1000
0000
0010
0000
0001
0000
,  // measure 48
0200
0000
0000
2300
0000
0000
3200
0000
0301
0000
0000
0000
0011
0000
0010
0000
,  // measure 49
0001
1000
1000
0010
0001
1000
0100
0010
,  // measure 50
MMMM
0001
0001
0010
1000
0001
0100
0010
,  // measure 51
0001
1000
0001
1000
0010
0100
0010
0100
,  // measure 52
0001
1000
0100
0010
0001
1000
0010
0000
,  // measure 53
1020
0000
0000
0031
0010
0000
1000
0000
0110
0000
MMMM
0000
0001
0000
0100
0000
,  // measure 54
0101
0000
0000
1010
0000
0000
1000
0000
0100
0000
0001
MMM0
0001
0000
0010
0000
,  // measure 55
0021
0000
0000
1030
0010
0000
0001
0000
0110
0000
MMMM
0000
1000
0000
0100
0000
,  // measure 56
1100
0000
0000
0011
0000
0000
0001
0000
0100
0000
1000
0MMM
1000
0000
0010
0000
,  // measure 57
2001
0000
0000
3100
0001
0000
0100
0000
0110
0000
MMMM
0000
1000
0000
0001
0000
,  // measure 58
1001
0000
0000
0110
0000
0000
1000
0000
0002
0000
0000
0203
0000
0000
2300
0000
,  // measure 59
3002
0000
0000
0023
0000
0000
1030
0000
1001
0000
0000
0011
0000
0000
0220
0000
,  // measure 60
0000
0000
0330
0000
1000
1000
0001
0001
,  // measure 61
0100
1000
0100
0001
0010
1000
0010
0001
,  // measure 62
0100
0000
1000
0100
0010
0000
0100
0000
1000
0000
0001
0000
0010
0000
1000
0000
,  // measure 63
0100
0001
0100
1000
0010
0001
0010
1000
,  // measure 64
0100
0000
0001
0100
0010
0000
0100
0000
0001
0000
1000
0000
0010
0000
0001
0000
,  // measure 65
1000
0010
0001
1000
0100
0001
1000
0100
,  // measure 66
0001
0000
0100
0010
0100
0000
1000
0000
0020
0000
0000
0032
0000
0000
2003
0000
,  // measure 67
3200
0000
0000
0302
0000
0000
0013
0000
0110
0000
0000
1010
0000
0000
0022
0000
,  // measure 68
0000
0000
0033
0000
0001
0001
1000
1000
,  // measure 69
MMMM
0000
0000
0000
;

//---------------dance-single - ----------------
#NOTEDATA:;
#CHARTNAME:;
#STEPSTYPE:dance-single;
#DESCRIPTION:;
#CHARTSTYLE:;
#DIFFICULTY:Hard;
#METER:11;
#RADARVALUES:0.465222,0.497388,0.373147,0.517317,0.076326,384.000000,340.000000,44.000000,61.000000,0.000000,0.000000,0.000000,0.000000,0.000000,0.465222,0.497388,0.373147,0.517317,0.076326,384.000000,340.000000,44.000000,61.000000,0.000000,0.000000,0.000000,0.000000,0.000000;
#CREDIT:;
#OFFSET:1.024367;
#BPMS:0.000000=142.000000
;
#STOPS:152.000000=0.845070
,158.000000=0.845070
;
#DELAYS:;
#WARPS:;
#TIMESIGNATURES:0.000000=4=4
;
#TICKCOUNTS:0.000000=4
;
#COMBOS:0.000000=1
;
#SPEEDS:0.000000=1.000000=0.000000=0
;
#SCROLLS:0.000000=1.000000
;
#FAKES:;
#LABELS:0.000000=Song Start
;
#NOTES:
// measure 0
0000
0000
0000
0000
,  // measure 1
0000
0000
0000
0000
,  // measure 2
0000
0000
0000
0000
,  // measure 3
0000
0000
0000
0000
,  // measure 4
0000
0000
0000
0000
,  // measure 5
0000
0000
0000
0000
,  // measure 6
1100
0000
0001
0000
0000
0000
0001
0100
,  // measure 7
0020
0000
0100
0100
0000
2000
0000
3030
,  // measure 8
0101
0000
1000
0000
0000
0000
1000
0100
,  // measure 9
0020
0000
0100
0100
0000
0002
0000
0033
,  // measure 10
0011
0000
1000
0000
0000
0000
1000
0010
,  // measure 11
0200
0000
0001
0010
0000
0020
0000
0330
,  // measure 12
1010
0000
0001
0000
0000
0000
0001
0010
,  // measure 13
0200
0000
1000
0010
0000
0010
1300
0000
,  // measure 14
1000
0100
1000
0100
0010
0001
0100
0000
,  // measure 15
0001
0100
0001
0100
0010
1000
0100
0000
,  // measure 16
0010
0001
0010
0001
1000
0010
0100
0001
,  // measure 17
2000
3200
0302
0023
,  // measure 18
1030
0010
0100
0010
1000
0001
0010
0000
,  // measure 19
0001
0010
0100
0010
0001
1000
0010
0000
,  // measure 20
0110
0000
0000
0000
0000
0000
0000
0001
,  // measure 21
0200
0000
1000
0010
0000
0002
0303
0000
,  // measure 22
1002
0000
1003
0100
0010
0000
0010
0100
,  // measure 23
0001
0000
0000
0001
0000
0000
0100
0000
0010
0000
0100
0000
0010
0000
0100
0000
,  // measure 24
2000
0000
3001
0100
0010
0000
0010
0100
,  // measure 25
1000
0000
0000
1000
0000
0000
0100
0000
0010
0000
0100
0000
0010
0000
0100
0000
,  // measure 26
0002
0000
1003
0100
0010
0000
0001
0100
,  // measure 27
0010
0000
0000
0010
0000
0000
1000
0000
0002
0000
0000
0023
0000
0000
0032
0000
,  // measure 28
2003
0000
0000
3020
0000
0000
2030
0000
3001
0000
0000
0011
0000
0000
0220
0000
,  // measure 29
0000
0000
0330
0000
0001
1000
0001
1000
,  // measure 30
1010
0000
0011
0000
1010
0000
1000
0100
,  // measure 31
0001
0011
1010
1001
,  // measure 32
1100
0000
0011
0000
1100
0000
0010
0001
,  // measure 33
0100
1010
1100
0001
,  // measure 34
0011
0000
1010
0000
0011
0000
0001
0100
,  // measure 35
1000
1010
0011
1001
,  // measure 36
0101
0000
1010
0000
0101
0000
0001
1000
,  // measure 37
0100
1100
1001
0101
,  // measure 38
1001
0000
0001
0010
0200
0000
0001
0010
,  // measure 39
0000
2000
0000
3300
0110
0000
1000
0010
,  // measure 40
0200
0000
1000
0010
0000
0002
0000
0303
,  // measure 41
1001
0000
1000
0000
0001
0000
1000
0200
,  // measure 42
0001
0000
0010
0010
0000
1000
1300
0000
,  // measure 43
1001
0000
0001
0000
1000
0000
1000
0001
,  // measure 44
0200
0000
1000
0010
0000
0010
0301
0000
,  // measure 45
0001
0010
0001
0010
1000
0010
0001
0000
,  // measure 46
1000
0010
1000
0010
0001
0010
1000
0000
,  // measure 47
0001
0100
0001
0100
1000
0100
0001
1000
,  // measure 48
0200
0302
0023
2030
,  // measure 49
3100
0010
0001
0100
0001
0100
1000
0000
,  // measure 50
0100
0010
1000
0100
1000
0100
0001
0000
,  // measure 51
0110
0000
0000
0000
0000
0000
0000
1000
,  // measure 52
0200
0000
0001
0010
0000
2000
3300
0000
,  // measure 53
1002
0000
1003
0010
0001
0000
0001
0010
,  // measure 54
1000
0000
0000
1001
0000
0000
0001
0000
1000
0000
0100
0000
0001
0000
0100
0000
,  // measure 55
2000
0000
3001
0010
1000
0000
1000
0010
,  // measure 56
0001
0000
0000
1001
0000
0000
1000
0000
0001
0000
0100
0000
1000
0000
0100
0000
,  // measure 57
0002
0000
1003
0100
0001
0000
1000
0010
,  // measure 58
0001
0000
0000
1001
0000
0000
0001
0000
2000
0000
0000
3020
0000
0000
2030
0000
,  // measure 59
3002
0000
0000
0023
0000
0000
0032
0000
1003
0000
0000
1010
0000
0000
0220
0000
,  // measure 60
0000
0000
0330
0000
0001
1000
0001
1000
,  // measure 61
0020
0000
0031
1000
0200
0000
0301
0010
,  // measure 62
1000
0000
0000
1000
0000
0000
1000
0000
0010
0000
0001
0000
0010
0000
0001
0000
,  // measure 63
0200
0000
1300
0001
0020
0000
1030
0100
,  // measure 64
0001
0000
0000
0001
0000
0000
0001
0000
0100
0000
1000
0000
0100
0000
1000
0000
,  // measure 65
0002
0000
0103
1000
0002
0000
0013
1000
,  // measure 66
0100
0000
0000
0100
0000
0000
0010
0000
0002
0000
0000
0203
0000
0000
0320
0000
,  // measure 67
2030
0000
0000
3200
0000
0000
0320
0000
0031
0000
0000
0110
0000
0000
2002
0000
,  // measure 68
0000
0000
3003
0000
0001
1000
0001
1000
,  // measure 69
0010
0000
0000
0000
;

//---------------dance-single - ----------------
#NOTEDATA:;
#CHARTNAME:;
#STEPSTYPE:dance-single;
#DESCRIPTION:;
#CHARTSTYLE:;
#DIFFICULTY:Medium;
#METER:7;
#RADARVALUES:0.371935,0.438872,0.474914,0.390108,0.000000,307.000000,251.000000,56.000000,46.000000,0.000000,0.000000,0.000000,0.000000,0.000000,0.371935,0.438872,0.474914,0.390108,0.000000,307.000000,251.000000,56.000000,46.000000,0.000000,0.000000,0.000000,0.000000,0.000000;
#CREDIT:;
#OFFSET:1.024367;
#BPMS:0.000000=142.000000
;
#STOPS:152.000000=0.845070
,158.000000=0.845070
;
#DELAYS:;
#WARPS:;
#TIMESIGNATURES:0.000000=4=4
;
#TICKCOUNTS:0.000000=4
;
#COMBOS:0.000000=1
;
#SPEEDS:0.000000=1.000000=0.000000=0
;
#SCROLLS:0.000000=1.000000
;
#FAKES:;
#LABELS:0.000000=Song Start
;
#NOTES:
// measure 0
0000
0000
0000
0000
,  // measure 1
0000
0000
0000
0000
,  // measure 2
0000
0000
0000
0000
,  // measure 3
0000
0000
0000
0000
,  // measure 4
0000
0000
0000
0000
,  // measure 5
0000
0000
0000
0000
,  // measure 6
1001
0000
0010
0000
,  // measure 7
1000
0100
1000
0010
,  // measure 8
1001
0000
0010
0000
,  // measure 9
0001
0100
0001
0010
,  // measure 10
1001
0000
0100
0000
,  // measure 11
1000
0100
0010
0001
,  // measure 12
1001
0000
0100
0000
,  // measure 13
0002
1000
1000
1003
,  // measure 14
0001
0001
0011
1100
,  // measure 15
1000
1000
1010
0101
,  // measure 16
0001
0001
0110
1001
,  // measure 17
2000
3020
0230
0302
,  // measure 18
0013
0010
1100
0101
,  // measure 19
0010
0010
0101
1100
,  // measure 20
1001
0000
0000
0000
0000
0000
0000
0001
,  // measure 21
2000
0000
0000
0001
0000
0002
3003
0000
,  // measure 22
1100
0010
0101
0010
,  // measure 23
1100
0000
1100
0000
0001
1000
0001
0000
,  // measure 24
1010
0100
0011
0100
,  // measure 25
1010
0000
1010
0000
0001
1000
0001
0000
,  // measure 26
1001
0100
1001
0010
,  // measure 27
1001
0110
0002
0023
,  // measure 28
2030
3020
0032
0203
,  // measure 29
2000
3300
0100
0100
,  // measure 30
0001
0000
0001
0000
0001
0000
0001
0010
,  // measure 31
1000
0010
0001
0100
,  // measure 32
0001
0000
0001
0000
0001
0000
0001
0100
,  // measure 33
1000
0100
0001
0000
,  // measure 34
1000
0000
1000
0000
1000
0000
1000
0010
,  // measure 35
0001
0010
1000
0100
,  // measure 36
1000
0000
1000
0000
1000
0000
1000
0100
,  // measure 37
0001
0100
1000
0001
,  // measure 38
1001
0000
0000
1000
0020
0000
0000
1000
,  // measure 39
0000
1030
0000
0000
1001
0000
0000
0001
,  // measure 40
0020
0000
0000
0001
0000
0031
0000
0000
,  // measure 41
1001
0000
0001
0000
0000
0000
1000
0001
,  // measure 42
2000
0000
0000
0001
0000
3001
0000
0000
,  // measure 43
1000
0100
0010
0001
,  // measure 44
2000
0001
0001
3001
,  // measure 45
1000
0010
1010
0011
,  // measure 46
0001
0100
0101
1100
,  // measure 47
1000
0010
1010
0101
,  // measure 48
0002
0023
0230
2300
,  // measure 49
3001
0100
1100
1010
,  // measure 50
1000
0100
0101
0011
,  // measure 51
1001
0000
0000
0000
0000
0000
0000
1000
,  // measure 52
0002
0000
0000
1000
0000
2000
3003
0000
,  // measure 53
1002
0000
0013
0001
0100
0000
0010
0000
,  // measure 54
0101
0000
0101
0000
1000
0001
1000
0000
,  // measure 55
2001
0000
3010
1000
0100
0000
0010
0000
,  // measure 56
1100
0000
1100
0000
0001
1000
0001
0000
,  // measure 57
1002
0000
0013
0001
0100
0000
0010
0000
,  // measure 58
1001
0110
2000
3020
,  // measure 59
0032
0023
2030
3200
,  // measure 60
0002
0303
0100
0100
,  // measure 61
2001
0000
3001
0010
0002
0000
1003
0010
,  // measure 62
1000
0000
0110
0000
0001
0001
0001
0000
,  // measure 63
1002
0000
1003
0100
1000
0000
0001
0100
,  // measure 64
0001
0000
0110
0000
1000
1000
1000
0000
,  // measure 65
1002
0000
0013
0100
2000
0000
3010
0100
,  // measure 66
0001
1001
0002
0203
,  // measure 67
2300
3200
0302
0023
,  // measure 68
2000
3030
0010
0010
,  // measure 69
0100
0000
0000
0000
;

//---------------dance-single - ----------------
#NOTEDATA:;
#CHARTNAME:;
#STEPSTYPE:dance-single;
#DESCRIPTION:;
#CHARTSTYLE:;
#DIFFICULTY:Easy;
#METER:5;
#RADARVALUES:0.281072,0.351097,0.084806,0.144170,0.000000,232.000000,222.000000,10.000000,17.000000,0.000000,0.000000,0.000000,0.000000,0.000000,0.281072,0.351097,0.084806,0.144170,0.000000,232.000000,222.000000,10.000000,17.000000,0.000000,0.000000,0.000000,0.000000,0.000000;
#CREDIT:;
#OFFSET:1.024367;
#BPMS:0.000000=142.000000
;
#STOPS:152.000000=0.845070
,158.000000=0.845070
;
#DELAYS:;
#WARPS:;
#TIMESIGNATURES:0.000000=4=4
;
#TICKCOUNTS:0.000000=4
;
#COMBOS:0.000000=1
;
#SPEEDS:0.000000=1.000000=0.000000=0
;
#SCROLLS:0.000000=1.000000
;
#FAKES:;
#LABELS:0.000000=Song Start
;
#NOTES:
// measure 0
0000
0000
0000
0000
,  // measure 1
0000
0000
0000
0000
,  // measure 2
0000
0000
0000
0000
,  // measure 3
0000
0000
0000
0000
,  // measure 4
0000
0000
0000
0000
,  // measure 5
0000
0000
0000
0000
,  // measure 6
1000
0000
1000
0000
,  // measure 7
1000
0100
0010
0000
,  // measure 8
0001
0000
0001
0000
,  // measure 9
0001
0100
0010
0000
,  // measure 10
1000
0000
1000
0000
,  // measure 11
0010
1000
0100
0000
,  // measure 12
0010
0010
0001
0001
,  // measure 13
0010
0001
0100
0010
,  // measure 14
1000
1000
0100
0010
,  // measure 15
0001
0001
0100
0010
,  // measure 16
1000
1000
0100
0010
,  // measure 17
0002
0203
0020
0330
,  // measure 18
0001
0001
0100
0010
,  // measure 19
1000
1000
0100
0010
,  // measure 20
1001
0000
0000
0000
,  // measure 21
0002
0000
2000
3003
,  // measure 22
1000
0100
0001
0100
,  // measure 23
1000
1000
0010
0100
,  // measure 24
0001
0100
1000
0100
,  // measure 25
0001
0001
0010
0100
,  // measure 26
1000
0100
0001
0100
,  // measure 27
1000
1000
0001
0100
,  // measure 28
0010
1000
0100
0010
,  // measure 29
0002
0003
0001
0001
,  // measure 30
1000
0010
1000
0010
,  // measure 31
0001
0010
0001
0010
,  // measure 32
0001
0100
0001
0100
,  // measure 33
1000
0100
1000
0000
,  // measure 34
0001
0010
0001
0010
,  // measure 35
1000
0010
1000
0010
,  // measure 36
1000
0100
1000
0100
,  // measure 37
0001
0100
0001
0100
,  // measure 38
1001
1000
2000
0000
,  // measure 39
0002
3003
1001
0001
,  // measure 40
0002
0000
2000
3003
,  // measure 41
1000
0001
0000
0001
,  // measure 42
1000
0100
0000
0100
,  // measure 43
1000
1000
0001
0001
,  // measure 44
1000
0001
0100
0010
,  // measure 45
1000
1000
0100
0010
,  // measure 46
1000
1000
0010
0100
,  // measure 47
1000
1000
0010
0100
,  // measure 48
0002
2003
0200
3300
,  // measure 49
0001
0001
0100
0010
,  // measure 50
0001
0001
0010
0100
,  // measure 51
1001
0000
0000
0000
,  // measure 52
2000
0000
0002
3003
,  // measure 53
1000
0010
0001
0010
,  // measure 54
1010
1010
0010
0100
,  // measure 55
0001
0010
1000
0010
,  // measure 56
0011
0011
0010
0100
,  // measure 57
1000
0010
0001
0010
,  // measure 58
1010
1010
1000
0100
,  // measure 59
0010
0001
0100
0010
,  // measure 60
2000
3000
1000
1000
,  // measure 61
0001
0010
1000
0001
,  // measure 62
0100
1000
0010
0010
,  // measure 63
1000
0010
0001
1000
,  // measure 64
0100
0001
0010
0010
,  // measure 65
0001
0010
1000
0001
,  // measure 66
0100
1000
0001
0100
,  // measure 67
0010
1000
0100
0010
,  // measure 68
0002
0003
0001
0001
,  // measure 69
0100
0000
0000
0000
;

//---------------dance-single - ----------------
#NOTEDATA:;
#CHARTNAME:;
#STEPSTYPE:dance-single;
#DESCRIPTION:;
#CHARTSTYLE:;
#DIFFICULTY:Beginner;
#METER:2;
#RADARVALUES:0.169612,0.237457,0.042403,0.050884,0.000000,140.000000,135.000000,5.000000,6.000000,0.000000,0.000000,0.000000,0.000000,0.000000,0.169612,0.237457,0.042403,0.050884,0.000000,140.000000,135.000000,5.000000,6.000000,0.000000,0.000000,0.000000,0.000000,0.000000;
#CREDIT:;
#OFFSET:1.024367;
#BPMS:0.000000=142.000000
;
#STOPS:;
#DELAYS:;
#WARPS:;
#TIMESIGNATURES:0.000000=4=4
;
#TICKCOUNTS:0.000000=4
;
#COMBOS:0.000000=1
;
#SPEEDS:0.000000=1.000000=0.000000=0
;
#SCROLLS:0.000000=1.000000
;
#FAKES:;
#LABELS:0.000000=Song Start
;
#NOTES:
// measure 0
0000
0000
0000
0000
,  // measure 1
0000
0000
0000
0000
,  // measure 2
0000
0000
0000
0000
,  // measure 3
0000
0000
0000
0000
,  // measure 4
0000
0000
0000
0000
,  // measure 5
0000
0000
0000
0000
,  // measure 6
1000
0000
0000
0000
,  // measure 7
1000
0000
1000
0000
,  // measure 8
0001
0000
0000
0000
,  // measure 9
0001
0000
0001
0000
,  // measure 10
1000
0000
0000
0000
,  // measure 11
1000
0000
1000
0000
,  // measure 12
0001
0000
0000
0000
,  // measure 13
1000
0000
0001
0000
,  // measure 14
1000
1000
1000
0000
,  // measure 15
0001
0001
0001
0000
,  // measure 16
1000
1000
1000
0000
,  // measure 17
0100
0000
0010
0000
,  // measure 18
0100
0100
0100
0000
,  // measure 19
0010
0010
0010
0000
,  // measure 20
1001
0000
0000
0000
,  // measure 21
0000
0000
0000
0000
,  // measure 22
1000
1000
1000
0000
,  // measure 23
1000
0000
0001
0001
,  // measure 24
0001
0001
0001
0000
,  // measure 25
0001
0000
1000
1000
,  // measure 26
1000
1000
1000
0000
,  // measure 27
1000
0000
0100
0000
,  // measure 28
0010
0000
0001
0000
,  // measure 29
0200
0000
0300
0000
,  // measure 30
0010
0000
0010
0000
,  // measure 31
1000
0000
0001
0000
,  // measure 32
0010
0000
0010
0000
,  // measure 33
0100
0000
1000
0000
,  // measure 34
0001
0000
0001
0000
,  // measure 35
0100
0000
0010
0000
,  // measure 36
1000
0000
1000
0000
,  // measure 37
0100
0000
0010
0000
,  // measure 38
1001
0000
0000
0000
,  // measure 39
0002
0000
0003
0000
,  // measure 40
0110
0000
0000
0000
,  // measure 41
2000
0000
3000
0000
,  // measure 42
1001
0000
0000
0000
,  // measure 43
0020
0000
0030
0000
,  // measure 44
1000
0000
0001
0000
,  // measure 45
1000
0000
0001
0000
,  // measure 46
1000
1000
1000
0000
,  // measure 47
0100
0100
0100
0000
,  // measure 48
0001
0001
0001
0000
,  // measure 49
0010
0000
1000
0000
,  // measure 50
0001
0001
0001
0000
,  // measure 51
1000
1000
1000
0000
,  // measure 52
1001
0000
0000
0000
,  // measure 53
0000
0000
0000
0000
,  // measure 54
1000
1000
1000
0000
,  // measure 55
0010
0000
0001
0001
,  // measure 56
0001
0001
0001
0000
,  // measure 57
0010
0000
1000
1000
,  // measure 58
1000
1000
1000
0000
,  // measure 59
0010
0000
0001
0000
,  // measure 60
0010
0000
1000
0000
,  // measure 61
0002
0000
0003
0000
,  // measure 62
0001
0001
0001
0000
,  // measure 63
0100
0000
1000
1000
,  // measure 64
1000
1000
1000
0000
,  // measure 65
0010
0000
0001
0001
,  // measure 66
0001
0001
0001
0000
,  // measure 67
0100
0000
1000
0000
,  // measure 68
0010
0000
0001
0000
,  // measure 69
2000
0000
3000
0000
,  // measure 70
0001
0000
0000
0000
;
