#VERSION:0.83;
#TITLE:Ubud;
#SUBTITLE:;
#ARTIST:lapix;
#TITLETRANSLIT:;
#SUBTITLETRANSLIT:;
#ARTISTTRANSLIT:;
#GENRE:Hi-Tech Trap;
#ORIGIN:;
#CREDIT:;
#BANNER:Ubud.png;
#BACKGROUND:Ubud-bg.png;
#PREVIEWVID:;
#JACKET:Ubud-jacket.png;
#CDIMAGE:;
#DISCIMAGE:;
#LYRICSPATH:;
#CDTITLE:cdtitle.png;
#MUSIC:Ubud.ogg;
#OFFSET:-0.002855;
#SAMPLESTART:38.403858;
#SAMPLELENGTH:19.180000;
#SELECTABLE:YES;
#DISPLAYBPM:100.000000;
#BPMS:0.000=100.000,
48.000=200.000,
72.000=100.000,
156.000=200.000,
180.000=100.000,
184.000=200.000,
216.000=100.000;
#STOPS:;
#DELAYS:;
#WARPS:;
#TIMESIGNATURES:0.000=4=4;
#TICKCOUNTS:0.000=4;
#COMBOS:0.000=1;
#SPEEDS:0.000=1.000=0.000=0;
#SCROLLS:0.000=1.000;
#FAKES:;
#LABELS:0.000=Song Start;
#BGCHANGES:;
#KEYSOUNDS:;
#ATTACKS:
;

//---------------dance-single - ----------------
#NOTEDATA:;
#CHARTNAME:;
#STEPSTYPE:dance-single;
#DESCRIPTION:;
#CHARTSTYLE:;
#DIFFICULTY:Challenge;
#METER:13;
#RADARVALUES:0.497725,0.766707,0.320285,0.445274,0.898360,446.000000,405.000000,41.000000,57.000000,50.000000,0.000000,10.000000,0.000000,96.000000,0.497725,0.766707,0.320285,0.445274,0.898360,446.000000,405.000000,41.000000,57.000000,50.000000,0.000000,10.000000,0.000000,96.000000;
#CREDIT:;
#OFFSET:-0.002855;
#BPMS:0.000000=100.000000
,60.000000=400.000000
,61.250000=100.000000
,156.000000=200.000000
,158.000000=50.000000
,207.000000=200.000000
,239.000000=100.000000
;
#STOPS:60.000000=0.112499
,60.250000=0.112502
,60.500000=0.112502
,60.750000=0.112502
,61.000000=0.112502
,156.000000=0.099998
,156.333328=0.099998
,156.666672=0.099998
,157.000000=0.099998
,157.333328=0.099998
,157.666672=0.099998
;
#DELAYS:;
#WARPS:158.625000=16.000000
,174.750000=16.000000
,190.875000=16.000000
;
#TIMESIGNATURES:0.000000=4=4
;
#TICKCOUNTS:0.000000=4
;
#COMBOS:0.000000=1
;
#SPEEDS:0.000000=1.000000=0.000000=0
;
#SCROLLS:0.000000=1.000000
,61.250000=0.500000
,64.000000=1.000000
,158.250000=0.000000
,158.875000=2.000000
,159.000000=4.000000
,174.250000=0.000000
,174.875000=2.000000
,190.250000=0.000000
,190.875000=2.000000
,191.000000=1.000000
,206.875000=2.000000
,207.000000=0.500000
,239.000000=1.000000
;
#FAKES:;
#LABELS:0.000000=Song Start
;
#DISPLAYBPM:100.000000;
#NOTES:
0000
0000
0000
0000
,
0000
0000
0000
0000
,
0000
0000
0000
0000
,
0000
0000
0000
0000
,
1000
0000
0000
0000
1000
0000
0010
1000
0001
0020
0000
0230
0000
0320
0000
0032
,
0000
0003
0000
0001
0200
0000
1300
0200
0000
0300
0001
0020
0000
2030
0000
0000
,
3020
0000
0030
0000
0001
0200
0000
0320
0000
0032
0000
0023
0000
2030
0000
3200
,
0000
0000
0000
0000
0010
0000
0000
0000
1000
0000
0000
0000
0310
0001
1000
0001
,
0100
0000
0000
0100
0001
0010
0000
0000
2001
0000
300M
0000
0010
1000
0001
1000
,
0100
0000
0000
0100
1000
0010
0000
0000
1002
0000
M003
0000
0010
0001
1000
0001
,
0100
0000
0000
0010
1000
0100
0000
0000
2001
0000
3000
000M
0010
1000
0001
1000
,
0100
0000
0010
0000
0001
0000
0100
0000
1002
0000
M003
0000
0010
0100
0000
0100
,
4000
0000
0000
0000
0000
0000
0100
0000
0000
0000
0001
0000
0000
0000
0010
0000
0000
0000
0001
0000
0000
0000
0100
0000
0000
3000
0001
0000
0010
0000
0000
0000
,
1004
0000
0000
0000
0000
0000
0100
0000
0000
0000
1000
0000
0000
0000
0010
0000
0000
0000
1000
0000
0000
0000
0100
0000
0000
0003
1000
0000
0010
0000
0000
0000
,
1000
0000
0010
0000
1000
0000
0001
0000
0010
0000
0001
0000
1000
0000
0010
0000
4000
0004
0000
0000
0000
0000
0000
0000
0000
0000
0000
0000
0000
0000
0000
0000
,
30M3
00M0
00M0
00M0
00M0
00M0
0000
000M
0000
0M00
0000
00M0
0000
M000
0000
0000
,
1000
0000
0100
0000
1000
0000
1001
0000
0000
0001
0000
0100
0020
0000
0000
0000
,
1030
0000
0000
0000
0101
0000
0000
0000
1000
0100
M00M
0100
0001
0010
0001
0000
,
1001
0000
0000
0000
0110
0000
0000
0000
0001
0100
M00M
0100
2000
0000
0000
0000
,
3001
0000
0000
0000
0110
0000
0000
0000
0001
0010
M00M
0010
1000
0100
1000
0100
,
0110
0000
0000
0000
0012
0000
0000
0000
0013
1000
0MMM
1000
0100
0000
0010
0000
,
0011
0000
0000
0000
2010
0000
0000
0000
3010
0001
MMM0
0001
0100
0010
1000
0000
,
1001
0000
0000
0000
1000
0000
1100
0000
0100
0001
MMM0
0001
0010
0000
0100
0000
,
2002
0000
0000
0000
0000
0000
0000
0000
0000
0000
0000
0000
3003
0000
0000
0000
0000
0000
0100
0010
0100
0000
0010
0000
0100
0000
0010
0000
0100
0000
0010
0000
,
1001
0000
0001
1100
0000
0101
1000
0MM0
,
000M
0M00
2010
0000
0001
0000
0000
0100
0000
0001
0001
0000
3010
0000
0000
0000
,
1001
0000
0000
0000
0010
0000
0101
0000
0000
0000
1100
0000
0010
000M
M000
000M
,
M000
0M00
0012
0000
1000
0000
0100
0100
0000
1000
1000
0000
0013
0000
0000
0000
,
1001
0000
0000
1000
0100
2000
0000
3002
0000
0203
0000
0310
2000
0000
3002
0000
,
0023
0000
0000
0000
0130
0000
0000
0000
0100
0010
0000
0001
0000
0000
0101
0000
,
1001
0000
0000
0000
0002
0000
0103
0002
0000
2003
0000
3100
0010
0002
0000
0000
,
2003
0000
0000
0000
3010
0000
0000
0000
0010
1000
0000
0100
0000
0000
1100
0000
,
1001
0000
0000
0000
0001
0000
0010
0001
1000
0020
0000
0230
0000
0320
0000
2030
,
0001
3000
0000
1000
0200
0000
0301
0200
0000
0300
1000
0020
0000
0032
0000
0000
,
0023
0000
0030
0000
1000
0200
0000
0320
0000
2030
0000
3020
0000
0032
0000
0203
,
0010
0000
0000
0000
0010
0000
0000
0000
0301
0100
0000
0010
0100
0001
1000
0001
,
0040
0000
0000
0000
0000
0000
0100
0000
0000
0000
0001
0000
0000
0000
0100
0000
0000
0000
0000
0000
0000
0030
0000
0000
0100
0000
1000
0000
0001
0000
0100
0000
,
0040
0000
0000
0000
0000
0000
0100
0000
0000
0000
1000
0000
0000
0000
0100
0000
0000
0000
0000
0000
0000
0030
0000
0000
0100
0000
0001
0000
1000
0000
0100
0000
,
0010
0001
0100
0010
1000
0100
1000
0010
0100
0001
0010
0001
0100
0010
1000
0100
,
0010
0000
0000
0000
0000
0000
0000
0000
0000
0000
0000
0000
0000
0000
0000
0000
0001
0000
0000
0000
0000
0000
0000
0000
0000
0000
0000
0000
0000
0000
0000
0000
1000
0000
0000
0000
0000
0000
0000
0000
0000
0000
0000
0000
0000
0000
0000
0000
0001
0000
0000
0000
0000
0000
0000
0000
0000
0000
0000
0000
0000
0000
0000
0000
1000
0000
0000
0000
0000
0000
0000
0000
0000
0000
0000
0000
0000
0000
0000
0000
0001
0000
0000
0000
0000
0000
0000
0000
0000
0000
0000
0000
0000
0000
0000
0000
0100
0000
0000
0000
0000
0000
0000
0000
0000
0000
0000
0000
0110
0000
0000
0000
0000
0000
0000
0000
0000
0000
0000
0000
0000
0000
0000
0000
0000
0000
0000
0000
0000
0000
0000
0000
0000
0000
0000
0000
0000
0000
0000
0000
0000
0000
0000
0000
0001
0000
0000
0100
0000
0000
0001
0000
0000
0100
0000
0000
1000
0000
0000
0100
0000
0000
1000
0000
0000
0100
0000
0000
0001
0000
0000
0100
0000
0000
1000
0000
0000
0100
0000
0000
0001
0000
0000
0100
0000
0000
0001
0000
0000
0100
0000
0000
,
0001
0010
0001
0010
1000
0010
1000
0010
0001
0010
1000
0010
0001
0100
0010
1000
0000
0000
0000
0000
0000
0000
0000
0000
0000
0000
0000
0000
0000
0000
0000
0000
0000
0000
0000
0000
0000
0000
0000
0000
0000
0000
0000
0000
0000
0000
0000
0000
0000
0000
0000
0000
0000
0000
0000
0000
0000
0000
0000
0000
0000
0000
0000
0000
,
0000
0000
0000
0000
,
0000
0000
0000
0000
,
0000
0000
0000
0000
0000
0000
0000
0000
0000
0000
0000
0000
0000
0000
0000
0000
0000
0000
0000
0000
0000
0000
0000
0000
0001
0100
0001
0100
1000
0100
1000
0100
,
0001
0100
1000
0100
0001
0100
0001
0100
0001
0010
0001
0010
1000
0010
1000
0010
0001
0010
1000
0010
0001
0100
0010
1000
0000
0000
0000
0000
0000
0000
0000
0000
,
0000
0000
0000
0000
,
0000
0000
0000
0000
,
0000
0000
0000
0000
0000
0000
0000
0000
0000
0000
0000
0000
0001
0100
0001
0100
,
1000
0100
1000
0100
0001
0100
1000
0100
0001
0100
0001
0100
0001
0010
0001
0010
,
1000
0010
1000
0010
0001
0010
1000
0010
0001
0100
0010
1000
0000
0000
0000
0000
,
0000
0000
0000
0000
,
0000
0000
0000
0000
0000
0000
0001
0100
,
0001
0100
1000
0100
1000
0100
0001
0100
,
1000
0100
0001
0100
0001
0100
0001
0010
,
0001
0010
1000
0010
1000
0010
0001
0010
,
1000
0010
0001
0100
0010
1000
0100
1000
,
0100
1000
0100
0001
0100
0001
0100
1000
,
0100
0001
0100
1000
0100
1000
0010
1000
,
0010
1000
0010
0001
0010
0001
0010
1000
,
0100
0000
0010
0000
0001
1000
0001
0000
1000
0000
0001
0000
1001
0000
0000
0000
,
0012
0000
0000
0000
0103
1000
0MMM
1000
0010
0000
1000
0000
1001
0000
0000
0000
,
2010
0000
0000
0000
3100
0001
MMM0
0001
0010
0000
1100
0000
1001
0000
0000
0000
,
0201
0000
0310
0000
0100
1000
0MMM
1000
0010
0000
1000
0000
1001
0000
0000
0000
,
2100
0000
0000
0000
3100
0001
MMM0
0001
0010
0001
0100
0010
1000
0000
0100
4000
,
0000
0000
0000
0000
0001
0000
0000
0000
0000
0000
0000
0000
0010
0000
0000
0000
0000
0000
0000
0000
0001
0000
0000
3000
0010
0000
0000
0000
0100
0000
0004
0000
,
0000
0000
0000
0000
1000
0000
0000
0000
0000
0000
0000
0000
0010
0000
0000
0000
0000
0000
0000
0003
1000
0000
0000
0000
0110
0000
0000
0000
1000
0000
0400
0000
,
0000
0000
0000
0000
0010
0000
0000
0000
0000
0000
0000
0000
0001
0000
0000
0000
0000
0000
0000
0000
0010
0000
0000
0300
1000
0000
0000
0000
0001
0000
0400
0000
,
0000
0000
0000
0000
0010
0000
0000
0300
0000
0000
0001
1000
0001
0000
1000
0000
0100
0000
0010
0000
0100
0000
0001
0000
0000
0000
0000
0000
0000
0000
0000
0000
;

//---------------dance-single - ----------------
#NOTEDATA:;
#CHARTNAME:;
#STEPSTYPE:dance-single;
#DESCRIPTION:;
#CHARTSTYLE:;
#DIFFICULTY:Hard;
#METER:10;
#RADARVALUES:0.450854,0.452671,0.554640,0.249979,0.374968,404.000000,333.000000,71.000000,32.000000,0.000000,0.000000,2.000000,0.000000,0.000000,0.450854,0.452671,0.554640,0.249979,0.374968,404.000000,333.000000,71.000000,32.000000,0.000000,0.000000,2.000000,0.000000,0.000000;
#CREDIT:;
#OFFSET:-0.002855;
#BPMS:0.000000=100.000000
,60.000000=50.000000
,62.000000=100.000000
,156.000000=200.000000
,189.000000=100.000000
;
#STOPS:156.000000=0.900002
;
#DELAYS:;
#WARPS:;
#TIMESIGNATURES:0.000000=4=4
;
#TICKCOUNTS:0.000000=4
;
#COMBOS:0.000000=1
;
#SPEEDS:0.000000=1.000000=0.000000=0
;
#SCROLLS:0.000000=1.000000
,156.000000=0.500000
,189.000000=1.000000
;
#FAKES:;
#LABELS:0.000000=Song Start
;
#DISPLAYBPM:100.000000;
#NOTES:
0000
0000
0000
0000
,
0000
0000
0000
0000
,
0000
0000
0000
0000
,
0000
0000
0000
0000
,
1000
0000
0000
0000
1000
0000
0100
0010
0100
0010
0000
0001
0000
0100
0000
0020
,
0000
0000
0030
1000
0001
0000
0100
0002
0000
0003
1000
0100
0000
0020
0000
0030
,
0200
0000
0300
0000
0010
0001
0000
1000
0000
0010
0000
0100
0000
0001
0000
2000
,
0000
0000
0100
0000
3100
0000
0001
0100
,
1000
0000
0000
1000
0001
0100
0000
0000
0210
0000
0000
0000
1300
0000
0100
0000
,
0001
0000
0000
0001
1000
0100
0000
0000
0120
0000
0000
0000
1030
0000
0010
0000
,
0001
0000
0000
0001
0100
0010
0000
0000
0120
0000
0000
0000
0031
0000
0010
0000
,
1000
0000
1000
0000
0100
0000
0010
0000
0210
0000
0000
0000
1300
0001
0000
0001
,
0100
0010
0100
0001
1000
0100
0010
0100
,
1000
0010
0001
0010
0100
1000
0100
0001
,
0010
0100
0010
0100
0010
0100
0010
0100
0040
0000
0000
0000
0000
0000
0000
0000
,
0030
0000
0000
0000
0001
0100
0010
1010
,
0000
1000
0000
0001
0020
0000
0000
0000
0031
0000
0000
0000
0110
0000
0000
0000
,
1000
0010
0000
0010
1000
0000
0001
0000
0011
0000
0000
0000
1100
0000
0000
0000
,
0001
0100
0000
0100
0001
0000
0000
0000
0110
0000
0000
0000
1001
0000
0000
0000
,
1000
0100
0000
0100
0010
0000
0100
0000
1001
0000
0000
0000
2010
0000
0000
0000
,
3001
0010
0000
0001
0100
0000
0000
0000
1001
0000
0000
0000
0012
0000
0000
0000
,
1003
0010
0000
1000
0100
0000
0010
0000
0110
0000
0000
0000
2001
0000
3010
0000
,
0100
0001
0000
1000
0100
0000
0000
0000
0220
0000
0000
0000
0000
0000
0000
0000
,
0330
0100
0010
0100
1002
0000
0100
0203
,
0000
0000
1000
0000
1300
0000
0000
0000
0000
0000
1200
0000
0010
0000
0000
0010
,
0000
0001
0301
0000
2001
0000
0100
3200
,
0000
0000
0001
0000
0301
0000
0000
0000
0000
0000
0201
0000
0010
0000
0000
0010
,
0000
0000
1000
0000
1300
0000
0000
0000
1001
0000
0000
0001
0100
0001
0000
1000
,
0000
0100
0000
0100
0010
0000
0001
0000
0200
0000
0000
0000
0310
0000
0000
0000
,
0010
1000
0000
0001
0000
0000
1001
0000
1001
0000
0000
0000
1000
0000
0100
1000
,
0000
0001
0000
0100
0010
1000
0000
0000
0200
0000
0000
0000
0310
0000
0000
0000
,
0010
0001
0000
1000
0000
0000
1001
0000
1001
0000
0000
0000
0001
0000
0100
0010
,
0100
0010
0000
1000
0000
0100
0000
0020
0000
0000
0030
0001
1000
0000
0100
2000
,
0000
3000
0001
0100
0000
0020
0000
0030
0200
0000
0300
0000
0010
1000
0000
0001
,
0000
0010
0000
0100
0000
1000
0000
0002
0000
0000
0000
0000
0100
0000
0000
0000
,
0103
0000
0000
0000
0010
1000
0010
1000
0001
0000
0001
0000
0010
0000
0010
0000
,
0100
0000
0100
0000
0010
0001
0010
0001
1000
0000
1000
0000
0010
0000
0010
0000
,
0100
0000
0100
0000
0001
1000
0001
1000
0100
0000
0001
0000
1000
0000
0010
0000
,
0001
0000
0100
0000
0010
1000
0001
1000
0400
0000
0000
0000
0000
0000
0000
0000
,
0300
1001
0101
1001
,
1100
1001
0101
1001
,
1100
1001
0011
1001
,
1010
1001
0011
1001
,
1010
1001
0011
0110
,
0011
1001
1010
0110
,
1010
1001
0011
0110
,
0011
0000
1001
0000
1000
0001
1000
0001
,
1000
0000
0000
0000
1001
0000
0000
0000
0201
0000
0000
0000
1300
0100
0000
0100
,
0001
0000
0000
0000
1001
0000
0000
0000
1200
0000
0000
0000
0301
0100
0000
0100
,
1000
0000
0010
0000
1001
0000
0000
0000
0012
0000
1003
0000
0010
0100
0000
0100
,
0001
0000
0000
0000
0110
0000
0000
0000
2001
0000
0000
0000
3100
0010
0000
0001
,
1000
0001
1000
0000
1001
0000
0000
0000
0100
0000
0000
1001
0000
0000
1001
0000
,
0010
0000
0000
0000
1001
0000
0000
0000
0001
0000
0010
0100
0000
1000
0010
0000
,
0100
0000
0001
0000
0011
0000
0000
0000
1000
0000
0000
1010
0000
0000
1010
0000
,
0001
0000
0000
0000
1001
0000
0000
0000
1000
0000
0100
0010
0000
0001
0100
0000
,
0010
1000
0010
1000
0000
0000
0000
0000
0000
0000
0000
0000
0000
0000
0000
0000
;

//---------------dance-single - ----------------
#NOTEDATA:;
#CHARTNAME:;
#STEPSTYPE:dance-single;
#DESCRIPTION:;
#CHARTSTYLE:;
#DIFFICULTY:Medium;
#METER:7;
#RADARVALUES:0.345952,0.366033,0.335909,0.117177,0.066401,310.000000,267.000000,43.000000,15.000000,0.000000,0.000000,0.000000,0.000000,0.000000,0.345952,0.366033,0.335909,0.117177,0.066401,310.000000,267.000000,43.000000,15.000000,0.000000,0.000000,0.000000,0.000000,0.000000;
#CREDIT:;
#OFFSET:-0.002855;
#BPMS:0.000000=100.000000
,155.000000=200.000000
,189.000000=100.000000
;
#STOPS:60.000000=1.800000
,155.000000=0.599999
;
#DELAYS:;
#WARPS:;
#TIMESIGNATURES:0.000000=4=4
;
#TICKCOUNTS:0.000000=4
;
#COMBOS:0.000000=1
;
#SPEEDS:0.000000=1.000000=0.000000=0
;
#SCROLLS:0.000000=1.000000
,155.000000=0.500000
,189.000000=1.000000
;
#FAKES:;
#LABELS:0.000000=Song Start
;
#DISPLAYBPM:100.000000;
#NOTES:
0000
0000
0000
0000
,
0000
0000
0000
0000
,
0000
0000
0000
0000
,
0000
0000
0000
0000
,
0001
0000
0000
0000
0001
0000
0000
0000
0010
0000
0000
0001
0000
0000
1000
0000
,
1000
0000
0000
0000
1000
0000
0000
0000
0010
0000
0000
1000
0000
0000
0001
0000
,
0010
0000
0000
0000
0010
0000
0000
0000
0100
0000
0000
1000
0000
0000
0010
0000
,
0010
0000
0010
0000
0100
0000
0010
1000
,
0100
0000
0110
0000
1001
0000
0010
0001
,
0100
0000
0110
0000
1001
0000
0001
0100
,
1000
0000
1100
0000
0101
0000
1000
0100
,
0001
0101
1100
0001
,
1000
0010
1000
0010
1000
0001
1000
0001
,
1000
0100
1000
0100
1000
0001
1000
0001
,
0100
0100
0010
0010
1000
0010
0001
0010
,
1000
0000
0000
0000
0100
0000
0000
0000
0100
0000
1001
0000
0000
1000
0000
0000
,
0002
0000
0103
0000
1001
0000
1000
0100
,
0010
0001
0100
0000
2001
0000
3010
1000
,
0200
0000
0310
0000
1002
0000
0013
0001
,
0100
0010
1010
0000
0011
0000
1000
0010
,
1000
0000
0101
0000
1100
0000
0001
0010
,
0001
0100
1001
0000
0110
0000
1000
0100
,
0001
0000
0220
0000
0000
0000
0030
0010
,
0010
0310
1002
0000
0103
0101
0000
1010
,
1000
0000
0000
0000
0000
0000
2001
0000
0100
0000
0000
0100
0000
0000
0100
0000
,
3100
0000
2001
0000
3100
1100
0000
0011
,
0001
0000
0000
0000
0000
0000
1002
0000
0100
0000
0000
0100
0000
0000
0100
0000
,
0103
0000
0000
0000
0001
0000
0000
0000
0001
0000
0000
0000
0010
0000
0000
0100
,
0000
0000
1000
0000
1000
0000
0000
0000
1000
0000
0000
0000
0010
0000
0000
0100
,
0000
0000
0001
0000
0010
0000
0000
0000
0010
0000
0000
0000
0100
0000
0000
1000
,
0000
0000
0010
0000
0010
0000
0000
0000
0010
0000
0000
0000
0100
0000
0000
0001
,
0000
0000
1000
0000
1100
0000
0000
0000
0101
0000
0000
0000
0001
0000
0000
0010
,
0000
0000
0001
0000
0101
0000
0000
0000
1100
0000
0000
0000
1000
0000
0000
0010
,
0000
0000
0100
0000
0101
0000
0000
0000
0011
0000
0000
0000
1000
0000
0000
0010
,
0000
1000
1100
0000
1010
0000
0001
0000
,
0010
0001
0100
0100
0010
1000
0100
0100
,
0010
0100
1000
1000
0010
0100
0001
0001
,
1000
0001
0010
0100
0010
0100
1000
0001
,
1000
0001
0200
0000
0000
0000
0300
0000
,
0000
0001
0100
1000
,
0100
0001
0100
1000
,
0100
0001
0010
1000
,
0010
0001
0010
1000
,
0010
0001
0100
1000
,
0100
0001
0010
1000
,
0010
0001
0100
1000
,
0100
0001
0010
0100
,
1000
0000
1001
0000
1020
0000
0031
0010
,
1000
0000
1100
0000
0021
0000
1030
0010
,
0001
0100
1001
0000
0201
0000
1300
0100
,
0001
0000
1001
0000
1200
0000
0301
0100
,
1000
0000
0010
0000
1000
0000
0000
0000
0001
0000
0000
1000
0000
0000
1000
0000
,
0001
0000
0000
0000
0010
0000
0000
0000
0100
0000
0000
0010
0000
0000
0010
0000
,
0001
0000
1000
0000
0010
0000
0000
0000
0100
0000
0000
0010
0000
0000
0010
0000
,
0100
0000
0000
0000
0001
0000
0000
0000
1000
0000
0000
0001
0000
0000
0001
0000
,
0010
0010
0000
0000
0000
0000
0000
0000
;

//---------------dance-single - ----------------
#NOTEDATA:;
#CHARTNAME:;
#STEPSTYPE:dance-single;
#DESCRIPTION:;
#CHARTSTYLE:;
#DIFFICULTY:Easy;
#METER:4;
#RADARVALUES:0.205340,0.318332,0.117177,0.101554,0.000000,184.000000,169.000000,15.000000,13.000000,0.000000,0.000000,0.000000,0.000000,0.000000,0.205340,0.318332,0.117177,0.101554,0.000000,184.000000,169.000000,15.000000,13.000000,0.000000,0.000000,0.000000,0.000000,0.000000;
#CREDIT:;
#OFFSET:-0.002855;
#BPMS:0.000000=100.000000
;
#STOPS:60.000000=1.800000
,155.000000=0.599998
;
#DELAYS:;
#WARPS:;
#TIMESIGNATURES:0.000000=4=4
;
#TICKCOUNTS:0.000000=4
;
#COMBOS:0.000000=1
;
#SPEEDS:0.000000=1.000000=0.000000=0
;
#SCROLLS:0.000000=1.000000
;
#FAKES:;
#LABELS:0.000000=Song Start
;
#DISPLAYBPM:100.000000;
#NOTES:
0000
0000
0000
0000
,
0000
0000
0000
0000
,
0000
0000
0000
0000
,
0000
0000
0000
0000
,
1000
1000
0010
1000
,
0100
0010
0010
0001
,
0100
0001
0001
1000
,
0200
0000
0310
0010
,
0001
0100
0101
0000
,
1000
0100
1100
0000
,
0001
0010
0011
0000
,
1000
0010
1010
0000
,
0001
0001
0100
0100
,
0010
0010
1000
1000
,
0001
0010
1000
0010
,
0001
0000
0100
0000
0000
2002
0000
0000
,
3003
1000
0100
1000
,
1000
0001
0100
0001
,
0001
1000
0100
0010
,
0001
1000
0010
0001
,
0001
0010
0001
0100
,
0100
0001
0100
1000
,
1000
0020
0000
0000
,
0030
0000
1000
0000
0000
0100
0000
0010
,
0000
0000
0000
0022
0000
0000
0000
0000
,
0033
0000
0001
0000
0000
0100
0000
0010
,
0000
0000
0000
2020
0000
0000
0000
0000
,
3030
0001
0001
1000
,
1000
0200
0000
0310
,
0001
1000
1000
0001
,
0001
0200
0000
0310
,
1000
0001
0001
0010
,
0001
0100
0010
0010
,
1000
0100
1000
1000
,
0001
0200
0000
0310
,
1000
0100
0010
0010
,
0001
0100
0010
0010
,
1000
0100
0001
0100
,
1000
0020
0000
0030
,
1001
0000
1001
0000
0001
0010
0001
0000
,
1001
0000
1001
0000
1000
0010
1000
0000
,
1001
0000
1001
0000
0001
0100
0001
0000
,
1001
0000
1001
0000
1000
0100
1000
0000
,
0001
0100
1000
1000
,
0100
1000
0010
0010
,
1000
0010
0001
0001
,
0010
0001
0100
0010
,
1000
1000
0100
0100
,
0001
0001
0100
0100
,
1000
1000
0010
0010
,
0001
0000
0000
0000
0001
0000
0000
0000
0010
0000
0000
0000
2000
0000
0000
3000
;

//---------------dance-single - ----------------
#NOTEDATA:;
#CHARTNAME:;
#STEPSTYPE:dance-single;
#DESCRIPTION:;
#CHARTSTYLE:;
#DIFFICULTY:Beginner;
#METER:2;
#RADARVALUES:0.113830,0.140808,0.015624,0.078118,0.000000,102.000000,100.000000,2.000000,10.000000,0.000000,0.000000,0.000000,0.000000,0.000000,0.113830,0.140808,0.015624,0.078118,0.000000,102.000000,100.000000,2.000000,10.000000,0.000000,0.000000,0.000000,0.000000,0.000000;
#CREDIT:;
#OFFSET:-0.002855;
#BPMS:0.000000=100.000000
;
#STOPS:;
#DELAYS:;
#WARPS:;
#TIMESIGNATURES:0.000000=4=4
;
#TICKCOUNTS:0.000000=4
;
#COMBOS:0.000000=1
;
#SPEEDS:0.000000=1.000000=0.000000=0
;
#SCROLLS:0.000000=1.000000
;
#FAKES:;
#LABELS:0.000000=Song Start
;
#DISPLAYBPM:100.000000;
#NOTES:
0000
0000
0000
0000
,
0000
0000
0000
0000
,
0000
0000
0000
0000
,
0000
0000
0000
0000
,
1000
0000
1000
0000
,
0001
0000
0001
0000
,
0010
0000
0100
0000
,
0020
0000
0030
0000
,
0001
0001
0001
0000
,
0100
0100
0100
0000
,
0010
0010
0010
0000
,
1000
1000
1000
0000
,
0001
0000
1000
0000
,
0001
0000
1000
0000
,
0100
0100
0100
0100
,
0100
0000
0000
0000
,
1000
0000
1000
0000
,
0010
0000
0010
0000
,
0100
0000
0100
0000
,
0001
0000
0001
0000
,
1000
0000
0100
0000
,
0001
0000
0100
0000
,
1000
0000
0010
0000
,
0200
0000
0300
0000
,
0001
0000
0001
0000
,
0000
2002
0000
0000
0000
0000
3003
0000
,
1000
0000
1000
0000
,
0000
2002
0000
0000
0000
0000
3003
0000
,
0001
0000
0010
0000
,
0002
0000
0003
0000
,
1000
0000
0010
0000
,
2000
0000
3000
0000
,
0001
0000
0001
0000
,
1000
0000
1000
0000
,
0010
0000
0100
0000
,
0020
0000
0030
0000
,
1000
1000
1000
0000
,
0100
0100
0100
0000
,
0010
0010
0010
0000
,
0002
0000
0003
0000
,
0001
0001
0001
0000
,
0100
0100
0100
0000
,
1000
1000
1000
0000
,
0010
0010
0010
0000
,
0001
0000
0100
0000
,
1000
0000
0100
0000
,
0001
0000
0010
0000
,
1000
0000
0010
0000
,
0001
0000
0001
0000
,
1000
0000
1000
0000
,
0010
0000
0010
0000
,
0100
0000
0100
0000
;
