#TITLE:Try Again;
#SUBTITLE:;
#ARTIST:Rhodz;
#TITLETRANSLIT:;
#SUBTITLETRANSLIT:;
#ARTISTTRANSLIT:;
#GENRE:Chip 'n' Bass;
#CREDIT:;
#BANNER:;
#BACKGROUND:;
#LYRICSPATH:;
#CDTITLE:cdtitle.png;
#MUSIC:Try Again.ogg;
#OFFSET:-0.027057;
#SAMPLESTART:19.225058;
#SAMPLELENGTH:12.800001;
#SELECTABLE:YES;
#BPMS:0.000000=150.000000
;
#STOPS:
;
#BGCHANGES:;
#KEYSOUNDS:;
#ATTACKS:;

//---------------dance-single - ----------------
#NOTES:
     dance-single:
     :
     Challenge:
     13:
     0.658482,0.747070,0.419922,0.839844,0.419922,472.000000,429.000000,43.000000,86.000000,6.000000,0.000000,0.658482,0.747070,0.419922,0.839844,0.419922,472.000000,429.000000,43.000000,86.000000,6.000000,0.000000:
// measure 0
0000
0000
0000
0000
,  // measure 1
0000
0000
0000
0000
,  // measure 2
0000
0000
0000
0000
,  // measure 3
0000
0000
0000
0000
0000
0000
0000
0000
0000
0000
0000
0000
0001
0000
0001
1000
,  // measure 4
0001
0000
0011
0000
0001
0100
0010
0200
,  // measure 5
0301
0000
0040
0000
0130
0000
0020
0000
0032
1000
0003
1000
0001
0000
1000
0000
,  // measure 6
0010
0000
1010
0000
1000
0100
0010
0200
,  // measure 7
1300
0000
0040
0000
0130
0001
0000
1000
0100
1000
0100
0000
0010
0000
0001
0000
,  // measure 8
0100
0000
1001
0000
1000
0010
0100
0020
,  // measure 9
1030
0000
0400
0000
0310
0000
0200
0000
2300
0001
3000
0001
1000
0000
0001
0000
,  // measure 10
0100
0000
1001
0000
0001
0010
0100
0020
,  // measure 11
0031
0000
0400
0000
0310
1000
0001
0000
0020
0000
0000
0000
0130
0000
0010
0100
,  // measure 12
0010
0000
0011
0001
1000
1010
0000
0201
,  // measure 13
0000
0000
0320
0000
1030
0000
0100
0000
0010
0000
0100
1000
0000
1000
0001
0000
,  // measure 14
0100
0000
0110
0010
1000
1001
0000
1200
,  // measure 15
0000
0000
0310
0000
0001
0100
0000
0010
2000
0000
0000
3200
0000
0000
2300
0000
,  // measure 16
3010
0000
1010
1000
0001
0011
0000
1200
,  // measure 17
0000
0000
0320
0000
0031
0000
1000
0000
0010
0000
0100
0001
0000
0001
0010
0000
,  // measure 18
0100
0000
0110
0010
0001
1001
0000
0201
,  // measure 19
0000
0000
0310
0000
1000
0100
0000
0010
0001
0000
0100
0000
0120
0000
0000
0000
,  // measure 20
1030
0000
0000
1000
0100
0000
0010
0000
0100
0000
0001
0000
0100
0000
0120
0000
,  // measure 21
0000
0000
0430
0000
1300
0000
0002
0000
0203
0000
0310
0100
0010
0000
1000
0000
,  // measure 22
0001
0100
0100
0001
0010
0100
1000
2100
,  // measure 23
0000
0000
3040
0000
0130
0001
0000
0010
0100
0000
1000
0000
0010
0000
0100
0000
,  // measure 24
0001
0100
0100
1000
0100
0010
0100
0102
,  // measure 25
0000
0000
0403
0000
0301
0000
2000
0000
3200
0000
0310
0100
0010
0000
0001
0000
,  // measure 26
1000
0010
0010
0100
0001
0010
0100
0120
,  // measure 27
0000
0000
0034
0000
1003
0100
0000
1000
0010
0000
0100
0000
0210
0000
0000
0000
,  // measure 28
0302
0003
0010
0000
0000
0010
0000
0200
,  // measure 29
0000
0000
0310
0000
0000
0000
0000
0010
,  // measure 30
0002
0003
0100
0000
0000
0100
0000
0002
,  // measure 31
0000
0003
0000
0002
0203
0000
0320
0000
,  // measure 32
2030
3000
0100
0000
0000
0100
0000
0020
,  // measure 33
0000
0000
0130
0000
0000
0000
0000
0100
,  // measure 34
2000
3000
0010
0000
0000
0010
0000
0200
,  // measure 35
0000
0000
0000
0000
0300
0000
0001
0000
0020
0000
0000
0000
0031
0000
0001
1000
,  // measure 36
0001
0000
0101
0000
1000
0010
1000
0200
,  // measure 37
0000
0000
0304
0000
0103
0000
0020
0000
0032
0100
0003
0100
0010
0000
1000
0000
,  // measure 38
0010
0000
1001
0000
0001
0100
0001
0020
,  // measure 39
0000
0000
4030
0000
3010
0100
0000
0010
0001
0010
0001
0000
0100
0000
0000
0000
,  // measure 40
0010
0000
1001
0000
0001
0010
0001
0200
,  // measure 41
0000
0000
4300
0000
3100
0000
0020
0000
2030
0100
3000
0100
0010
0000
0001
0000
,  // measure 42
0010
0000
1100
0000
1000
0100
1000
0020
,  // measure 43
0000
0000
0034
0000
0013
0100
0010
0000
2000
0000
0000
0000
3001
0000
0001
1000
,  // measure 44
0200
0000
0000
0300
0011
0000
0001
0000
0200
0000
0000
2300
0000
0000
3200
0000
,  // measure 45
0301
0000
0040
0100
0030
0100
2000
0000
3020
0000
0031
0020
0100
0030
0020
0000
,  // measure 46
2030
0000
0000
3000
1010
0000
1000
0000
0200
0000
0000
0320
0000
0000
0032
0000
,  // measure 47
0103
0000
0040
0000
0130
0001
0000
1000
0200
0000
0310
0002
1000
0003
0002
0000
,  // measure 48
0203
0000
0000
0300
1010
0000
1000
0000
0200
0000
0000
0302
0000
0000
0203
0000
,  // measure 49
1300
0000
0040
0100
0030
0100
0002
0000
0023
0000
1030
0020
0100
0030
0020
0000
,  // measure 50
0032
0000
0000
0003
0011
0000
0001
0000
0200
0000
0000
0320
0000
0000
2030
0000
,  // measure 51
3100
0000
0040
0000
0130
1000
0000
0001
0200
0000
0310
0200
0010
0300
0200
0000
,  // measure 52
0301
0000
0010
0001
1000
0000
0001
0000
1000
0001
0100
0000
0001
0000
0010
0000
,  // measure 53
0011
0000
MM0M
0010
1000
0001
0000
0001
0200
0000
0000
1300
0100
0000
0001
0000
,  // measure 54
0010
0000
0100
0010
0001
0000
1000
0000
0010
0100
0001
0000
1000
0000
1100
0000
,  // measure 55
1002
0000
0000
1003
0010
1000
0001
0010
0000
0010
0100
0000
1001
0000
0000
0000
,  // measure 56
1000
0000
0010
1000
0001
0000
1000
0000
0001
1000
0100
0000
1000
0000
0010
0000
,  // measure 57
1010
0000
MM0M
0010
0001
1000
0000
1000
0020
0000
0000
0031
0010
0000
1000
0000
,  // measure 58
0100
0000
0010
0001
0100
0000
0010
0000
0100
0001
0010
0000
0100
0000
0110
0000
,  // measure 59
2001
0000
0000
3100
1000
0001
0100
0010
0000
0010
1000
0000
0110
0000
0000
0000
,  // measure 60
0001
0000
0000
0100
0000
0000
0001
0000
0000
1000
0000
0000
0100
0000
0000
0000
,  // measure 61
1001
0000
0000
0001
0000
0001
0000
0001
0020
0000
0000
2030
0000
0000
3020
0000
,  // measure 62
0031
0000
0000
0100
0000
0000
0010
0000
0000
1000
0000
0000
0001
0000
0100
0000
,  // measure 63
0110
0000
0000
1010
0000
0000
1001
0000
0001
0010
0000
0000
0110
0000
0000
0000
;

//---------------dance-single - ----------------
#NOTES:
     dance-single:
     :
     Hard:
     11:
     0.518973,0.560303,0.410156,0.712891,0.214844,372.000000,330.000000,42.000000,73.000000,0.000000,0.000000,0.518973,0.560303,0.410156,0.712891,0.214844,372.000000,330.000000,42.000000,73.000000,0.000000,0.000000:
0000
0000
0000
0000
,
0000
0000
0000
0000
,
0000
0000
0000
0000
,
0000
0000
0000
0000
0000
0000
0001
1000
,
0001
0000
0010
0000
0001
0100
0000
0220
,
0330
0404
0303
2000
3200
0300
0010
0001
,
1000
0000
0010
0000
1000
0100
0000
0220
,
0330
4400
3300
0001
0100
0010
1000
0000
,
0001
0000
0100
0000
0001
0010
0000
2200
,
3300
0404
0303
1000
0010
0000
0100
0001
,
1000
0000
0100
0000
1000
0010
0000
0202
,
0303
4000
3100
0010
0002
0000
0103
0010
,
1010
0000
1000
0010
0100
0010
0000
0210
,
0000
0000
0310
0000
1000
0000
0001
0000
0010
0000
0000
0100
0000
0000
0010
0000
,
0001
0000
1000
0100
0010
0001
0000
0201
,
0000
0000
0301
0000
0100
0000
1000
0000
0100
0000
0000
0001
0000
0000
0010
0000
,
0010
0000
0001
0010
0100
0010
0000
0210
,
0000
0000
0310
0000
0001
0000
1000
0000
0010
0000
0000
0001
0000
0000
0010
0000
,
1000
0000
0001
0100
0010
1000
0000
1200
,
0000
1300
0100
0010
0001
0000
0110
0000
,
1000
0000
1000
0001
0100
0010
0000
2020
,
3030
0000
0044
0000
0033
0000
2000
0000
3020
0000
0030
0010
0100
0000
0001
0000
,
1000
0100
1000
0100
0010
0001
0000
2200
,
3300
0000
0004
0000
0103
0001
0000
0001
0100
0000
0000
0010
0000
0000
1000
0000
,
0001
0100
0001
1000
0100
0010
0000
0022
,
0033
0000
4040
0000
3030
0000
0002
0000
0023
0000
0030
0010
0100
0000
1000
0000
,
0001
0100
0001
0100
0010
1000
0000
0202
,
0303
0000
4000
0000
3100
0010
0000
0010
0001
0000
0100
0000
0110
0000
0000
0000
,
0200
0300
0010
0000
0000
0010
0000
2000
,
0000
0000
3010
0000
0000
0000
0000
0010
,
0200
0300
0001
0000
0000
0001
0000
0200
,
0000
0300
0000
0200
0302
0000
2003
0000
,
3200
0300
0010
0000
0000
0010
0000
0002
,
0000
0000
0013
0000
0000
0000
0000
0010
,
0200
0300
1000
0000
0000
1000
0000
0200
,
0000
0000
0300
0010
0002
0000
0103
0010
,
1000
0000
0110
0000
1000
0010
0000
2020
,
3030
0044
0033
0002
0023
0030
0100
1000
,
0001
0000
0110
0000
0001
0010
0000
0022
,
0033
4040
3030
1000
0010
0100
0001
0000
,
0100
0000
1001
0000
1000
0100
0000
0022
,
0033
0404
0303
2000
3020
0030
0100
0001
,
0010
0000
1001
0000
0001
0100
0000
2020
,
3030
4000
3100
0010
0002
0000
1003
0100
,
0020
0000
0000
0000
0031
0000
0100
0000
0010
0000
0000
0100
0000
0000
2000
0000
,
3000
0000
0400
0000
0310
0000
0100
0000
0001
0000
0000
0001
0010
0000
0100
0000
,
0020
0000
0000
0000
0130
0000
1000
0000
0020
0000
0000
0032
0000
0000
0023
0000
,
0030
0000
4000
0000
3100
0010
0000
0100
0010
0000
0000
0001
0000
0000
0100
0000
,
0020
0000
0000
0000
1030
0000
0100
0000
0010
0000
0000
0100
0000
0000
0002
0000
,
0003
0000
0400
0000
0310
0000
0100
0000
1000
0000
0000
1000
0010
0000
0100
0000
,
0020
0000
0000
0000
0130
0000
0001
0000
0020
0000
0000
2030
0000
0000
3020
0000
,
0030
0000
0004
0000
0103
0010
0000
0100
0010
0000
1000
0000
0001
0000
0010
0000
,
0100
0000
0000
1000
0000
0000
0100
0000
0000
0001
0000
0000
0100
0000
0000
0000
,
0110
0000
0000
0100
1000
0000
0010
0000
0200
0000
0000
0302
0000
0000
2003
0000
,
3001
0000
0000
0100
0000
0000
1000
0000
0000
0100
0000
0000
0001
0000
0010
0000
,
0100
0000
0000
0011
0000
0000
1001
0000
0000
1010
0000
0000
0110
0000
0000
0000
,
0010
0000
0000
1000
0000
0000
0010
0000
0000
0001
0000
0000
0010
0000
0000
0000
,
0110
0000
0000
0010
1000
0000
0100
0000
0002
0000
0000
0203
0000
0000
2300
0000
,
3001
0000
0000
0010
0000
0000
1000
0000
0000
0010
0000
0000
0001
0000
0100
0000
,
0010
0000
0000
0101
0000
0000
1100
0000
0000
0011
0000
0000
1001
0000
0000
0000
,
0001
0000
0000
1000
0000
0000
0001
0000
0000
1000
0000
0000
0100
0000
0000
0000
,
1001
0000
0000
0000
0000
0000
0000
0000
0002
0000
0000
0023
0000
0000
0230
0000
,
1300
0000
0000
0001
0000
0000
1000
0000
0000
0001
0000
0000
0100
0000
0010
0000
,
1000
0000
0000
0010
0000
0000
0001
0000
0000
0100
0000
0000
1000
0000
0000
0000
;

//---------------dance-single - ----------------
#NOTES:
     dance-single:
     :
     Medium:
     8:
     0.415737,0.435791,0.341797,0.166016,0.048828,298.000000,263.000000,35.000000,17.000000,0.000000,0.000000,0.415737,0.435791,0.341797,0.166016,0.048828,298.000000,263.000000,35.000000,17.000000,0.000000,0.000000:
0000
0000
0000
0000
,
0000
0000
0000
0000
,
0000
0000
0000
0000
,
0000
0000
0000
0000
0000
0000
0001
1000
,
0001
0011
0000
0011
,
0001
0000
0101
0000
0010
0100
0001
0000
,
1000
1010
0000
1010
,
1000
0000
1100
0000
0010
0100
1000
0000
,
0001
1001
0000
1001
,
0001
0000
0101
0000
0100
0001
0010
0000
,
0100
0110
0000
0110
,
1000
0000
1001
0000
2000
0000
3010
0100
,
0010
0000
1000
0000
0100
0010
0000
0200
,
0000
0001
0000
0310
0100
0000
1000
0000
,
0010
0000
0100
0000
0010
2000
0000
0100
,
0000
3001
1000
0010
1000
0000
0100
0000
,
0010
0000
0001
0000
0100
0010
0000
0200
,
0000
1000
0000
0310
0100
0000
0001
0000
,
0010
0000
0100
0000
0010
0002
0000
0100
,
0000
1003
0100
0010
0001
0000
1001
0000
,
0001
0000
0100
0001
1000
0001
0100
0000
,
0001
0000
0010
0100
0010
0000
0001
0000
,
1000
0000
0100
1000
0001
1000
0100
0000
,
0010
0000
0001
0100
0010
0000
0110
0000
,
1000
0000
0010
0100
0010
1000
0001
0000
,
1000
0000
0100
0010
0100
0000
1000
0000
,
0001
0000
0100
0010
0100
0001
1000
0000
,
0001
0000
1000
0100
0010
0000
0110
0000
,
0001
0000
0010
0000
0000
0010
0000
0001
,
0000
1000
0000
0000
,
1000
0000
0001
0000
0000
0001
0000
0100
,
0000
0000
0000
0010
0100
0000
0001
0000
,
1000
0000
0010
0000
0000
0010
0000
1000
,
0000
0001
0000
0000
,
0001
0000
1000
0000
0000
1000
0000
0100
,
0000
0000
0000
0010
0001
0000
1001
0000
,
0001
0101
0100
1100
,
1000
0000
1001
0000
0001
1000
0001
0000
,
1000
1100
0100
0101
,
0001
0000
1001
0000
1000
0001
1000
0000
,
0001
0011
1000
1010
,
0001
0000
0110
0000
0001
1000
0001
0000
,
1000
1100
0001
0101
,
1000
0100
0010
0001
,
2002
0000
0000
0000
3003
0000
0000
0000
0001
0000
0000
0001
0000
0000
0200
0000
,
0300
0000
0110
0000
1000
0000
0010
1000
,
0200
0000
0000
0000
0300
0000
0000
0000
0010
0000
0000
0100
0000
0000
0020
0000
,
0030
0110
0001
1000
,
2002
0000
0000
0000
3003
0000
0000
0000
1000
0000
0000
1000
0000
0000
0020
0000
,
0030
0000
0110
0000
0001
0000
0010
0001
,
0200
0000
0000
0000
0300
0000
0000
0000
0010
0000
0000
0100
0000
0000
0020
0000
,
0030
0000
1000
0001
0010
0000
0100
0010
,
0001
0000
0001
0000
0010
0001
0100
0000
,
1001
0000
0001
0100
1000
0000
1000
0100
,
0001
0000
0001
0000
0100
0001
0010
0000
,
0001
0000
0000
0001
0000
0000
1000
0000
0000
1000
0000
0000
0001
0000
0000
0000
,
1000
0000
1000
0000
0010
1000
0100
0000
,
1001
0000
1000
0010
0001
0000
0001
0010
,
1000
0000
1000
0000
0100
0010
0001
0000
,
0100
0000
0000
0100
0000
0000
0010
0000
0000
0010
0000
0000
0100
0000
0000
0000
,
0001
0000
0000
1000
0000
0000
0001
0000
,
1001
0000
2000
3002
,
0013
0000
0000
0100
0000
0000
0010
0000
,
0001
0000
0000
0001
0000
0000
1000
0000
0000
1000
0000
0000
0010
0000
0000
0000
;

//---------------dance-single - ----------------
#NOTES:
     dance-single:
     :
     Easy:
     5:
     0.245536,0.342407,0.117188,0.087891,0.000000,176.000000,164.000000,12.000000,9.000000,0.000000,0.000000,0.245536,0.342407,0.117188,0.087891,0.000000,176.000000,164.000000,12.000000,9.000000,0.000000,0.000000:
0000
0000
0000
0000
,
0000
0000
0000
0000
,
0000
0000
0000
0000
,
0000
0000
0000
1001
,
0001
0010
0000
0010
,
0001
0000
0001
0001
,
1000
0010
0000
0010
,
1000
0000
1000
1000
,
0100
0010
0000
0001
,
1000
0000
0010
0010
,
0100
0010
0000
1000
,
0001
0000
0010
0000
,
0001
0010
0001
0010
,
0100
0000
0010
0000
,
0001
0100
0001
0100
,
0010
0000
0100
0010
,
1000
0100
1000
0100
,
0010
0000
0100
0000
,
1000
0010
1000
0010
,
0100
0000
0010
0010
,
1000
0001
1000
0000
,
0100
0010
0100
0000
,
1000
0001
1000
0000
,
0010
0100
0010
0000
,
1000
0100
0010
0000
,
0001
0100
0010
0000
,
1000
0001
0010
0000
,
0100
0100
0010
0001
,
1000
0000
0000
0000
0000
0000
0000
0010
,
0000
0000
0000
0000
,
0100
0000
0000
0000
0000
0000
0000
0001
,
0000
0000
0010
0000
,
0001
0000
0000
0000
0000
0000
0000
0100
,
0000
0000
0000
0000
,
0010
0000
0000
0000
0000
0000
0000
1000
,
0000
0000
0100
1001
,
1000
0010
0000
0010
,
0100
0000
0100
0100
,
0001
0010
0000
0010
,
0100
0000
0100
0100
,
1000
0001
0000
0100
,
0010
0000
0100
0100
,
0001
1000
0000
0100
,
0010
0000
0001
1000
,
2002
3003
0001
0100
,
0010
0000
1000
0010
,
2020
3030
0010
1000
,
0100
0000
0010
0001
,
2002
3003
1000
0100
,
0010
0000
0001
0010
,
0022
0033
0010
0001
,
0100
0000
0010
1000
,
0100
0100
0100
0010
,
0100
0000
0110
1000
,
0001
0001
0100
0000
,
1001
0010
1001
0000
,
0010
0010
0010
0100
,
0010
0000
0110
0001
,
1000
1000
0100
0000
,
0011
0100
1010
0000
,
0001
0000
0000
0000
,
0010
0000
0000
0000
,
0100
0000
0000
0000
,
0020
0000
0000
0030
;

//---------------dance-single - ----------------
#NOTES:
     dance-single:
     :
     Beginner:
     2:
     0.136719,0.217896,0.000000,0.048828,0.000000,98.000000,98.000000,0.000000,5.000000,0.000000,0.000000,0.136719,0.217896,0.000000,0.048828,0.000000,98.000000,98.000000,0.000000,5.000000,0.000000,0.000000:
0000
0000
0000
0000
,
0000
0000
0000
0000
,
0000
0000
0000
0000
,
0000
0000
0000
0000
,
0000
0001
0000
0001
,
0000
1000
0000
1000
,
0000
0001
0000
0001
,
0000
1000
0000
1000
,
0000
0010
0000
0010
,
0000
0100
0000
0100
,
0000
0010
0000
0010
,
0000
0100
0000
0100
,
0100
0000
0001
0000
,
2000
0000
3000
0000
,
0100
0000
1000
0000
,
0002
0000
0003
0000
,
0010
0000
0001
0000
,
2000
0000
3000
0000
,
0010
0000
1000
0000
,
0002
0000
0003
0000
,
0010
0000
0010
0000
,
0010
0000
0000
0000
,
0001
0000
1000
0000
,
0001
0000
0000
0000
,
0100
0000
0100
0000
,
0100
0000
0000
0000
,
0001
0000
1000
0000
,
0001
0000
0000
0000
,
0010
0000
0000
0000
,
0000
0000
0000
0000
,
0100
0000
0000
0000
,
0000
0000
0000
0000
,
1000
0000
0000
0000
,
0000
0000
0000
0000
,
0001
0000
0000
0000
,
0000
0000
0000
0000
,
0000
0100
0000
0100
,
0000
0010
0000
0010
,
0000
0100
0000
0100
,
0000
0010
0000
0010
,
0000
1000
0000
1000
,
0000
0001
0000
0001
,
0000
1000
0000
1000
,
0000
0001
0000
0001
,
0001
0000
0010
0000
,
0100
0000
0000
0000
,
0010
0000
0001
0000
,
1000
0000
0000
0000
,
1000
0000
0010
0000
,
0100
0000
0000
0000
,
0010
0000
1000
0000
,
0001
0000
0000
0000
,
0010
0010
0010
0000
,
0010
0000
0001
0000
,
1000
1000
1000
0000
,
0001
0001
0001
0000
,
0100
0100
0100
0000
,
0100
0000
0010
0000
,
1000
1000
1000
0000
,
0001
0001
0001
0000
,
0010
0000
0000
0000
,
0010
0000
0000
0000
,
0100
0000
0000
0000
,
0200
0000
0000
0300
;
