#TITLE:Time to Fight!;
#SUBTITLE:(Bionis' Shoulder);
#ARTIST:Kenji Hiramatsu;
#TITLETRANSLIT:;
#SUBTITLETRANSLIT:;
#ARTISTTRANSLIT:;
#GENRE:Elemental Discocharge;
#CREDIT:;
#BANNER:Time to Fight! (Bionis' Shoulder).png;
#BACKGROUND:Time to Fight! (Bionis' Shoulder)-bg.png;
#LYRICSPATH:;
#CDTITLE:cdtitle.png;
#MUSIC:Time to Fight! (Bionis' Shoulder).ogg;
#OFFSET:-0.625300;
#SAMPLESTART:30.395741;
#SAMPLELENGTH:14.883722;
#SELECTABLE:YES;
#BPMS:0.000000=129.000000
;
#STOPS:
;
#BGCHANGES:;
#KEYSOUNDS:;
#ATTACKS:;

//---------------dance-single - ----------------
#NOTES:
     dance-single:
     :
     Challenge:
     13:
     0.572419,0.635042,0.480032,0.560037,0.410027,601.000000,529.000000,72.000000,84.000000,0.000000,0.000000,0.572419,0.635042,0.480032,0.560037,0.410027,601.000000,529.000000,72.000000,84.000000,0.000000,0.000000:
0000
0000
0000
0000
,
0000
0000
0000
0000
,
0000
0000
0000
0000
,
0000
0000
0000
0000
,
1000
0000
0000
0100
0000
0000
0001
0000
0000
0100
0000
0010
0001
0000
1000
0000
,
0001
0000
0000
0100
0000
0000
1000
0000
0000
0100
0000
0010
1000
0000
0001
0000
,
0010
0000
0000
1000
0000
0000
0010
0000
0000
0001
0000
0000
1000
0000
0010
0000
,
0100
0000
0000
0001
0000
0000
2002
0000
0000
0000
3003
0000
1000
0100
0010
0001
,
1000
0010
0001
0100
,
1000
0000
0000
0000
0001
0000
1000
0020
0000
0000
0130
0000
0001
0100
0010
1000
,
0001
0010
1000
0100
,
0001
0000
0000
0000
1000
0000
0001
0020
0000
0000
0130
0000
1000
0001
0100
0010
,
0100
0010
1000
0001
,
0010
0000
0000
0000
0100
0000
0100
2000
0000
0000
3010
0000
0100
0000
0100
0000
,
0001
0000
0000
0000
1000
0000
0100
0020
0000
0000
0031
0000
0100
0000
0010
1000
,
0010
0000
1000
0000
0001
0000
1000
0100
0000
0000
0100
0000
0010
0000
0001
0000
,
1001
1010
0011
0101
,
1100
0000
0000
0000
1000
0000
0001
0200
0000
0000
0310
0000
1000
0010
0100
0001
,
0010
0011
1010
1100
,
0101
0000
0000
0000
0001
0000
1000
0200
0000
0000
0310
0000
0001
0010
0100
1000
,
0010
0101
1010
1100
,
0011
0000
0000
0000
1000
0000
0010
0002
0000
0000
0013
0000
1000
0000
0100
0002
,
0000
0000
0103
0000
1000
0000
0010
0002
0000
0000
0013
0000
1000
0001
1000
0200
,
0000
0000
0310
0000
0100
0000
0010
0001
0000
0001
0100
0000
0010
1000
0010
1000
,
0100
0000
0000
0000
0001
0000
0000
0000
0100
0000
0000
1000
0000
0000
0001
0000
,
1000
0001
0000
0000
0100
0000
0000
0000
1000
0000
0100
0000
0001
0100
0010
1000
,
0001
0000
0000
0011
0000
0000
0210
0000
0000
0010
0000
0000
1300
0000
0001
0000
,
1000
0000
0000
1010
0000
0000
0210
0000
0000
0010
0000
0000
0301
0100
0010
1000
,
0001
0000
0001
0000
0010
0000
0000
0000
1000
0000
0000
0010
0000
0000
0001
0000
,
1000
0010
0000
0000
0001
0000
0000
0000
0010
0000
1000
0000
0001
0000
1000
0000
,
0100
0010
0100
0020
0000
0000
0130
0000
0010
0000
0001
0000
1000
0000
0001
0000
,
0200
2300
3200
0320
,
2030
0000
0000
0000
0001
0000
0001
0000
0001
0000
3001
0000
0001
0100
0010
1000
,
0000
1100
0000
0000
1100
0000
0110
0000
0011
0000
0000
0000
0001
0010
0100
1000
,
0002
0203
0302
0023
,
0032
0203
0302
0023
,
2030
0000
0000
0000
0000
0000
3010
0100
0020
0000
0230
0000
2300
0000
3020
0000
,
0000
0000
0130
0010
,
0200
0000
0000
0000
0310
1000
0001
0010
,
0000
0100
0000
0010
0000
0100
1000
0001
,
2001
0000
3010
0102
0000
0013
0010
2100
,
0000
0000
3010
0000
0010
0000
1001
0000
0000
0000
1000
0001
0100
0000
0001
1000
,
0200
0010
0320
1000
2030
0010
3020
0031
,
0200
0010
0320
0001
0032
0010
0023
1030
,
0200
0000
0001
0000
0301
0000
0001
0100
1000
0000
0001
0000
0100
0000
2000
0000
,
0100
3100
1000
0100
0002
1000
2003
0001
,
3002
0010
0013
0100
2000
3020
0032
0023
,
1030
0200
0301
0200
1300
0010
1010
0210
,
0000
0301
0011
0210
0000
1300
1010
0210
,
0000
0001
0001
0301
0011
0000
0110
0000
,
2100
0000
0000
0000
,
0001
0001
0001
3001
,
1000
0000
1000
0000
0010
0100
0000
0100
0001
0000
0001
0000
0010
0000
0100
1000
,
0001
0000
0000
0100
0000
0000
0020
0000
0000
0000
1030
0000
0010
0100
0001
1000
,
0100
0000
0000
0110
0000
0000
0010
0000
0000
0011
0000
0000
1000
0000
0001
0000
,
0100
0000
0000
0110
0000
0000
0010
0000
0000
1010
0000
0000
0001
0000
1000
0000
,
0100
0000
0000
0011
0000
0000
0100
0000
0000
1010
0000
0000
1000
0000
0001
0000
,
0100
0000
0000
1010
0000
0000
0021
0000
0000
0000
0130
0000
1000
0001
0100
0010
,
1000
0000
0000
1010
0000
0000
1100
0000
0000
1010
0000
0000
1001
0000
0010
0000
,
1001
0000
0000
0011
0000
0000
0101
0000
0000
0011
0000
0000
1001
0000
0100
0000
,
1001
0000
0000
1010
0000
0000
0110
0000
0000
0101
0000
0000
0011
0000
1000
0000
,
1010
0000
0000
1100
0000
0000
0102
0000
0000
0000
0103
0000
0010
1000
0100
0010
,
0002
0000
0000
0023
0000
0000
2030
0000
0000
3020
0000
0000
0032
0000
0100
0000
,
0203
0000
0000
2300
0000
0000
3200
0000
0000
0302
0000
0000
2003
0000
0100
0000
,
3100
0000
0010
0000
0100
0000
0000
0000
0010
0100
0000
0010
0000
0000
0001
0000
,
2000
0000
0000
3020
0000
0000
0230
0000
0000
0000
0301
0000
1000
0100
0010
0001
,
1000
0000
0100
0000
0001
0000
0000
0000
0001
0100
0000
0100
1000
0000
0001
0000
,
1000
0000
0010
0000
0001
0000
0000
0000
0001
0010
0000
0010
1000
0000
0001
0000
,
1000
0000
0100
0000
0001
0000
0000
0000
1000
0010
0000
0010
0001
0000
1000
0000
,
1010
0000
0000
0101
0000
0000
0011
0000
0000
1100
0000
0000
0001
0100
0010
1000
,
0001
0000
0010
0100
0010
0000
0100
0000
0010
0100
0010
0000
0100
0000
1000
0000
,
0001
0000
0100
0010
0100
0000
0010
0000
0100
0010
0100
0000
0001
0000
1000
0000
,
0100
0000
0010
0100
0010
0000
0001
0000
0100
0010
0100
0000
0010
0000
1000
0000
,
0200
0000
0000
0320
0000
0000
0032
0000
0013
0000
0100
0000
1000
0010
0100
0001
,
1000
0000
0001
0010
0001
0000
1000
0000
0001
0100
0001
0000
1000
0000
1000
0000
,
0001
0000
1000
0010
1000
0000
0001
0000
1000
0100
1000
0000
0001
0000
0001
0000
,
1000
0000
0010
0100
0001
0000
0010
0000
0100
1000
0001
0000
0100
0000
0010
0000
,
0200
0000
0000
0320
0000
0000
2030
0000
3100
0000
0010
0000
0001
0010
0100
1000
,
0000
1100
0000
0000
1001
0000
1010
0000
0000
0101
0000
0000
1001
0000
0011
0000
,
0110
0000
0000
0220
0000
0000
0330
0000
0000
0000
0000
0000
0000
0000
0000
0000
;

//---------------dance-single - ----------------
#NOTES:
     dance-single:
     :
     Beginner:
     2:
     0.163820,0.237766,0.046670,0.086672,0.000000,172.000000,165.000000,7.000000,13.000000,0.000000,0.000000,0.163820,0.237766,0.046670,0.086672,0.000000,172.000000,165.000000,7.000000,13.000000,0.000000,0.000000:
0000
0000
0000
0000
,
0000
0000
0000
0000
,
0000
0000
0000
0000
,
0000
0000
0000
0000
,
1000
0000
1000
0000
,
0001
0000
0001
0000
,
1000
0000
1000
0000
,
0001
0000
1000
0000
,
0100
0100
0100
0000
,
0010
0000
0100
0000
,
0010
0010
0010
0000
,
0001
0000
1000
0000
,
0010
0010
0010
0000
,
0100
0000
0010
0000
,
1000
0000
0001
0000
,
2000
0000
3000
0000
,
0100
0100
0100
0000
,
1000
0000
0010
0000
,
0100
0100
0100
0000
,
0001
0000
0010
0000
,
0001
0001
0001
0000
,
1000
0000
0010
0000
,
0010
0000
0010
0000
,
0200
0000
0300
0000
,
0001
0001
0001
0000
,
0000
0001
0001
0000
,
2000
0000
3000
0000
,
0002
0000
0003
0000
,
1000
1000
1000
0000
,
0000
1000
1000
0000
,
0100
0000
0010
0000
,
0001
0000
1000
0000
,
0020
0000
0030
0000
,
0100
0100
0100
0000
,
0002
0000
0003
0000
,
0020
0000
0030
0000
,
0200
0000
0300
0000
,
2000
0000
3000
0000
,
0001
0000
0001
0000
,
1000
0000
1000
0000
,
0020
0000
0000
0000
,
0000
0000
0030
0000
,
1000
1000
1000
0000
,
0010
0010
0010
0000
,
0100
0000
0001
0000
,
0010
0000
0100
0100
,
0100
0000
1000
1000
,
1000
0000
0001
0000
,
1001
0000
1001
0000
,
1001
0000
0010
0010
,
0020
0000
0000
0000
,
0030
0000
0000
0000
,
1000
0000
0001
0000
,
1001
0000
0000
0000
,
1000
1000
1000
0000
,
0001
0001
0001
0000
,
1000
1000
1000
0000
,
0001
0001
0001
0000
,
0010
0010
0010
0000
,
0100
0100
0100
0000
,
0010
0010
0010
0000
,
0100
0100
0100
0000
,
1000
0000
0010
0000
,
0100
0000
0001
0000
,
1000
0000
0100
0000
,
0010
0000
0001
0000
,
0100
0000
0100
0000
,
0010
0000
0010
0000
,
0100
0000
0100
0000
,
2002
0000
3003
0000
,
1000
1000
1000
0000
,
0100
0100
0100
0000
,
0010
0010
0010
0000
,
0001
0001
0001
0000
,
0100
0100
0100
0000
,
0010
0010
0010
0000
,
1000
1000
1000
0000
,
0001
0001
0001
0000
,
0100
0000
0010
0000
,
1001
1001
0000
0000
;

//---------------dance-single - ----------------
#NOTES:
     dance-single:
     :
     Hard:
     10:
     0.412408,0.476282,0.233349,0.506700,0.240016,433.000000,398.000000,35.000000,76.000000,0.000000,0.000000,0.412408,0.476282,0.233349,0.506700,0.240016,433.000000,398.000000,35.000000,76.000000,0.000000,0.000000:
0000
0000
0000
0000
,
0000
0000
0000
0000
,
0000
0000
0000
0000
,
0000
0000
0000
0000
,
1000
0000
0000
0010
0000
0000
1000
0000
0000
0010
0000
0000
0100
0000
0001
0000
,
0010
0000
0000
0001
0000
0000
0010
0000
0000
0001
0000
0000
0100
0000
0010
0000
,
1000
0000
0000
0001
0000
0000
0010
0000
0000
0001
0000
0000
1000
0000
0010
0000
,
0100
0000
0000
0001
0000
0000
2002
0000
0000
0000
0000
0000
3003
0000
0000
0000
,
0001
0010
1000
0100
,
0001
0000
0000
0000
1000
0000
1000
0200
0000
0000
0000
0000
0310
0000
0001
0000
,
1000
0010
0001
0100
,
1000
0000
0000
0000
0001
0000
0001
0200
0000
0000
0000
0000
0310
0000
1000
0000
,
0100
0010
0001
1000
,
0010
0000
0000
0000
0100
0000
0100
0002
0000
0000
0000
0000
1003
0000
0000
0000
,
0001
0000
0000
0000
0010
0000
0010
0002
0000
0000
1003
0000
0010
0000
0010
2000
,
0000
0000
3100
0000
0010
0001
0100
0010
,
1000
1010
0011
0101
,
1100
0000
0000
0000
0001
0000
0100
0020
0000
0000
0000
0000
0130
0000
0001
0000
,
0010
0011
1010
1100
,
0101
0000
0000
0000
1000
0000
0100
0020
0000
0000
0000
0000
0130
0000
1000
0000
,
0010
1010
0101
0011
,
1100
0000
0000
0000
0001
0000
1000
0002
0000
0000
0000
0000
0103
0000
0010
2000
,
0000
0000
0000
0000
3100
0000
0010
0002
0000
0000
0000
0000
1003
0000
0001
0200
,
0000
0000
0310
0000
0010
0100
0010
0000
,
1000
0000
0000
0000
0100
0000
0000
0000
1000
0000
0000
0100
0000
0000
0010
0000
,
0010
0001
0000
0000
0100
0000
0000
0000
0001
0000
0001
0000
0100
0000
0000
0000
,
0001
0000
0000
0010
0000
0000
2000
0000
0000
0000
0000
0000
3010
0000
0001
0000
,
1000
0000
0000
0010
0000
0000
0002
0000
0000
0000
0000
0000
0013
0000
1000
0000
,
0001
0000
0010
0000
0001
0000
0000
0000
0001
0000
0000
0010
0000
0000
0100
0000
,
0100
1000
0000
0000
0010
0000
0000
0000
1000
0000
1000
0000
0010
0000
0000
0000
,
0100
0001
1000
0000
0100
1000
0001
0100
,
0020
2030
3002
0023
,
0230
0000
0000
0000
0310
0001
0100
0010
,
0000
1010
0000
0000
1000
0000
0001
0000
0011
0000
0000
0000
0100
0000
1000
0000
,
0002
0203
0302
0023
,
0032
0203
0302
0023
,
2030
0000
0000
3020
0230
0320
0032
2003
,
0000
0000
3001
0100
,
0020
0000
0000
0000
1030
0100
1000
0100
,
0000
0010
0000
0010
0000
0100
0010
0001
,
0200
0000
0010
0320
0000
1030
0001
2002
,
0000
3003
0000
1000
0010
0100
0001
1000
,
0200
0000
0302
0000
0203
0000
0310
0001
,
0200
0000
2300
0000
3200
0000
0310
1000
,
0002
0000
1003
0100
0010
0001
0100
0020
,
1000
0000
0100
0130
0002
0000
2003
0000
,
3200
0000
0001
0000
0310
0001
0100
2000
,
0000
3200
0000
0302
0000
0000
0013
2100
,
0000
0000
3010
0102
0000
0000
0013
2100
,
0000
3001
1010
0110
,
0102
0000
0000
0000
,
1000
1000
1000
1003
,
0002
0100
2003
0010
,
3001
0000
0000
1000
0000
0000
2002
0000
0000
0000
0000
0000
3003
0000
0000
0000
,
1000
0000
0000
0100
0000
0000
1000
0000
0000
0100
0000
0000
0001
0000
0100
0000
,
1000
0000
0000
0010
0000
0000
1000
0000
0000
0001
0000
0000
0010
0000
0001
0000
,
1000
0000
0000
0010
0000
0000
1000
0000
0000
0010
0000
0000
0001
0000
0010
0000
,
1000
0000
0000
0100
0000
0000
0020
0000
0000
0000
0100
0000
0130
0000
1000
0000
,
0010
0000
0000
0110
0000
0000
0010
0000
0000
1010
0000
0000
1000
0000
0001
0000
,
0010
0000
0000
0110
0000
0000
0010
0000
0000
0011
0000
0000
0001
0000
1000
0000
,
0010
0000
0000
1001
0000
0000
0100
0000
0000
1001
0000
0000
1000
0000
0001
0000
,
1000
0000
0000
1100
0000
0000
0012
0000
0000
0000
0013
0000
0100
0000
1000
0000
,
0001
0000
0000
0100
0000
0000
1000
0000
0000
0100
0000
0000
0002
0000
0000
0000
,
1003
0000
0000
0100
0000
0000
0001
0000
0000
0100
0000
0000
2000
0000
0000
0000
,
3001
0000
0100
0000
0010
0000
0000
0000
0010
0100
0000
0010
0000
0000
1000
0000
,
0100
0000
0000
0010
0000
0000
0200
0000
0000
0000
0310
0000
0001
0000
1000
0000
,
0001
0000
0100
0000
0001
0000
0000
0000
0001
0100
0000
0010
0000
0000
0000
0000
,
1000
0000
0100
0000
1000
0000
0000
0000
1000
0100
0000
0010
0000
0000
0000
0000
,
0001
0000
0100
0000
0010
0000
0000
0000
1000
0100
0000
0010
0000
0000
0000
0000
,
0002
0000
0000
0203
0000
0000
0320
0000
0000
2030
0000
0000
3100
0000
0010
0000
,
0001
0000
0000
0100
0000
0000
1000
0000
0000
0100
0000
0000
0001
0000
1000
0000
,
0001
0000
0000
0010
0000
0000
1000
0000
0000
0010
0000
0000
0001
0000
1000
0000
,
0001
0000
0000
0100
0000
0000
1000
0000
0000
0100
0000
0000
0001
0000
0010
0000
,
0100
0000
0000
1000
0000
0000
0020
0000
0000
0000
0130
0000
0100
0000
0001
0000
,
1000
0000
0000
0100
0000
0000
0001
0000
0000
0100
0000
0000
0010
0000
0001
0000
,
0100
0000
0000
1000
0000
0000
0100
0000
0000
0010
0000
0000
1000
0000
0001
0000
,
0010
0000
0000
1000
0000
0000
0010
0000
0000
0001
0000
0000
0100
0000
1000
0000
,
0100
0000
0000
0001
0000
0000
0020
0000
0000
0000
0130
0000
1000
0000
0010
0000
,
0000
1020
0000
0000
0130
0000
0001
0000
0000
0021
0000
0000
0130
0000
1000
0000
,
1001
0000
0000
2002
0000
0000
3003
0000
0000
0000
0000
0000
0000
0000
0000
0000
;

//---------------dance-single - ----------------
#NOTES:
     dance-single:
     :
     Medium:
     7:
     0.315259,0.423362,0.226682,0.393360,0.010001,331.000000,297.000000,34.000000,59.000000,0.000000,0.000000,0.315259,0.423362,0.226682,0.393360,0.010001,331.000000,297.000000,34.000000,59.000000,0.000000,0.000000:
0000
0000
0000
0000
,
0000
0000
0000
0000
,
0000
0000
0000
0000
,
0000
0000
0000
0000
,
1000
0010
1000
0100
,
1000
0010
1000
0100
,
0010
0001
0100
0001
,
0010
0001
2002
3003
,
0001
0100
0010
1000
,
0001
0000
0100
0010
2000
0000
3001
0000
,
1000
0100
0010
0001
,
1000
0000
0100
0010
0002
0000
1003
0000
,
0001
0100
1000
0010
,
0001
0000
0100
0010
0200
0000
0310
0000
,
1000
0000
0100
0010
0001
0000
0100
0010
,
2000
0000
0001
3001
,
0011
0110
0011
1001
,
0101
0000
1000
0010
2000
0000
3001
0000
,
1010
0110
1010
1001
,
1100
0000
0001
0010
0002
0000
1003
0000
,
1010
0011
0101
1100
,
1001
0000
1000
0001
0100
0000
0001
1000
,
0100
0000
1000
0001
0100
0000
0010
0100
,
0020
0000
0100
0130
,
0001
0001
1000
1000
,
0000
0001
1000
0000
0001
0001
1000
0000
,
0001
0010
0022
0033
,
1000
0010
2020
3030
,
1000
0001
1000
0000
0001
0000
0001
0000
,
0000
1000
0001
0000
1000
0001
1000
0000
,
0100
0011
0100
1010
,
0002
0203
0320
2030
,
3200
0000
0000
0000
0310
0100
0010
0000
,
1001
0000
0001
1000
0010
0000
0000
0000
,
2000
3020
0230
0302
,
2003
3020
0230
0302
,
0023
0000
0230
2300
,
3002
0000
0103
0010
,
0200
0000
0310
1000
,
0001
0010
0100
1000
,
0020
0000
0000
0230
0000
0000
0000
0302
,
0000
0000
0000
1003
0000
0000
1000
0000
,
0001
0010
0100
1000
,
0001
0010
0100
1000
,
0020
0000
0130
0001
,
0020
0000
0130
0010
,
0002
0000
1003
0100
,
0001
0000
0100
0000
1000
0000
0000
1001
,
0000
0000
0000
1001
0000
0000
0000
1001
,
0000
0000
2000
3020
,
0230
0000
0000
0000
,
0010
0010
0010
0310
,
0200
0000
0302
2003
,
3200
0000
0000
0320
0000
0000
0000
0000
,
0031
0100
1000
0100
,
0001
0100
1000
0100
,
0001
0100
1000
0100
,
0001
1000
2002
3003
,
0001
0010
1000
0010
,
0001
0010
1000
0010
,
0001
0010
1000
0010
,
0001
1000
2002
3003
,
0001
1000
0010
0001
,
0010
1000
0100
0001
,
0100
0010
0100
0000
0010
0000
0100
0000
,
1000
0001
2000
3000
,
0001
0100
0001
0000
0100
0000
0101
0000
,
1000
0010
1000
0000
0010
0000
1010
0000
,
1000
0100
1000
0000
0100
0000
1100
0000
,
0002
0023
0230
2300
,
3001
0000
0100
0000
0010
0000
1000
0100
,
0010
0000
0001
0000
0100
0000
0010
1000
,
0100
0000
0010
0000
0001
0000
0100
0010
,
1000
0001
0022
0033
,
0001
0000
0010
0000
1000
0000
0010
0001
,
0100
0000
1000
0000
0100
0000
0001
0010
,
1000
0000
0010
0000
0001
0000
0100
1000
,
0100
0001
0020
0030
,
0000
1001
0000
0000
0010
0000
0000
0000
0000
1001
0000
0000
0100
0000
0000
0000
,
1001
0000
0000
2002
0000
0000
3003
0000
0000
0000
0000
0000
0000
0000
0000
0000
;

//---------------dance-single - ----------------
#NOTES:
     dance-single:
     :
     Easy:
     4:
     0.193346,0.237578,0.093340,0.126675,0.000000,203.000000,189.000000,14.000000,19.000000,0.000000,0.000000,0.193346,0.237578,0.093340,0.126675,0.000000,203.000000,189.000000,14.000000,19.000000,0.000000,0.000000:
0000
0000
0000
0000
,
0000
0000
0000
0000
,
0000
0000
0000
0000
,
0000
0000
0000
0000
,
1000
1000
0010
0000
,
0100
0100
0001
0000
,
0001
0001
0010
0000
,
0100
0100
1000
0000
,
0001
0000
0100
0000
,
0001
0100
0001
0000
,
1000
0000
0010
0000
,
1000
0010
1000
0000
,
0001
0000
0010
0000
,
0001
0010
0001
0000
,
1000
0000
0100
0000
,
2200
0000
3300
0000
,
0011
0000
1001
0000
,
0001
0100
0001
0000
,
1010
0000
1001
0000
,
1000
0100
1000
0000
,
0110
0000
1001
0000
,
1000
0001
1000
0000
,
0010
0000
0010
0000
,
0020
0000
0030
0000
,
1000
1000
0001
0000
,
0001
0001
1000
0000
,
0020
0000
0030
0000
,
0200
0000
0300
0000
,
0001
0001
1000
0000
,
1000
1000
0001
0000
,
0010
0000
0100
0000
,
1000
0001
1000
0010
,
0020
0000
0030
0000
,
1001
0110
1001
0000
,
2000
0000
3200
0000
,
2300
0000
3020
0000
,
0230
0000
0302
0000
,
0023
0000
0130
0100
,
0100
0000
0010
0000
,
0001
1000
0001
0000
,
0200
0000
0000
0000
,
0000
0000
0000
0300
0000
0000
0000
0000
,
0001
0100
0010
0000
,
1000
0100
0010
0000
,
0100
0000
0010
0001
,
0100
0000
0010
1000
,
0100
0000
0010
0001
,
1000
0001
0100
0000
,
1001
0000
1001
0000
,
1001
0000
1000
0010
,
0200
0000
0000
0000
,
0300
0000
0000
0000
,
0100
0000
0001
1000
,
0100
0000
0010
0000
,
0001
0010
0001
0000
,
0001
0100
0001
0000
,
0001
0010
0001
0000
,
0001
0100
0001
0000
,
1000
0010
1000
0000
,
1000
0100
1000
0000
,
1000
0010
1000
0000
,
1000
0100
1000
0000
,
0010
0000
0010
0000
,
0100
0000
0100
0000
,
0001
0000
1000
0000
,
0001
1000
0001
0000
,
0010
0100
0010
0000
,
0100
0010
0100
0000
,
0010
0100
0010
0000
,
0001
0001
1000
1000
,
0001
0100
0010
0000
,
0100
0001
0010
0000
,
0100
1000
0010
0000
,
0100
0010
1000
0000
,
0001
0010
1000
0000
,
1000
0010
0001
0000
,
0001
0100
1000
0000
,
1000
0100
0001
0000
,
0020
0030
0200
0300
,
2002
0000
0000
3003
0000
0000
0000
0000
0000
0000
0000
0000
0000
0000
0000
0000
;
