#VERSION:0.83;
#TITLE:Timberwolves;
#SUBTITLE:;
#ARTIST:S-C-U;
#TITLETRANSLIT:;
#SUBTITLETRANSLIT:;
#ARTISTTRANSLIT:;
#GENRE:Electric Pop;
#ORIGIN:;
#CREDIT:;
#BANNER:Timberwolves.png;
#BACKGROUND:Timberwolves-bg.png;
#PREVIEWVID:;
#JACKET:Timberwolves-jacket.png;
#CDIMAGE:;
#DISCIMAGE:;
#LYRICSPATH:;
#CDTITLE:cdtitle.png;
#MUSIC:Timberwolves.ogg;
#OFFSET:-0.771381;
#SAMPLESTART:61.246063;
#SAMPLELENGTH:10.105263;
#SELECTABLE:YES;
#BPMS:0.000=190.000,
128.000=47.500,
136.000=95.000,
150.000=190.000,
226.000=95.000,
228.000=190.000,
256.000=95.000,
258.000=190.000;
#STOPS:150.000=0.947,
226.000=0.316;
#DELAYS:;
#WARPS:;
#TIMESIGNATURES:0.000=4=4;
#TICKCOUNTS:0.000=4;
#COMBOS:0.000=1;
#SPEEDS:0.000=1.000=0.000=0;
#SCROLLS:0.000=1.000;
#FAKES:;
#LABELS:0.000=Song Start;
#BGCHANGES:;
#KEYSOUNDS:;
#ATTACKS:
;

//---------------dance-single - ----------------
#NOTEDATA:;
#CHARTNAME:;
#STEPSTYPE:dance-single;
#DESCRIPTION:;
#CHARTSTYLE:;
#DIFFICULTY:Challenge;
#METER:17;
#RADARVALUES:0.947222,1.189835,0.465983,0.126204,1.004776,683.000000,635.000000,48.000000,13.000000,0.000000,0.000000,0.000000,0.000000,0.000000,0.947222,1.189835,0.465983,0.126204,1.004776,683.000000,635.000000,48.000000,13.000000,0.000000,0.000000,0.000000,0.000000,0.000000;
#CREDIT:;
#OFFSET:-0.771381;
#BPMS:0.000000=190.000000
,60.000000=95.000000
,62.000000=190.000000
,126.000000=47.500000
,134.000000=95.000000
,148.000000=190.000000
,225.000000=95.000000
,227.000000=190.000000
,255.000000=95.000000
,257.000000=190.000000
;
#STOPS:148.000000=0.947369
,264.500000=0.315788
;
#DELAYS:;
#WARPS:;
#TIMESIGNATURES:0.000000=4=4
;
#TICKCOUNTS:0.000000=4
;
#COMBOS:0.000000=1
;
#SPEEDS:0.000000=1.000000=0.000000=0
;
#SCROLLS:0.000000=1.000000
,59.500000=0.500000
,60.000000=1.000000
,142.000000=1.250000
,144.000000=1.500000
,146.000000=1.750000
,148.000000=1.000000
,224.000000=0.500000
,225.000000=1.000000
,254.500000=0.500000
,255.000000=1.000000
;
#FAKES:;
#LABELS:0.000000=Song Start
;
#NOTES:
0000
0000
0000
0000
,
0000
0000
0000
0000
,
0000
0000
0000
0000
,
0000
0000
0000
0000
,
1001
0000
1000
0100
0010
0100
1000
1100
,
0000
0000
0011
0000
0000
0000
0001
0000
0100
0000
0010
0100
0010
0000
0101
0000
,
0000
0001
0010
0100
0010
0011
0000
1001
,
0000
0000
0001
1000
0001
0000
1000
0010
1000
0000
0001
0010
0001
0000
0010
0000
,
1001
0000
0000
0000
0001
0000
0100
0000
0010
1000
0001
1000
0100
0000
1100
0000
,
0000
0000
0011
0000
0000
0000
0010
0000
0001
0100
0010
0100
0001
0000
1001
0000
,
0000
0000
0001
0000
0010
0100
0010
0001
1000
0000
1010
0000
0000
0000
0101
0000
,
0000
0000
0100
0010
1000
0000
0001
0010
0001
0000
1000
0010
0100
0000
0001
0000
,
1001
0000
0000
0000
1000
0000
0100
0000
0010
0001
1000
0001
0100
0000
0101
0000
,
0000
0000
1010
0000
0000
0000
0010
0000
1000
0100
0010
0100
1000
0000
1001
0000
,
0000
0000
1000
0000
0010
0100
0001
1000
0100
0010
0100
0010
0100
0000
1001
0000
,
0000
0000
0000
0000
1000
0010
1000
0010
0100
0010
0100
0010
0100
0001
1000
0001
0010
0000
0000
0000
0001
0000
0000
0000
0100
0000
0000
0000
0010
0000
0000
0000
,
0000
0000
1000
0000
0100
0000
0001
0000
0000
0000
0001
0000
0100
0000
1000
0100
,
1000
0001
1000
0010
0000
0010
1000
0100
,
0000
0000
1001
0000
0000
0000
1001
0000
0000
0000
0100
0001
1000
0000
0010
1000
,
0001
0000
0010
0001
1000
0000
0010
1000
0010
0000
1000
0000
0100
0000
0010
0000
,
0000
0001
0100
1000
0000
1000
0100
0001
,
0000
0010
0100
0010
0000
0001
1000
0010
,
0000
1001
0000
1001
0000
0010
0001
1001
,
0000
0000
1001
0000
0001
0000
0100
0010
1000
0000
0100
0000
0010
0000
1000
0000
,
0010
0000
0100
0000
1000
0000
0001
0000
0100
0000
0001
0000
0100
0000
0010
1000
,
0001
1000
0100
0001
0100
1000
0010
0100
,
0001
0000
1000
0000
0001
0000
1000
0000
0001
0000
0010
0100
0010
0000
0001
1000
,
0001
0000
0100
0010
0100
0000
0010
1000
0001
0000
0010
0000
0100
0000
0001
0000
,
0100
0010
0001
1000
0010
1000
0010
0100
,
0001
0000
1000
0000
0100
0000
0001
0000
0100
0000
1000
0000
0010
0000
1000
0001
,
0010
0011
0000
1100
0000
1000
0100
0010
,
0001
0000
0100
0000
0010
0000
1000
0000
0001
0000
0100
0000
0010
0000
1000
0000
0002
0000
0000
0000
0003
0000
0000
0000
0001
0000
0000
0010
0000
0000
0100
0000
,
1000
0000
0000
0000
0001
0000
0100
0000
0000
0000
0001
0000
2000
0000
0000
0000
0010
0000
0000
0000
0000
0000
0001
0000
0000
0000
0000
0000
3100
0000
0010
0001
2000
0000
0000
0000
0000
0000
0000
0000
3000
0000
0000
0000
0000
0000
0000
0000
0001
0000
0000
0000
0010
0000
0000
0000
1000
0000
0000
0000
0100
0000
0000
0000
,
0001
0000
0010
0000
0100
0000
1000
0000
0010
0000
0100
0000
0001
0000
0010
0000
1000
0000
0010
0000
0001
0000
0200
0000
0000
0000
0000
0000
0300
0000
0010
1000
0002
0000
0000
0000
0000
0000
0000
0000
0000
0000
0000
0000
0103
0000
0000
0000
0000
0000
0000
0000
0000
0000
0000
0000
0101
0000
0000
0000
0000
0000
0000
0000
,
2000
0000
0000
3200
0000
0000
0302
0000
0203
0000
2300
3020
0000
0230
0302
0000
,
0010
0000
0000
0000
0000
0000
1000
0000
0000
0000
0000
0000
0103
0000
0001
1000
0001
0000
0010
0000
0100
0000
1100
0000
0000
0000
1000
0000
0001
0000
1000
0000
,
1010
0000
0010
0000
0100
0000
0101
0000
0000
0000
0001
0000
1000
0000
0001
0000
0010
0000
0100
0000
0010
0000
0100
0000
0010
0100
0010
0100
0010
0100
0010
0100
,
0010
0000
0010
0001
1000
0000
0010
0000
0001
0000
0010
0000
1000
0000
0001
0010
,
0100
0010
0100
0010
0001
0000
0100
0000
1000
0000
0001
0000
0010
0000
1000
0100
,
0010
0100
0010
0100
1000
0000
0001
1000
0010
1000
0001
1000
0100
1000
0001
1000
,
0010
1000
0001
0010
0100
0000
1000
0010
0000
0010
0100
0000
0001
0000
1000
0000
,
0100
0000
1000
0000
0001
0100
0010
1000
0001
0000
0101
0000
0000
0000
1000
0100
,
0010
0001
0010
0100
1000
0000
0001
0100
0001
0000
1000
0100
0010
0001
1000
0001
,
0100
0001
1000
0001
0010
0000
0100
0000
0001
0000
0100
0000
0010
0000
0100
1000
,
0001
1000
0010
0000
0100
0000
0010
1000
0000
1000
0100
0010
0001
0010
0001
0010
,
0100
1000
0010
0100
0001
0000
0010
0000
1000
0000
0010
0000
0001
0000
1000
0010
,
0100
0010
0100
0010
1000
0000
0100
0000
0001
0000
1000
0000
0010
0000
0001
0100
,
0010
0100
0010
0100
0001
0000
1000
0001
0010
0001
1000
0001
0100
0001
1000
0001
,
0010
0001
1000
0010
0100
0000
0001
0010
0000
0010
0100
0000
1000
0000
0001
0000
,
0100
0000
0001
0000
1000
0100
0010
0001
1000
0000
1100
0000
0000
0000
0001
0100
,
0010
1000
0010
0100
0001
0000
1000
0100
1000
0000
0001
0100
0010
1000
0001
1000
,
0100
1000
0001
1000
0010
0000
0100
0000
1000
0000
0100
0000
0010
0000
0100
0001
,
1000
0001
0010
0000
0100
0000
0010
0001
0000
0001
0100
0010
1000
0010
1000
0010
,
0100
0001
1000
0100
0010
0000
0001
0000
0100
0000
1000
0000
0001
0000
0010
0000
,
1000
0001
0100
1000
0001
0010
1000
0001
,
1000
0000
0100
0010
0001
0000
0000
1100
0000
0000
0011
0000
0000
1100
0000
0000
,
0011
0000
0000
0000
0000
0000
0000
0000
0000
0000
0001
0100
0010
1000
0010
1000
0001
1000
0001
1000
0100
0010
0100
1000
0001
0000
0000
0000
0000
0000
0000
0000
,
1000
0000
0010
0000
0100
0001
1000
0001
0010
0000
0011
0000
0000
0000
1100
0000
,
0000
0000
1000
0000
0010
0100
0001
1000
0100
0000
0110
0000
0000
0000
0010
0000
,
0001
0100
0010
1000
0001
0000
0101
0000
0000
0000
1010
0000
0000
0000
0010
1000
,
0001
0000
1000
0100
0010
0000
0001
0100
0010
0000
1000
0001
0010
0000
0000
0000
,
0001
0000
0010
0000
0100
1000
0001
1000
0010
0000
1010
0000
0000
0000
0101
0000
,
0000
0000
0001
0000
0010
0100
1000
0001
0100
0000
0110
0000
0000
0000
0010
0000
,
1000
0000
0100
0000
0010
0000
0001
0000
0100
0000
0010
0000
0100
0000
0010
0000
0100
0000
0001
0000
1000
0000
0000
0000
0000
0000
0000
0000
1000
0100
1000
0100
,
0010
0001
0010
0001
0100
0010
1000
0001
0010
0000
0000
0000
0001
0000
0000
0000
0010
0000
0000
0000
0011
0000
0000
0000
1000
0000
0000
0000
0100
0000
0000
0000
,
1100
0000
0001
0000
0100
0000
0101
0000
1000
0000
0010
0000
1010
0000
0001
1000
,
0001
1000
0100
0000
0110
0000
0000
0000
0000
0000
0000
0000
0000
0000
0000
0000
;

//---------------dance-single - ----------------
#NOTEDATA:;
#CHARTNAME:;
#STEPSTYPE:dance-single;
#DESCRIPTION:;
#CHARTSTYLE:;
#DIFFICULTY:Hard;
#METER:14;
#RADARVALUES:0.676785,0.930996,0.388319,0.320363,0.213576,488.000000,448.000000,40.000000,33.000000,0.000000,0.000000,0.000000,0.000000,0.000000,0.676785,0.930996,0.388319,0.320363,0.213576,488.000000,448.000000,40.000000,33.000000,0.000000,0.000000,0.000000,0.000000,0.000000;
#CREDIT:;
#OFFSET:-0.771381;
#BPMS:0.000000=190.000000
,60.000000=95.000000
,62.000000=190.000000
,126.000000=95.000000
,156.000000=190.000000
,233.000000=95.000000
,235.000000=190.000000
,263.000000=95.000000
,265.000000=190.000000
;
#STOPS:156.000000=0.947369
;
#DELAYS:;
#WARPS:;
#TIMESIGNATURES:0.000000=4=4
;
#TICKCOUNTS:0.000000=4
;
#COMBOS:0.000000=1
;
#SPEEDS:0.000000=1.000000=0.000000=0
;
#SCROLLS:0.000000=1.000000
,59.500000=0.500000
,60.000000=1.000000
,142.000000=1.500000
,156.000000=1.000000
,232.000000=0.500000
,233.000000=1.000000
,262.500000=0.500000
,263.000000=1.000000
;
#FAKES:;
#LABELS:0.000000=Song Start
;
#NOTES:
0000
0000
0000
0000
,
0000
0000
0000
0000
,
0000
0000
0000
0000
,
0000
0000
0000
0000
,
1001
0000
0100
1000
0100
0000
0100
1001
,
0000
1001
0000
0001
0100
0000
0100
1001
,
0000
0001
0010
0001
0010
1001
0000
1001
,
0000
1000
0010
1000
0001
1000
0100
0010
,
0011
0000
0001
0000
0001
0100
0010
1010
,
0000
1010
0000
1000
0010
0001
0010
1010
,
0000
1000
0100
0001
0100
1100
0000
1100
,
0000
0010
0001
0100
0010
1000
0001
1000
,
1010
0000
1000
0000
1000
0100
0010
0011
,
0000
0011
0000
0001
0010
1000
0010
0011
,
0000
0001
0100
1000
0100
0001
0010
0110
,
0000
0000
1000
0100
0010
0001
0100
0010
1000
0000
0001
0000
0001
0000
2000
0000
,
0000
3100
0020
0001
0000
0031
0010
0100
,
1000
0001
0100
0020
0000
1000
1000
0230
,
0000
0001
0000
0301
0000
1000
0010
0001
,
0010
1000
0100
0010
0001
1000
1000
0002
,
0000
0103
0020
1000
0000
1030
0010
0100
,
0000
0001
0010
0200
0000
1000
1000
0320
,
0000
0032
0000
0203
0000
0010
0310
1001
,
0000
1000
0001
1000
0100
0001
0100
2000
,
0000
3100
2000
0010
0000
3010
1000
0001
,
1000
0100
0010
0002
0000
0013
0001
0200
,
0000
1000
0000
0010
0000
0301
1000
0001
,
0010
1000
0010
0001
0100
1000
0100
0002
,
0000
0103
0002
0010
0000
0013
0001
0000
,
0001
0100
0010
2000
0000
3010
1000
0100
,
0000
0011
0000
1200
0000
0310
0001
1000
,
0001
0100
1000
0100
0002
0000
0003
0000
,
0001
0000
0000
0010
0000
0000
0100
0000
1000
0000
0001
0100
0000
0010
2000
0000
,
0000
0000
0000
0000
0000
0000
3000
0100
0020
0000
0000
0000
0030
0000
0000
0000
,
0001
0000
0100
0000
0010
0000
1000
0000
0001
0010
0100
1000
0100
0010
0001
1000
,
0010
0100
0001
0020
0000
0000
0000
0130
2000
0000
0000
0100
0000
0000
3100
0000
,
2000
0000
0000
3020
0000
0000
0032
0000
0023
0000
1030
0002
0000
1003
0200
0000
,
0000
0010
0000
0010
0000
0000
0310
0001
1000
0010
0010
2000
0000
3010
1000
1000
,
0001
0010
0010
0002
0000
0013
0001
0001
1000
0010
0100
0001
0010
0100
0010
0100
,
0010
0001
0010
0001
1000
0001
0100
1000
,
0100
0001
1000
0010
1000
0001
0010
1000
,
0010
0001
1000
0010
0100
0001
0010
0100
,
1000
0000
0010
0000
0001
0000
0000
0010
0000
0000
1000
0000
0001
0000
1000
0000
,
0100
0010
0001
0100
0010
1010
0000
0001
,
0010
0001
0011
0000
0100
1000
0010
1000
,
0100
0010
0001
0100
0010
0100
1000
0100
,
0001
0010
0100
0010
0100
0010
0001
0100
,
1000
0100
0010
1000
0001
1000
0100
0001
,
0100
1000
0001
0010
0001
1000
0010
0001
,
0010
1000
0001
0010
0100
1000
0010
0100
,
0001
0000
0010
0000
1000
0000
0000
0010
0000
0000
0001
0000
1000
0000
0001
0000
,
0100
0010
1000
0100
0010
0011
0000
1000
,
0010
1000
1010
0000
0100
0001
0010
0001
,
0100
0010
1000
0100
0010
0100
0001
0100
,
1000
0010
0100
0010
0100
0001
0010
1000
,
0001
0100
2000
0000
0010
0000
0001
0000
,
0100
3002
0010
1000
,
0103
0000
0001
0000
0010
0000
0000
0010
0000
0000
0010
0000
0000
0010
0000
0000
,
0010
0000
0000
0000
0000
0001
0100
0010
1000
0100
0010
0001
1001
0000
0000
0000
,
1000
0000
0001
0100
0001
0011
0000
1001
,
0000
0001
0100
1000
0100
0101
0000
0001
,
0010
1000
0010
0011
0000
1001
0000
1000
,
0100
1000
0010
0100
0001
0010
0011
0000
,
0001
0000
1000
0100
1000
1010
0000
1001
,
0000
1000
0100
0001
0100
1100
0000
1000
,
0010
0000
0001
0000
0010
0000
1000
0000
0100
0000
0110
0000
0000
0000
1000
0100
,
0010
0001
0100
0010
1010
0000
0000
0000
0001
0000
0011
0000
0000
0000
1000
0000
,
1100
0000
0001
0101
0000
1000
0100
0001
,
0100
1000
0000
0000
0110
0000
0000
0000
;

//---------------dance-single - ----------------
#NOTEDATA:;
#CHARTNAME:;
#STEPSTYPE:dance-single;
#DESCRIPTION:;
#CHARTSTYLE:;
#DIFFICULTY:Medium;
#METER:10;
#RADARVALUES:0.477078,0.535881,0.368903,0.427151,0.043686,344.000000,306.000000,38.000000,44.000000,0.000000,0.000000,0.000000,0.000000,0.000000,0.477078,0.535881,0.368903,0.427151,0.043686,344.000000,306.000000,38.000000,44.000000,0.000000,0.000000,0.000000,0.000000,0.000000;
#CREDIT:;
#OFFSET:-0.771381;
#BPMS:0.000000=190.000000
,128.000000=95.000000
,158.000000=190.000000
;
#STOPS:158.000000=0.947369
,234.000000=1.263153
;
#DELAYS:;
#WARPS:;
#TIMESIGNATURES:0.000000=4=4
;
#TICKCOUNTS:0.000000=4
;
#COMBOS:0.000000=1
;
#SPEEDS:0.000000=1.000000=0.000000=0
;
#SCROLLS:0.000000=1.000000
,59.500000=0.000000
,63.000000=1.000000
,144.000000=1.500000
,158.000000=1.000000
,262.500000=0.000000
,266.000000=1.000000
;
#FAKES:;
#LABELS:0.000000=Song Start
;
#NOTES:
0000
0000
0000
0000
,
0000
0000
0000
0000
,
0000
0000
0000
0000
,
0000
0000
0000
0000
,
1001
0000
0000
0000
0000
0000
0000
1100
,
0000
0011
0000
0000
0000
0000
0000
1001
,
0000
0000
0000
0000
0000
0101
0000
1010
,
0000
0100
0100
0100
,
1001
0000
1000
0000
0100
1000
0100
1000
,
0000
1001
0000
0001
0100
0001
0000
0110
,
0000
1000
0010
1000
0000
0110
0000
0110
,
0000
0001
0010
0000
0100
0000
0010
0000
,
1001
0000
0001
0000
0100
0001
0100
0001
,
0000
1001
0000
1000
0100
1000
0000
0110
,
0000
0001
0010
0100
1000
0001
0000
1001
,
0000
0000
0000
0000
,
0001
0010
0001
0020
0000
0031
2000
0000
,
0000
0000
3000
0001
0100
0001
0100
0002
,
0000
1003
0100
0020
0000
0000
0000
0030
,
0000
0010
0002
0000
0203
0000
0320
0000
,
1030
0010
1000
0020
0000
1030
0002
0000
,
0000
0000
0003
0000
0000
1000
0100
2000
,
0000
3001
0100
0001
0000
0110
0000
2002
,
0000
0000
0000
0000
3003
0000
0000
1000
,
0010
1000
0010
2000
0000
3001
0020
0001
,
0000
0031
0000
0010
0001
1000
0001
2000
,
0000
3001
0100
0020
0000
0100
0000
0130
,
0000
0001
2000
0000
3200
0000
1300
0001
,
0010
0001
0010
0002
0000
1003
0020
1000
,
0000
1030
0000
0001
0000
1000
0100
0020
,
0000
0031
0100
0010
0000
1010
0000
1002
,
0000
0013
0001
0100
,
2002
0000
0000
0000
3003
0000
0000
0000
1000
0000
0000
0100
0000
0000
0010
0000
,
0001
0000
0000
0100
0000
0000
0020
0000
0000
0000
0000
0000
0000
0000
0030
0000
,
0200
0000
0300
0000
0010
1000
0001
1000
,
0100
0000
0010
0000
0001
0000
0100
0000
1000
0000
0010
0002
0000
0000
0003
0000
,
2001
0000
0000
0000
3100
0000
0000
0000
2000
0000
0000
3020
0000
0000
0230
0000
,
0302
0000
0000
0023
0000
0000
0230
0000
0000
0010
0000
0010
0000
0000
1300
0000
,
1002
0000
0000
0100
0000
0000
0103
0000
2001
0000
0000
0010
0000
0000
3010
0000
,
1000
0100
0001
0010
1000
0000
0001
0000
,
0010
0000
0100
1000
0100
1000
0001
0000
,
0100
0000
0010
1000
0010
1000
0001
0000
,
1000
0000
0100
0000
0010
0001
1000
0000
,
0001
0000
0100
0010
1000
0000
0001
0010
,
0001
0020
0000
0030
0001
1000
0020
0000
,
0030
1000
0010
1000
0010
0000
0100
0000
,
0100
0000
0001
0000
0001
1000
0100
0000
,
0100
0000
1000
0001
1000
0001
1000
0000
,
0010
0000
0100
0001
0100
0001
1000
0000
,
0100
0000
0010
0001
0010
0001
1000
0000
,
0001
0000
0100
0000
0010
1000
0001
0000
,
1000
0000
0100
0010
0001
0000
1000
0010
,
1000
0020
0000
0030
1000
0001
0020
0000
,
0030
0001
0010
0001
0010
0000
0100
0000
,
0100
0000
1000
0000
1000
0001
0100
0000
,
0100
0000
0010
1000
0010
1000
0002
0000
,
0010
1000
0100
2003
,
0010
0001
3100
2002
,
0000
0000
3003
1001
,
1000
0000
0001
0100
0001
0100
0000
1001
,
0000
0001
0010
0001
0000
0110
0000
1000
,
0010
1000
0000
0110
0000
0110
0000
0001
,
0100
0010
1000
1001
,
0001
0000
1000
0100
1000
0100
0000
1001
,
0000
1000
0010
1000
0000
0110
0000
0001
,
0010
0100
1000
0001
0000
1001
0000
0000
,
0000
0000
0000
0101
,
0000
1010
0000
0000
1100
0000
0000
0011
,
0000
0000
1000
0001
1000
0001
0000
0000
,
1001
0000
0000
0000
;

//---------------dance-single - ----------------
#NOTEDATA:;
#CHARTNAME:;
#STEPSTYPE:dance-single;
#DESCRIPTION:;
#CHARTSTYLE:;
#DIFFICULTY:Easy;
#METER:7;
#RADARVALUES:0.349487,0.422297,0.427151,0.135912,0.000000,252.000000,208.000000,44.000000,14.000000,0.000000,0.000000,0.000000,0.000000,0.000000,0.349487,0.422297,0.427151,0.135912,0.000000,252.000000,208.000000,44.000000,14.000000,0.000000,0.000000,0.000000,0.000000,0.000000;
#CREDIT:;
#OFFSET:-0.771381;
#BPMS:0.000000=190.000000
,128.000000=95.000000
,144.000000=190.000000
;
#STOPS:172.000000=0.947369
,248.000000=1.263153
;
#DELAYS:;
#WARPS:;
#TIMESIGNATURES:0.000000=4=4
;
#TICKCOUNTS:0.000000=4
;
#COMBOS:0.000000=1
;
#SPEEDS:0.000000=1.000000=0.000000=0
;
#SCROLLS:0.000000=1.000000
;
#FAKES:;
#LABELS:0.000000=Song Start
;
#NOTES:
0000
0000
0000
0000
,
0000
0000
0000
0000
,
0000
0000
0000
0000
,
0000
0000
0000
0000
,
1000
0000
0000
0000
0000
0000
0000
1000
,
0000
1000
0000
0000
0000
0000
0000
0001
,
0000
0000
0000
0000
0000
0001
0000
0001
,
0000
0100
0010
0100
,
1001
0000
0000
0000
0100
0000
0000
1001
,
0000
1001
0000
0000
0010
0000
0000
1001
,
0000
0000
0100
0000
0000
1001
0000
1001
,
0000
1000
0100
0010
,
0011
0000
0000
0000
0001
0000
0000
1010
,
0000
1010
0000
0000
1000
0000
0000
0011
,
0000
0000
0100
0000
0000
1001
0000
1001
,
0000
0000
0000
0000
,
0001
0000
0000
0100
0000
0000
0000
0010
,
0000
0010
0000
0000
0100
0000
0000
0001
,
0000
0000
0000
1000
0000
0100
0000
0100
,
0000
0010
0001
0001
,
1000
0000
0000
0010
0000
0000
0000
0100
,
0000
0100
0000
0010
0000
0000
0000
1000
,
0000
0000
0000
0001
0000
0010
0000
0010
,
0000
0000
0000
0100
0000
0100
0000
0000
,
1000
0100
0010
0001
,
1000
0010
0100
0010
,
1000
0001
0010
0001
,
0100
1000
0100
0001
,
0010
0100
1000
0001
,
1000
0100
0001
0100
,
1000
0000
0000
0010
0000
1001
0000
1001
,
0000
1000
0100
0010
,
0220
0330
0001
0100
,
1000
0100
0002
0003
,
0220
0330
0001
0010
,
1000
0010
0001
0100
,
2002
0000
3003
0000
,
1000
0000
0010
0000
,
0001
0000
0010
0000
,
2000
0000
3000
0000
,
1100
0000
0000
1100
0000
0000
0000
0000
,
0101
0000
0000
0101
0000
0000
0000
0000
,
1000
0001
1000
0001
,
1000
0001
0010
0001
,
0100
0001
1000
0100
,
0010
0001
0100
1000
,
0100
0001
0010
0100
,
1000
0000
0001
0000
0000
0101
0000
0000
,
1000
1100
0000
0001
,
0010
0001
0001
1000
,
1000
0010
0010
0100
,
0001
1000
0010
1000
,
0100
1000
0001
0100
,
0010
1000
0100
0001
,
0100
1000
0010
0100
,
0001
0000
1000
0000
0000
1100
0000
0000
,
0001
0101
0000
1000
,
0010
1000
1000
0001
,
0001
0010
0010
0100
,
1000
0002
0010
0010
,
0010
2003
0010
0010
,
3010
2002
0000
0000
,
3003
1001
0000
0010
,
0000
1001
0000
1001
0000
0000
0100
0000
,
0000
1001
0000
0000
0010
0000
0000
1001
,
0000
1001
0000
0000
0001
0000
0010
0000
,
0100
1100
0000
1000
,
0000
0101
0000
0101
0000
0000
0001
0000
,
0000
1100
0000
0000
0010
0000
0000
1001
,
0000
1001
0000
0000
0000
0000
0000
0000
,
0000
0000
1001
0000
0000
0110
0000
0000
,
1001
0000
0000
0110
0000
0000
2002
0000
,
0000
3003
0000
0000
1001
0000
0000
0000
;

//---------------dance-single - ----------------
#NOTEDATA:;
#CHARTNAME:;
#STEPSTYPE:dance-single;
#DESCRIPTION:;
#CHARTSTYLE:;
#DIFFICULTY:Beginner;
#METER:2;
#RADARVALUES:0.138685,0.189912,0.087372,0.019416,0.000000,100.000000,91.000000,9.000000,2.000000,0.000000,0.000000,0.000000,0.000000,0.000000,0.138685,0.189912,0.087372,0.019416,0.000000,100.000000,91.000000,9.000000,2.000000,0.000000,0.000000,0.000000,0.000000,0.000000;
#CREDIT:;
#OFFSET:-0.771381;
#BPMS:0.000000=190.000000
;
#STOPS:;
#DELAYS:;
#WARPS:;
#TIMESIGNATURES:0.000000=4=4
;
#TICKCOUNTS:0.000000=4
;
#COMBOS:0.000000=1
;
#SPEEDS:0.000000=1.000000=0.000000=0
;
#SCROLLS:0.000000=1.000000
;
#FAKES:;
#LABELS:0.000000=Song Start
;
#NOTES:
0000
0000
0000
0000
,
0000
0000
0000
0000
,
0000
0000
0000
0000
,
0000
0000
0000
0000
,
1000
0000
0000
0000
,
1000
0000
0000
0000
,
0001
0000
0000
0000
,
0001
0000
0000
0000
,
0010
0000
0000
0000
,
0010
0000
0000
0000
,
0001
0000
0000
0000
,
1000
0000
0000
0000
,
0010
0000
0000
0000
,
0010
0000
0000
0000
,
1000
0000
0000
0000
,
0001
0000
0000
0000
,
1000
0000
1000
0000
,
1000
0000
0000
0000
,
0100
0000
0100
0000
,
0100
0000
0000
0000
,
0010
0000
0010
0000
,
0010
0000
0000
0000
,
0001
0000
0001
0000
,
0001
0000
0000
0000
,
1000
0000
0010
0000
,
1000
0000
0000
0000
,
0001
0000
0100
0000
,
0001
0000
0000
0000
,
1000
0000
0100
0000
,
1000
0000
0000
0000
,
0001
0000
0010
0000
,
0001
0000
0000
0000
,
1001
0000
0000
0000
,
0000
0000
0000
0000
,
0100
0000
0000
0000
,
0000
0000
0000
0000
,
1001
0000
0000
0000
,
0000
0000
0000
0000
,
0010
0000
0000
0000
,
0000
0000
0000
0000
,
1001
0000
0000
0000
,
1000
0000
0000
0000
,
0001
0000
0000
0000
,
1000
0000
0000
0000
,
1001
0000
0000
0000
,
0110
0000
0000
0000
,
1000
0000
0001
0000
,
1000
0000
0000
0000
,
0001
0000
0001
0000
,
0010
0000
0010
0000
,
0100
0000
0100
0000
,
1000
0000
0001
0000
,
0100
0000
0000
0000
,
0100
0000
0000
0000
,
0001
0000
0010
0000
,
0001
0000
0001
0000
,
1000
0000
1000
0000
,
0010
0000
0010
0000
,
0100
0000
0100
0000
,
0001
0000
1000
0000
,
0100
0000
0000
0000
,
0100
0000
0000
0000
,
1000
0000
0010
0000
,
1000
0000
1000
0000
,
0002
0000
0000
0000
,
0000
0000
0003
0000
,
1001
0000
0000
0000
,
0000
0000
0000
0000
,
0100
0000
0000
0000
,
0100
0000
0000
0000
,
0001
0000
0000
0000
,
1000
0000
0000
0000
,
0100
0000
0000
0000
,
0100
0000
0000
0000
,
1000
0000
0000
0000
,
0001
0000
0000
0000
,
0110
0000
0000
1001
,
0000
0000
0000
0000
0200
0000
0000
0300
,
0000
1001
0000
0000
;
