#TITLE:This Club is Not 4 U;
#SUBTITLE:;
#ARTIST:EmoCo.;
#TITLETRANSLIT:;
#SUBTITLETRANSLIT:;
#ARTISTTRANSLIT:;
#GENRE:Hybrid Jersey Club;
#CREDIT:;
#BANNER:This Club is Not 4 U.png;
#BACKGROUND:This Club is Not 4 U-bg.png;
#LYRICSPATH:;
#CDTITLE:cdtitle.png;
#MUSIC:This Club is Not 4 U.ogg;
#OFFSET:1.183912;
#SAMPLESTART:42.316090;
#SAMPLELENGTH:12.000000;
#LASTBEATHINT:0.482427;
#SELECTABLE:YES;
#BPMS:0.000000=160.000000
;
#STOPS:
;
#BGCHANGES:;
#KEYSOUNDS:;
#ATTACKS:;

//---------------dance-single - ----------------
#NOTES:
     dance-single:
     :
     Challenge:
     13:
     0.650641,0.760616,0.424192,0.171165,0.334889,612.000000,555.000000,57.000000,23.000000,20.000000,0.000000,0.650641,0.760616,0.424192,0.171165,0.334889,612.000000,555.000000,57.000000,23.000000,20.000000,0.000000:
// measure 0
0000
0000
0000
0000
,  // measure 1
0000
0000
0000
0000
,  // measure 2
0000
0000
0000
0000
,  // measure 3
0000
0000
0000
0000
,  // measure 4
0000
0000
0000
0000
,  // measure 5
0011
0000
0000
1000
1010
0000
0000
0001
,  // measure 6
0011
0000
0000
0000
0001
0000
0000
0000
1001
0000
0000
0001
0100
0000
0010
0000
,  // measure 7
1010
0000
0000
0000
1000
0000
0000
0000
0011
0000
0000
0001
0000
0000
1000
0000
,  // measure 8
1010
0000
0010
1000
0100
0010
0110
0000
,  // measure 9
0011
0000
0010
0001
0100
0010
1000
0100
,  // measure 10
0001
0001
0100
1000
0010
0100
0001
1000
,  // measure 11
1010
0000
0010
1000
0100
0010
0001
0100
,  // measure 12
1000
0000
0000
1000
0000
0000
0100
0000
0000
0001
0000
0000
0101
0000
0000
0000
,  // measure 13
0011
MMMM
1010
MMMM
,  // measure 14
1000
0000
0000
0100
0000
0000
1000
0000
0000
0001
0000
0000
0100
0000
0010
0000
,  // measure 15
1010
MMMM
0011
MMMM
,  // measure 16
0001
0000
0000
0100
0000
0000
0001
0000
1000
0000
0100
0000
0110
0000
0000
0000
,  // measure 17
0011
0000
0000
1000
0100
0000
0010
0000
0001
0000
0000
0101
0000
0000
1000
0000
,  // measure 18
1010
0000
0000
0001
0100
0000
0010
0000
1000
0000
0000
1100
0000
0000
0001
0000
,  // measure 19
0011
0000
0000
0101
0000
0000
1010
0000
1010
0000
0000
1100
0000
0000
0011
0000
,  // measure 20
2002
0000
0000
0000
3003
0000
0000
0000
0004
4000
0000
0000
0000
0000
0000
0000
,  // measure 21
3003
0000
0000
0000
MM00
0000
00MM
0000
1000
0000
0000
1000
0000
0000
1000
0000
,  // measure 22
0010
0000
0000
0000
0000
0000
0010
0000
0000
0000
0000
0000
0010
0000
1000
0000
0001
0000
0010
0000
0000
0100
0000
0000
,  // measure 23
1000
0000
0000
0000
1000
0000
0000
0000
1000
0000
0000
0100
0000
0000
0001
0000
,  // measure 24
0100
0000
0000
0000
0010
0000
0000
0000
0100
0000
0000
1000
0010
0000
0100
0000
,  // measure 25
0001
0000
0000
0000
0001
0000
0000
0000
0001
0000
0000
1000
0000
0000
0100
0000
,  // measure 26
0010
0000
0000
0000
0010
0000
0000
0000
0001
0000
0000
1000
0010
0000
0100
0000
,  // measure 27
0001
0000
0000
0000
0001
0000
0000
0000
0001
0000
0000
0100
0000
0000
1000
0000
,  // measure 28
1100
0000
0000
0000
0110
0000
0000
0000
0101
0000
0000
0001
1000
0000
0001
0000
,  // measure 29
0021
0000
0000
0000
2030
0000
0000
0000
3020
0000
0000
0031
1000
0000
0001
0000
,  // measure 30
0100
0000
1000
0000
0100
0000
0000
0000
0001
0000
0000
0001
0000
0000
0100
0000
,  // measure 31
0010
0000
1000
0000
0100
0000
0001
0000
0001
0000
0000
0100
0000
0000
0001
0000
,  // measure 32
0100
0000
1000
0000
0001
0000
0010
0000
0100
0000
0000
1000
0000
0000
0010
0000
,  // measure 33
1020
0000
0000
0000
0032
0000
0000
0000
0023
0000
0000
1030
0001
0000
1000
0000
,  // measure 34
0100
0000
0001
0000
0100
0000
0000
0000
1000
0000
0000
1000
0000
0000
0100
0000
,  // measure 35
0010
0000
0001
0000
0100
0000
1000
0000
1000
0000
0000
1000
0000
0000
0100
0000
,  // measure 36
0002
0000
0000
0000
0000
0000
0000
0000
0013
0000
0000
0100
0000
0000
0010
0000
,  // measure 37
2001
0000
0000
0000
0000
0000
0000
0000
3001
0000
0000
0000
0000
0000
0001
1000
,  // measure 38
0002
0000
0000
0000
0000
0000
0000
0000
1003
0000
0000
0000
0000
0000
1000
0010
,  // measure 39
2000
0000
0000
0000
3000
0000
0001
0010
0002
0000
0000
0000
0003
0000
1000
0010
,  // measure 40
2000
0000
0000
0000
0000
0000
0000
0000
0000
0001
0000
0000
3000
0000
0000
0000
0000
0000
1000
0000
0000
0000
0000
0000
0001
0000
0000
0000
1000
0000
0000
0000
0001
0000
0000
0000
0010
0000
0000
0000
0000
0000
0000
0000
0000
0000
0000
0000
,  // measure 41
0001
0010
1000
0010
0001
0100
1000
0100
,  // measure 42
0001
1000
0010
0001
0010
1000
0100
0001
,  // measure 43
0100
0100
1000
1000
0001
0001
0100
0100
,  // measure 44
0010
0000
0000
0010
0100
0000
0010
0000
0100
0000
0010
0000
1001
0000
0000
0000
,  // measure 45
1000
0000
0000
1000
0100
0000
0010
0000
0001
0000
0000
0001
0100
0000
0010
0000
,  // measure 46
1000
0000
0000
0000
0000
0000
0000
0000
0000
1000
0000
0000
0100
0000
0000
0000
0000
0000
0010
0000
0000
0000
0000
0000
0001
0000
0000
0000
1000
0000
0000
0000
0001
0000
0000
0000
1000
0000
0000
0000
0000
0000
0010
0000
0000
0000
0000
0000
,  // measure 47
0100
0000
0000
0100
0001
0000
0010
0000
0100
0000
0000
0100
1000
0000
0010
0000
,  // measure 48
0100
0000
0000
0000
0000
0000
0000
0000
0000
0100
0000
0000
0001
0000
0000
0000
0000
0000
1000
0000
0000
0000
0000
0000
0001
0000
0000
0000
0010
0000
0000
0000
0001
0000
0000
0000
0010
0000
0000
0000
0000
0000
0100
0000
0000
0000
0000
0000
,  // measure 49
1000
0000
0000
0001
0100
0000
0001
0000
0010
0000
0000
0010
0001
0000
1000
0000
,  // measure 50
0010
0000
0000
0000
0000
0000
0000
0000
0000
0010
0000
0000
1000
0000
0000
0000
0000
0000
0100
0000
0000
0000
0000
0000
0010
0000
0000
0000
0001
0000
0000
0000
0010
0000
0000
0000
0001
0000
0000
0000
0000
0000
1000
0000
0000
0000
0000
0000
,  // measure 51
0001
0100
1000
0100
0001
0100
1000
0100
,  // measure 52
0220
0000
0000
0330
0000
0000
0100
0010
0100
0001
0000
0000
,  // measure 53
1000
0000
0000
1000
0100
0000
0001
0000
0100
0000
0000
0100
0010
0000
0001
0000
,  // measure 54
0100
0000
0000
0000
0000
0000
0000
0000
0000
0100
0000
0000
1000
0000
0000
0000
0000
0000
0100
0000
0000
0000
0000
0000
0010
0000
0000
0000
1000
0000
0000
0000
0100
0000
0000
0000
0010
0000
0000
0000
0000
0000
0001
0000
0000
0000
0000
0000
,  // measure 55
1000
0000
0000
1000
0010
0000
0001
0000
0010
0000
0000
0010
0100
0000
0001
0000
,  // measure 56
0010
0000
0000
0000
0000
0000
0000
0000
0000
0010
0000
0000
1000
0000
0000
0000
0000
0000
0010
0000
0000
0000
0000
0000
0100
0000
0000
0000
1000
0000
0000
0000
0010
0000
0000
0000
0100
0000
0000
0000
0000
0000
0001
0000
0000
0000
0000
0000
,  // measure 57
1000
0000
0000
1000
0100
0000
0001
0000
0100
0000
0000
0100
1000
0000
0010
0000
,  // measure 58
0001
0000
0000
0000
0000
0000
0000
0000
0000
0001
0000
0000
0010
0000
0000
0000
0000
0000
1000
0000
0000
0000
0000
0000
0100
0000
0000
0000
0010
0000
0000
0000
0001
0000
0000
0000
0100
0000
0000
0000
0000
0000
0010
0000
0000
0000
0000
0000
,  // measure 59
1000
0100
0001
0100
1000
0010
0001
0010
,  // measure 60
1000
0000
0000
1000
0100
0000
0010
0000
0011
0000
0000
0000
0101
0000
0000
0000
,  // measure 61
0010
0010
1000
0010
0100
0010
2000
0000
,  // measure 62
3100
1000
0100
0010
0002
0000
1003
0100
,  // measure 63
0010
0010
0001
0010
0100
0010
0002
0000
,  // measure 64
0103
0001
0100
0010
1000
1000
0100
0010
,  // measure 65
0001
0001
0100
1000
0100
0010
1000
0001
,  // measure 66
1000
1000
0100
0001
0100
0010
0001
1000
,  // measure 67
0010
0000
0010
0000
0100
0000
0100
0000
0001
0000
1000
0001
1000
0000
0001
0000
,  // measure 68
0010
0000
0000
0010
0000
0000
0010
0000
0100
0010
0000
0001
0100
0000
0010
0000
,  // measure 69
1000
1000
0000
0000
0102
0000
1003
0100
,  // measure 70
0001
0000
0100
0000
1000
0000
0000
0000
0001
0000
0000
0000
4000
0004
0000
0000
,  // measure 71
3003
0000
1000
0000
0010
0000
0001
0000
0001
0000
0000
0010
0000
0000
0001
0000
,  // measure 72
0010
1000
0001
0100
0010
1000
0100
0010
,  // measure 73
0021
0000
0000
0000
2030
0000
0000
0000
3020
0000
0000
0031
1000
0000
0001
0000
,  // measure 74
0100
0000
1000
0000
0100
0000
0000
0000
0010
0000
0000
0010
0000
0000
1000
0000
,  // measure 75
0001
0000
1000
0000
0100
0000
0001
0000
0001
0000
0000
0100
0000
0000
0001
0000
,  // measure 76
0100
1000
0010
1000
0100
0010
0011
0000
,  // measure 77
1001
0000
0001
0100
1000
0100
0010
1000
,  // measure 78
0100
0001
0100
0010
0001
0100
0010
1000
,  // measure 79
1001
0000
0001
0010
1000
0010
0001
0100
,  // measure 80
0010
0001
0010
1000
0100
0010
0001
0100
,  // measure 81
0110
0000
0000
0010
1000
0000
0100
0000
0001
0000
1000
0000
0001
0000
0100
0000
,  // measure 82
1000
0010
0001
1000
0001
0010
1000
0001
,  // measure 83
1001
0000
0000
1000
0100
0000
0001
0000
1000
0000
0010
0000
0001
0000
0100
0000
,  // measure 84
0101
0000
0000
1100
0000
0000
0101
0000
1000
0100
0000
0010
0001
0000
1000
0000
,  // measure 85
0010
0000
0000
0000
0010
0000
0000
0000
0010
0000
0000
0010
0000
0000
0010
0000
,  // measure 86
0010
0000
0000
0000
0010
0000
0000
0000
0010
0000
0000
0010
0000
0000
0010
0000
,  // measure 87
1001
0000
0000
0000
1001
0000
0000
0000
1001
0000
0000
1001
0000
0000
1001
0000
,  // measure 88
1001
0000
0000
0000
1100
0000
0000
0000
0101
0000
0000
0011
0000
0000
1010
0000
;

//---------------dance-single - ----------------
#NOTES:
     dance-single:
     :
     Hard:
     11:
     0.529443,0.595265,0.453960,0.327447,0.126514,498.000000,437.000000,61.000000,44.000000,0.000000,0.000000,0.529443,0.595265,0.453960,0.327447,0.126514,498.000000,437.000000,61.000000,44.000000,0.000000,0.000000:
// measure 0
0000
0000
0000
0000
,  // measure 1
0000
0000
0000
0000
,  // measure 2
0000
0000
0000
0000
,  // measure 3
0000
0000
0000
0000
,  // measure 4
0000
0000
0000
0000
,  // measure 5
1010
0000
0101
0000
,  // measure 6
0011
0000
1100
0010
,  // measure 7
1001
0000
0110
0000
,  // measure 8
1001
0000
0000
0000
0010
0100
0010
0000
,  // measure 9
1001
0000
1000
0100
0010
0100
1000
0000
,  // measure 10
0001
0100
0010
0100
0001
0000
0110
0000
,  // measure 11
1001
0000
1000
0010
0100
0001
0010
0000
,  // measure 12
0100
0000
0000
1000
0000
0000
0001
0000
0000
0100
0000
0000
0110
0000
0000
0000
,  // measure 13
0202
0303
2020
3030
,  // measure 14
1000
0000
0000
1000
0000
0000
0001
0000
0000
0001
0000
0000
1000
0000
0000
0000
,  // measure 15
2200
3300
0022
0033
,  // measure 16
0001
0000
0000
1000
0000
0000
0001
0000
0100
0000
0010
0000
0110
0000
0000
0000
,  // measure 17
0001
0000
0000
0000
0100
0000
0000
0000
0001
0000
0000
0100
0000
0000
0010
0000
,  // measure 18
1000
0000
0000
0000
0100
0000
0000
0000
1000
0000
0000
0100
0000
0000
0010
0000
,  // measure 19
0001
1010
0011
1010
,  // measure 20
2002
0000
0000
0000
3003
0000
0000
0000
4000
0004
0000
0000
0000
0000
0000
0000
,  // measure 21
3003
0000
0000
0000
0000
0000
0000
0000
1000
0000
0000
1000
0000
0000
1000
0000
,  // measure 22
0100
0000
0100
0000
0010
0100
1000
0001
,  // measure 23
0100
0000
0000
0000
0100
0000
0000
0000
0100
0000
0000
0010
0000
0000
1000
0000
,  // measure 24
0001
0010
1000
0010
,  // measure 25
0001
0000
0000
0000
0001
0000
0000
0000
0001
0000
0000
0001
0000
0000
0001
0000
,  // measure 26
0100
0000
0100
0000
0010
0100
0001
1000
,  // measure 27
0100
0000
0000
0000
0100
0000
0000
0000
0100
0000
0000
0010
0000
0000
0001
0000
,  // measure 28
0011
1100
1010
0101
,  // measure 29
2000
0000
3200
0000
0302
0000
0103
0001
,  // measure 30
0100
1000
0200
0000
0010
0010
0310
0000
,  // measure 31
0100
1000
0001
0100
0020
0000
1030
0200
,  // measure 32
0000
0000
0310
0000
0002
0000
0000
0000
1003
0000
0000
0100
0000
0000
0010
0000
,  // measure 33
0002
0000
0203
0000
2300
0000
3100
1000
,  // measure 34
0100
0001
0200
0000
0010
0010
0310
0000
,  // measure 35
0100
0001
1000
0100
0020
0000
0031
0100
,  // measure 36
0020
0000
0000
0000
0000
0000
0000
0000
0130
0000
0000
0100
0000
0000
0100
0000
,  // measure 37
2002
0000
3003
0000
0100
0000
0000
0001
,  // measure 38
2002
0000
3003
0000
0100
0000
0000
1000
,  // measure 39
2002
0000
3003
0001
2002
0000
3003
1000
,  // measure 40
1001
0000
0000
0001
0000
0000
1000
0000
2002
0000
0000
0000
3003
0000
0000
0000
,  // measure 41
1001
0000
0001
0100
0010
0000
0100
0001
,  // measure 42
1001
0000
1000
0100
0010
0000
0100
1000
,  // measure 43
0001
0100
0010
1000
0100
0010
0001
0100
,  // measure 44
0010
0000
0010
0000
0100
0010
1001
0000
,  // measure 45
1000
0000
0000
1000
0000
0000
0001
0000
0100
0000
0000
0100
0000
0000
0001
0000
,  // measure 46
1000
0100
0000
0011
0000
0101
0000
1000
,  // measure 47
0001
0000
0000
0001
0000
0000
1000
0000
0100
0000
0000
0100
0000
0000
1000
0000
,  // measure 48
0001
0100
0000
1010
0000
1000
0100
0100
,  // measure 49
0010
0000
0000
0010
0000
0000
0001
0000
0100
0000
0000
0100
0000
0000
0010
0000
,  // measure 50
1000
0100
0000
0011
0000
1100
0000
0001
,  // measure 51
0100
0010
1000
0010
0100
0010
1000
0010
,  // measure 52
0100
0000
0220
0330
,  // measure 53
0001
0000
0000
0001
0000
0000
0100
0000
1000
0000
0000
1000
0000
0000
0100
0000
,  // measure 54
0001
0010
0000
1010
0000
0011
0000
0001
,  // measure 55
1000
0000
0000
1000
0000
0000
0100
0000
0001
0000
0000
0001
0000
0000
0100
0000
,  // measure 56
1000
0010
0000
0011
0000
1010
0000
1000
,  // measure 57
0001
0000
0000
0001
0000
0000
0010
0000
1000
0000
0000
1000
0000
0000
0010
0000
,  // measure 58
0001
0100
0000
1010
0000
0101
0000
0001
,  // measure 59
1000
0100
0010
0001
1000
0100
0010
0001
,  // measure 60
2000
3000
1010
0101
,  // measure 61
1000
0100
0002
0003
,  // measure 62
0100
0010
0100
1000
,  // measure 63
0001
0100
2000
3000
,  // measure 64
0100
0000
0010
0000
0100
0001
1001
0000
,  // measure 65
1000
0100
1000
0100
0001
0100
1000
0000
,  // measure 66
0001
0100
0001
0100
1000
0100
0001
0000
,  // measure 67
1001
0000
0000
0000
1001
0000
0000
0000
1001
0000
0000
1001
0000
0000
1001
0000
,  // measure 68
0001
0100
0010
1000
0001
0000
0010
0000
,  // measure 69
0100
0100
0000
0000
0110
0000
1000
0100
,  // measure 70
0010
0001
1000
0000
0010
0000
0120
0000
,  // measure 71
0030
1000
0010
0001
0020
0000
0130
0010
,  // measure 72
1000
0000
0001
0000
0010
0000
0000
0000
0100
0000
0000
0100
0000
0000
0010
0000
,  // measure 73
0002
0000
0023
0000
2030
0000
3010
1000
,  // measure 74
0010
0001
0020
0000
0100
0100
0130
0000
,  // measure 75
1000
0010
0001
0010
1000
0000
0001
0100
,  // measure 76
1000
0100
0001
0000
1001
0000
0110
0000
,  // measure 77
1001
0000
1000
0100
0010
0001
1000
0010
,  // measure 78
0100
0010
1000
0001
0010
0100
1000
0000
,  // measure 79
1100
0000
0001
0100
0010
1000
0100
1000
,  // measure 80
0010
0100
0001
0010
0100
1000
0001
0000
,  // measure 81
0101
0000
1000
0010
0100
0001
0010
0100
,  // measure 82
1000
0010
0100
0001
1000
0100
0010
0000
,  // measure 83
1001
0000
0001
0010
0100
1000
0001
0100
,  // measure 84
0010
0000
0000
0010
0000
0000
0010
0000
1000
0000
0100
0000
0001
0000
0100
0000
,  // measure 85
1000
0000
0000
0000
1000
0000
0000
0000
1000
0000
0000
1000
0000
0000
1000
0000
,  // measure 86
1000
0000
0000
0000
1000
0000
0000
0000
1000
0000
0000
1000
0000
0000
1000
0000
,  // measure 87
0001
0000
0000
0000
1000
0000
0000
0000
0001
0000
0000
1000
0000
0000
0001
0000
,  // measure 88
1000
0000
0000
0000
0100
0000
0000
0000
0001
0000
0000
0010
0000
0000
1000
0000
;

//---------------dance-single - ----------------
#NOTES:
     dance-single:
     :
     Medium:
     8:
     0.411435,0.462332,0.364657,0.305121,0.000000,387.000000,338.000000,49.000000,41.000000,0.000000,0.000000,0.411435,0.462332,0.364657,0.305121,0.000000,387.000000,338.000000,49.000000,41.000000,0.000000,0.000000:
// measure 0
0000
0000
0000
0000
,  // measure 1
0000
0000
0000
0000
,  // measure 2
0000
0000
0000
0000
,  // measure 3
0000
0000
0000
0000
,  // measure 4
0000
0000
0000
0000
,  // measure 5
1000
0000
0100
0000
,  // measure 6
0010
0000
0010
0010
,  // measure 7
0001
0000
0100
0000
,  // measure 8
0010
0000
1000
1000
,  // measure 9
0001
0010
0100
1000
,  // measure 10
0001
0100
0010
1000
,  // measure 11
0001
0010
0100
1000
,  // measure 12
0020
0030
0010
0110
,  // measure 13
0101
0000
1100
0000
,  // measure 14
1001
0000
1000
0001
1000
0000
0100
0000
,  // measure 15
0011
0000
1010
0000
,  // measure 16
1001
0000
0001
1000
0001
0000
1001
0000
,  // measure 17
1000
0000
0100
0000
0010
0100
0010
0000
,  // measure 18
0001
0000
0100
0000
0010
0100
0010
0000
,  // measure 19
1010
0101
1010
0101
,  // measure 20
2000
0000
0100
0010
,  // measure 21
3001
0000
0000
0000
0001
0000
0001
1000
,  // measure 22
0100
0000
0100
0000
0010
0000
0010
0001
,  // measure 23
0100
0000
0100
0000
0010
0000
0100
0010
,  // measure 24
1000
0001
0010
0100
,  // measure 25
1000
0000
1000
0000
0001
0000
1000
0001
,  // measure 26
0100
0000
0100
0000
0010
0000
0010
1000
,  // measure 27
0100
0000
0100
0000
0010
0000
0100
0010
,  // measure 28
0001
0101
1100
0101
,  // measure 29
0002
0023
2030
3020
,  // measure 30
0031
1000
0010
0000
0100
0010
0100
0000
,  // measure 31
0001
0000
1000
0100
0010
0000
0001
0100
,  // measure 32
0010
1000
0001
0001
,  // measure 33
2000
3020
0032
0023
,  // measure 34
1030
0001
0010
0000
0100
0010
0100
0000
,  // measure 35
1000
0000
0001
0100
0010
0000
1000
0100
,  // measure 36
0020
0000
0100
0130
,  // measure 37
2002
3003
0100
0000
,  // measure 38
2002
3003
0100
0000
,  // measure 39
2002
3003
2002
3003
,  // measure 40
1001
0010
2002
3003
,  // measure 41
1001
0100
0001
0010
,  // measure 42
1001
0100
1000
0010
,  // measure 43
1002
0023
0230
2300
,  // measure 44
0002
0000
3003
1001
,  // measure 45
1000
0010
1000
0100
,  // measure 46
1000
0000
0010
0000
1000
0001
1000
0000
,  // measure 47
0001
0010
0001
0100
,  // measure 48
0001
0000
0010
0000
0001
1000
0001
0000
,  // measure 49
1000
0010
0100
0001
,  // measure 50
0010
0000
0100
0000
1000
0001
1000
0000
,  // measure 51
0010
0010
0010
0010
,  // measure 52
1001
0000
2002
3003
,  // measure 53
0001
0010
1000
0010
,  // measure 54
0001
0000
0100
0000
1000
0100
0001
0000
,  // measure 55
1000
0010
0001
0010
,  // measure 56
1000
0000
0100
0000
0001
0100
1000
0000
,  // measure 57
0001
0100
1000
0001
,  // measure 58
0010
0000
1000
0000
0100
0010
0001
0000
,  // measure 59
2000
3200
0320
0032
,  // measure 60
0103
0000
1001
0110
,  // measure 61
1000
1000
1000
0000
,  // measure 62
0001
0001
0001
0000
,  // measure 63
1000
1000
1000
0000
,  // measure 64
0001
0001
0010
1100
,  // measure 65
0001
0000
0100
0000
0001
0100
0001
0000
,  // measure 66
1000
0000
0010
0000
1000
0010
1000
0000
,  // measure 67
0011
1100
0011
1100
,  // measure 68
0002
0000
1003
0010
,  // measure 69
0120
0030
0200
0301
,  // measure 70
1000
0001
1000
0000
0100
0000
0220
0000
,  // measure 71
0330
0000
0100
1000
0001
0000
1000
0001
,  // measure 72
0100
0010
0100
0001
,  // measure 73
2000
3200
0302
0203
,  // measure 74
1300
0001
1000
0000
0010
0100
0010
0000
,  // measure 75
1000
0000
0010
0100
0001
0000
0010
0100
,  // measure 76
1000
0010
0010
1001
,  // measure 77
0001
0000
0010
0001
0100
0000
0010
0000
,  // measure 78
0100
0001
0010
0000
1100
0000
0011
0000
,  // measure 79
1000
0000
0010
1000
0100
0000
0010
0000
,  // measure 80
0100
1000
0010
0000
0101
0000
1010
0000
,  // measure 81
0001
0000
0100
0001
0010
0000
1000
0000
,  // measure 82
0010
0001
0100
0000
1010
0000
0101
0000
,  // measure 83
1000
0000
0100
1000
0010
0000
0001
0000
,  // measure 84
0010
1000
0100
0000
0011
0000
1100
0000
,  // measure 85
0001
0100
0000
0100
,  // measure 86
0000
0100
0000
0100
,  // measure 87
0000
1001
0000
0110
,  // measure 88
0000
1001
0000
0110
;

//---------------dance-single - ----------------
#NOTES:
     dance-single:
     :
     Easy:
     6:
     0.314689,0.330237,0.148839,0.290237,0.000000,296.000000,276.000000,20.000000,39.000000,0.000000,0.000000,0.314689,0.330237,0.148839,0.290237,0.000000,296.000000,276.000000,20.000000,39.000000,0.000000,0.000000:
0000
0000
0000
0000
,
0000
0000
0000
0000
,
0000
0000
0000
0000
,
0000
0000
0000
0000
,
0000
0000
0000
0000
,
1000
0000
1000
0000
,
1000
0000
1000
1000
,
0001
0000
0001
0000
,
0001
0000
1000
0001
,
1000
0010
0100
0000
,
0001
0010
0100
0000
,
1000
0010
0100
0001
,
2000
0000
0001
3001
,
1001
0000
0110
0000
,
1000
1000
1000
1000
,
0110
0000
1001
0000
,
0001
0001
0100
0001
,
1000
0100
0001
0000
,
0001
0100
1000
0000
,
1000
0100
0001
0100
,
2000
0000
0010
3010
,
1001
0000
1000
1000
,
0100
0100
0010
0001
,
0100
0100
0010
1000
,
0002
0023
0230
2300
,
3001
0001
0100
0100
,
0010
0010
1000
0100
,
0010
0010
0001
1000
,
0010
0100
0010
0100
,
0002
0023
2030
3020
,
0031
0001
1000
1000
,
0001
0100
0010
0010
,
1000
0100
0010
0001
,
2000
3020
0032
0023
,
1030
1000
0001
0001
,
1000
0100
0010
0001
,
0200
0000
0000
0300
,
2002
3003
0100
0000
,
2002
3003
0100
0000
,
2002
3003
2002
3003
,
1001
0100
2002
3003
,
0001
0001
0010
0010
,
1000
1000
0010
0010
,
0002
0023
2030
3020
,
0032
0000
0003
1001
,
1000
0000
0010
0000
,
1000
0010
0100
0001
,
0010
0000
0001
0000
,
0010
0001
0100
0010
,
1000
0000
0100
0000
,
1000
0100
0010
0001
,
0100
0010
0100
0010
,
0100
0000
2002
3003
,
0001
0000
0100
0000
,
1000
0100
0001
0010
,
1000
0000
0010
0000
,
1000
0010
0001
0100
,
1000
0000
0100
0000
,
1000
0100
0001
1000
,
0100
0010
0100
0010
,
0200
0300
1001
0110
,
0001
0001
0001
0000
,
1000
1000
1000
0000
,
0001
0001
0001
0000
,
1000
1000
0100
1000
,
0001
0100
1000
0000
,
1000
0100
0001
0000
,
0001
0100
1000
0100
,
0002
0000
0013
0010
,
1001
0000
0100
0000
,
0001
1000
0001
0200
,
0300
0001
0100
0010
,
1000
0100
0010
0010
,
0002
0023
2030
3020
,
0031
0001
1000
1000
,
0001
0100
1000
0100
,
0001
0010
0100
1000
,
0001
0010
1000
0001
,
0100
1000
0010
0010
,
1000
0010
0001
1000
,
0100
0001
0010
0010
,
0001
0100
1000
0001
,
0010
1000
0001
0001
,
1000
0100
0001
0100
,
1000
0010
0001
0010
,
1000
0100
0000
0100
,
0000
0100
0000
0100
,
0000
1001
0000
0110
,
0000
1001
0000
0110
;

//---------------dance-single - ----------------
#NOTES:
     dance-single:
     :
     Beginner:
     3:
     0.207312,0.283818,0.141397,0.037210,0.000000,195.000000,176.000000,19.000000,5.000000,0.000000,0.000000,0.207312,0.283818,0.141397,0.037210,0.000000,195.000000,176.000000,19.000000,5.000000,0.000000,0.000000:
0000
0000
0000
0000
,
0000
0000
0000
0000
,
0000
0000
0000
0000
,
0000
0000
0000
0000
,
0000
0000
0000
0000
,
1000
0000
1000
0000
,
1000
0000
1000
0000
,
0001
0000
0001
0000
,
0001
0000
0001
0000
,
1000
0000
0100
0000
,
0010
0010
0010
0000
,
0001
0000
0100
0000
,
0020
0000
0030
0000
,
1001
0000
1001
0000
,
0100
0100
0100
0000
,
1001
0000
1001
0000
,
0010
0010
0010
0000
,
1000
0000
1000
0000
,
0001
0000
0001
0000
,
0010
0010
0010
0010
,
0020
0000
0030
0000
,
0001
0000
0001
0001
,
0001
0000
0100
0000
,
0010
0000
1000
1000
,
1000
0000
0001
0000
,
1000
0000
1000
1000
,
1000
0000
0100
0000
,
0010
0000
0001
0001
,
0001
0000
1000
0000
,
1001
0000
1001
0000
,
0010
0010
0010
0000
,
1000
0001
1000
0000
,
0100
0000
0100
0000
,
1001
0000
1001
0000
,
0010
0010
0010
0000
,
0001
1000
0001
0000
,
0200
0000
0300
0000
,
1001
0000
0000
0000
,
1001
0000
0000
0000
,
1001
0000
1001
0000
,
1001
0000
0110
0000
,
0001
0001
0001
0000
,
1000
1000
1000
0000
,
0001
1000
0001
0000
,
2000
0000
3000
0000
,
0001
0000
0010
0000
,
0001
0000
0010
0000
,
0100
0000
1000
0000
,
0100
0000
1000
0000
,
0001
0000
0100
0000
,
0001
0000
0100
0000
,
0010
0010
0010
0010
,
0010
0000
1001
0000
,
1000
0000
0100
0000
,
0001
0000
0100
0000
,
1000
0000
0010
0000
,
0001
0000
0010
0000
,
1000
0000
0100
0000
,
0001
0000
0100
0000
,
1000
1000
1000
1000
,
1000
0000
1001
0000
,
0010
0000
0000
0000
,
0010
0000
0000
0000
,
0100
0000
0000
0000
,
0100
0000
0000
0000
,
0001
0000
0001
0000
,
1000
0000
1000
0000
,
0010
0010
0010
0010
,
0020
0000
0030
0000
,
1001
0000
0000
0000
,
0000
0000
0000
0000
,
0001
1000
0001
0000
,
0100
0000
0100
0000
,
1001
0000
1001
0000
,
0010
0010
0010
0000
,
1000
0001
1000
0000
,
0100
0000
0100
0000
,
1000
0000
0010
0000
,
1000
1000
1000
0000
,
0001
0000
0010
0000
,
0001
0001
0001
0000
,
1000
0000
0100
0000
,
1000
1000
1000
0000
,
0001
0000
0100
0000
,
0001
0001
0001
0001
;
