#VERSION:0.83;
#TITLE:皆殺しのマジック;
#SUBTITLE:(feat. グミ);
#ARTIST:鬱P;
#TITLETRANSLIT:The magic of the massacre;
#SUBTITLETRANSLIT:(feat. GUMI);
#ARTISTTRANSLIT:Utsu-P;
#GENRE:Vocaloid Metal;
#ORIGIN:;
#CREDIT:;
#BANNER:The magic of the massacre.png;
#BACKGROUND:The magic of the massacre-bg.png;
#PREVIEWVID:;
#JACKET:The magic of the massacre-jacket.png;
#CDIMAGE:;
#DISCIMAGE:;
#LYRICSPATH:;
#CDTITLE:cdtitle.png;
#MUSIC:The magic of the massacre.ogg;
#OFFSET:-0.079180;
#SAMPLESTART:60.710751;
#SAMPLELENGTH:20.210600;
#SELECTABLE:YES;
#BPMS:0.000=95.000,
14.000=190.000;
#STOPS:14.000=0.947,
170.500=0.158,
171.000=0.158,
171.500=0.158,
172.500=0.158,
291.000=0.316,
323.000=1.263;
#DELAYS:;
#WARPS:;
#TIMESIGNATURES:0.000=4=4;
#TICKCOUNTS:0.000=4;
#COMBOS:0.000=1;
#SPEEDS:0.000=1.000=0.000=0;
#SCROLLS:0.000=1.000;
#FAKES:;
#LABELS:0.000=Song Start;
#BGCHANGES:;
#KEYSOUNDS:;
#ATTACKS:
;

//---------------dance-single - ----------------
#NOTEDATA:;
#CHARTNAME:;
#STEPSTYPE:dance-single;
#DESCRIPTION:;
#CHARTSTYLE:;
#DIFFICULTY:Hard;
#METER:13;
#RADARVALUES:0.716161,0.795072,0.539331,0.167988,0.030945,567.000000,506.000000,61.000000,19.000000,0.000000,0.000000,0.000000,0.000000,0.000000,0.716161,0.795072,0.539331,0.167988,0.030945,567.000000,506.000000,61.000000,19.000000,0.000000,0.000000,0.000000,0.000000,0.000000;
#CREDIT:;
#OFFSET:-0.079180;
#BPMS:0.000000=95.000000
,14.000000=190.000000
;
#STOPS:14.000000=0.947369
,170.500000=0.157893
,171.000000=0.157893
,171.500000=0.157893
,172.500000=0.157893
,291.000000=0.315791
,323.000000=1.263164
;
#DELAYS:;
#WARPS:;
#TIMESIGNATURES:0.000000=4=4
;
#TICKCOUNTS:0.000000=4
;
#COMBOS:0.000000=1
;
#SPEEDS:0.000000=1.000000=0.000000=0
;
#SCROLLS:0.000000=1.000000
;
#FAKES:;
#LABELS:0.000000=Song Start
;
#NOTES:
// measure 0
0000
0000
0000
0000
,  // measure 1
0000
0000
0000
0000
0000
0000
0000
0000
0000
0000
0000
0000
0000
1000
0010
1000
,  // measure 2
0010
0000
0000
0110
0000
0000
1010
0000
0001
0000
0000
0000
0000
0001
0010
0001
,  // measure 3
0010
0000
0100
0010
0000
0000
0001
1000
0001
0000
0000
0000
1001
0000
0000
0000
,  // measure 4
0010
1000
0001
1000
0100
0000
0010
0001
,  // measure 5
1000
0001
0100
0000
0110
0000
1001
0000
,  // measure 6
0100
0001
1000
0001
0010
0000
0100
1000
,  // measure 7
0001
1000
0010
0000
1000
0100
0010
0001
,  // measure 8
0100
0000
0100
0001
0010
0000
0100
1000
,  // measure 9
0010
0000
0010
1000
0100
0000
0010
0001
,  // measure 10
1000
0010
1000
0001
0010
0001
0200
0000
,  // measure 11
2300
3200
0302
0013
,  // measure 12
0001
0010
1000
0010
0001
0000
1000
0100
,  // measure 13
0001
0100
1000
0000
1100
0000
0101
0000
,  // measure 14
1000
0010
0001
0010
1000
0000
0001
0100
,  // measure 15
1000
0100
0001
0000
1000
0010
1000
0100
,  // measure 16
0001
0000
0001
0100
1000
0001
0000
0001
,  // measure 17
0100
0000
0100
1000
0100
0001
0100
0000
,  // measure 18
0010
1000
0000
0001
0010
1000
0020
0000
,  // measure 19
0032
0000
0103
0100
0010
0010
1000
0100
,  // measure 20
1000
0100
0000
0110
0000
0001
0000
1000
,  // measure 21
0010
1000
0000
0100
0010
0000
0001
0100
,  // measure 22
0001
0100
0000
0110
0000
1000
0000
0001
,  // measure 23
0010
0001
0000
0100
0010
0000
1000
0100
,  // measure 24
0010
0001
0000
1100
0000
0001
0000
1000
,  // measure 25
0010
0100
0000
0010
1000
0000
0001
0010
,  // measure 26
0100
1000
0000
1001
0000
0001
1000
0010
,  // measure 27
1010
0000
0001
0010
0011
0000
1000
1000
,  // measure 28
0100
0010
0001
0100
1000
0100
0001
0001
,  // measure 29
0100
0010
1000
0100
0001
0100
1000
1000
,  // measure 30
0001
0100
0001
0010
1000
0010
0001
0100
,  // measure 31
0110
0000
1000
0100
0110
0000
0001
0001
,  // measure 32
0100
0010
0001
1000
0100
0010
1000
1000
,  // measure 33
0100
0010
1000
0001
0100
0010
0001
0001
,  // measure 34
1000
0010
0001
1000
0100
0001
0010
0100
,  // measure 35
0110
0000
1000
0010
0100
0001
2000
0100
,  // measure 36
3100
0020
0100
0130
1000
0100
0000
1000
,  // measure 37
0100
0010
0001
0100
0010
1000
0002
0100
,  // measure 38
0103
0020
0100
0130
0001
0100
0000
0001
,  // measure 39
0100
0010
1000
0100
0010
0001
2000
0010
,  // measure 40
3010
0200
0001
0301
1000
0100
0000
0010
,  // measure 41
0100
1000
0001
0100
0010
1000
2010
0020
,  // measure 42
3030
0012
0020
0033
1001
1001
0110
1001
,  // measure 43
0110
0011
1010
0011
,  // measure 44
1010
0000
0010
1000
0010
1000
0100
0000
,  // measure 45
1000
1010
0011
1010
,  // measure 46
0011
0000
0010
0001
0010
0001
0100
0000
,  // measure 47
0001
0000
1000
0100
1000
0010
1000
0000
,  // measure 48
0001
0100
0001
0010
0001
0000
1000
0000
,  // measure 49
0001
0100
1000
0000
1100
0000
0110
0000
,  // measure 50
0101
0000
0001
0100
0010
1000
0100
0010
,  // measure 51
0001
0011
1010
0101
,  // measure 52
1100
0000
1000
0100
0001
0100
1000
0000
,  // measure 53
0100
0011
1010
0101
,  // measure 54
1100
0000
0001
0100
1000
0100
0001
0000
,  // measure 55
0100
0000
0010
1000
0100
0010
0001
0000
,  // measure 56
0010
0001
0100
0010
1000
0000
0001
0000
,  // measure 57
1000
0100
0001
0000
0101
0000
0110
0000
,  // measure 58
1100
0000
1000
0100
0010
0000
0010
0100
,  // measure 59
1000
0010
0110
0000
1010
0000
1000
0010
,  // measure 60
0001
0010
0100
0000
0100
0010
1000
0001
,  // measure 61
0010
0100
0110
0000
0011
0000
0001
0010
,  // measure 62
1000
0010
0100
0000
0100
0010
0001
1000
,  // measure 63
0010
0100
0210
0000
0301
0100
0010
0100
,  // measure 64
0010
0100
1000
0000
1100
0000
0110
0000
,  // measure 65
0101
0000
0001
0010
0100
1000
0001
0000
,  // measure 66
0010
0000
0001
0100
0010
1000
0010
1000
,  // measure 67
0100
0010
0011
0000
0001
0100
1000
0100
,  // measure 68
0000
0100
1000
0001
0010
1000
0001
0100
,  // measure 69
0010
1000
1010
0000
1000
0100
0001
0100
,  // measure 70
0000
0100
0001
1000
0010
0001
0100
0010
,  // measure 71
0100
0001
1001
0000
1000
0100
0001
0100
,  // measure 72
1000
0001
0100
0000
0001
1000
0110
0000
,  // measure 73
1001
0000
1000
0100
0010
0100
0001
0000
,  // measure 74
0001
0100
0010
0100
1000
0000
0001
0100
,  // measure 75
0010
0000
1000
0010
0100
0010
0001
0000
,  // measure 76
0001
0010
0100
0010
1000
0000
0010
1000
,  // measure 77
0100
0000
0001
0100
1000
0010
0001
0000
,  // measure 78
1000
0100
0001
0010
1000
0000
0110
0000
,  // measure 79
1001
0000
0001
0100
0010
1000
0100
0010
,  // measure 80
0001
0100
1000
0100
0001
0100
1000
0000
,  // measure 81
2002
0000
0000
3003
;

//---------------dance-single - ----------------
#NOTEDATA:;
#CHARTNAME:;
#STEPSTYPE:dance-single;
#DESCRIPTION:;
#CHARTSTYLE:;
#DIFFICULTY:Medium;
#METER:10;
#RADARVALUES:0.546910,0.654492,0.557014,0.601222,0.008841,433.000000,370.000000,63.000000,68.000000,0.000000,0.000000,0.000000,0.000000,0.000000,0.546910,0.654492,0.557014,0.601222,0.008841,433.000000,370.000000,63.000000,68.000000,0.000000,0.000000,0.000000,0.000000,0.000000;
#CREDIT:;
#OFFSET:-0.079180;
#BPMS:0.000000=95.000000
,14.000000=190.000000
;
#STOPS:14.000000=0.947369
,293.000000=0.315791
,325.000000=1.263164
;
#DELAYS:;
#WARPS:;
#TIMESIGNATURES:0.000000=4=4
;
#TICKCOUNTS:0.000000=4
;
#COMBOS:0.000000=1
;
#SPEEDS:0.000000=1.000000=0.000000=0
;
#SCROLLS:0.000000=1.000000
;
#FAKES:;
#LABELS:0.000000=Song Start
;
#NOTES:
// measure 0
0000
0000
0000
0000
,  // measure 1
0000
0000
0000
0000
,  // measure 2
1010
0000
0000
1010
0000
0000
1010
0000
0001
0000
0000
0000
0001
0000
0000
0000
,  // measure 3
0011
0000
0000
1100
0000
0000
0011
0000
0011
0000
0000
0000
0002
0000
0000
0000
,  // measure 4
0010
1003
2000
0100
,  // measure 5
3001
0000
0001
0100
0001
0000
2000
0000
,  // measure 6
0010
3001
0002
0100
,  // measure 7
1003
0000
1000
0100
1000
0000
0010
0000
,  // measure 8
0010
0000
0100
0001
1000
0001
0100
0000
,  // measure 9
0100
0000
0010
1000
0001
1000
0020
0000
,  // measure 10
0030
2001
0000
3000
0100
0010
0001
0000
,  // measure 11
0011
0110
1100
2000
,  // measure 12
0100
0001
3020
0001
,  // measure 13
0100
0000
1030
0010
1000
0000
0002
0000
,  // measure 14
0100
1000
0023
1000
,  // measure 15
0100
0000
0031
0010
0001
0000
0010
0000
,  // measure 16
0010
0000
0100
1000
0001
1000
0100
0000
,  // measure 17
0100
0000
0010
0001
1000
0001
0020
0000
,  // measure 18
0030
1002
0000
0003
0100
0010
0100
0000
,  // measure 19
0110
0000
1000
0001
1000
0000
0001
0010
,  // measure 20
0000
0110
0000
0010
0000
0011
0000
1000
,  // measure 21
0000
1001
0000
0010
1000
0000
1000
0010
,  // measure 22
0000
0110
0000
0010
0000
1010
0000
0001
,  // measure 23
0000
1001
0000
0001
0010
0000
0100
1000
,  // measure 24
0000
1100
0000
0100
0000
0101
0000
0001
,  // measure 25
0000
1001
0000
1000
0010
0000
0100
0001
,  // measure 26
0000
0101
0000
0100
0000
1100
0000
1000
,  // measure 27
0010
1000
0000
0001
0010
0000
0001
0100
,  // measure 28
0001
0000
0201
0000
0310
0000
1000
0100
,  // measure 29
1000
0000
1200
0000
0310
0000
0001
0100
,  // measure 30
0001
0000
0201
0000
0310
0000
1000
0100
,  // measure 31
0010
0000
0001
0100
0010
0000
1000
0001
,  // measure 32
1000
0000
0102
0000
0013
0000
0001
1000
,  // measure 33
0001
0000
2100
0000
3010
0000
1000
0001
,  // measure 34
1000
0000
0102
0000
0013
0000
0001
0100
,  // measure 35
0010
0000
1000
0100
0010
0000
0022
0000
,  // measure 36
0033
2002
0000
3003
0001
0010
0000
0000
,  // measure 37
0001
0100
0010
2020
,  // measure 38
3030
2002
0000
3003
1000
0010
0000
0000
,  // measure 39
1000
0001
0010
2200
,  // measure 40
3300
2002
0000
3003
1000
0100
0000
0000
,  // measure 41
0010
0000
0001
0000
0100
0000
0001
0010
,  // measure 42
0000
1000
0010
0000
0001
0010
0000
1001
,  // measure 43
0000
1001
0000
1001
0000
0000
2000
0000
,  // measure 44
3020
0000
0230
0000
0302
0000
1003
0100
,  // measure 45
1000
0100
1000
0000
1100
0000
0002
0000
,  // measure 46
0023
0000
0230
0000
2300
0000
3001
0100
,  // measure 47
0001
0100
0001
0000
0101
0000
1000
0000
,  // measure 48
0010
1000
0001
0000
0001
0000
1000
0001
,  // measure 49
0010
0000
0001
0000
0010
0001
1000
0000
,  // measure 50
0002
0203
0320
2030
,  // measure 51
3200
0000
0310
0001
1000
0000
0002
0000
,  // measure 52
0203
0000
2300
0000
3200
0000
0301
0100
,  // measure 53
0001
0100
0001
0000
0110
0000
2000
0000
,  // measure 54
3200
0000
0302
0000
0203
0000
1300
0100
,  // measure 55
1000
0100
1000
0000
0110
0000
0001
0000
,  // measure 56
0010
0001
1000
0000
1000
0000
0001
1000
,  // measure 57
0010
0000
1000
0000
0010
1000
0001
0000
,  // measure 58
2000
3200
0302
0023
,  // measure 59
0000
1030
0100
0011
,  // measure 60
0101
0000
1000
0010
0000
2000
0000
0000
,  // measure 61
3100
1000
0010
1010
,  // measure 62
1100
0000
0001
0010
0000
0002
0000
0000
,  // measure 63
0103
0001
0010
1001
,  // measure 64
0000
1000
0001
1000
0000
0020
0000
0030
,  // measure 65
0100
0000
0001
0000
1000
0000
0100
0010
,  // measure 66
0000
1100
0000
0010
0000
0101
0000
0010
,  // measure 67
0100
0110
1001
0002
,  // measure 68
0100
0000
1000
1000
0000
0020
0033
0000
,  // measure 69
0001
0010
0100
2000
,  // measure 70
0100
0000
0001
0001
0000
0020
3030
0000
,  // measure 71
1000
0000
0010
0100
0010
0000
1001
0000
,  // measure 72
0001
0000
1000
0001
1000
0001
1000
0000
,  // measure 73
0100
1001
0002
0100
,  // measure 74
1000
0000
0013
0000
0001
0010
0001
0000
,  // measure 75
0110
0000
1000
0010
2000
0000
0100
0000
,  // measure 76
0001
0000
3010
0000
1000
0010
1000
0000
,  // measure 77
0110
0000
0001
0010
0002
0000
0100
0000
,  // measure 78
0010
0000
0103
0000
1001
0000
0100
0010
,  // measure 79
0100
1001
2000
0100
,  // measure 80
0010
3100
1100
0011
,  // measure 81
0101
1010
2002
0000
,  // measure 82
0000
3003
0000
0000
;

//---------------dance-single - ----------------
#NOTEDATA:;
#CHARTNAME:;
#STEPSTYPE:dance-single;
#DESCRIPTION:;
#CHARTSTYLE:;
#DIFFICULTY:Easy;
#METER:7;
#RADARVALUES:0.348608,0.509049,0.167988,0.150305,0.000000,276.000000,257.000000,19.000000,17.000000,0.000000,0.000000,0.000000,0.000000,0.000000,0.348608,0.509049,0.167988,0.150305,0.000000,276.000000,257.000000,19.000000,17.000000,0.000000,0.000000,0.000000,0.000000,0.000000;
#CREDIT:;
#OFFSET:-0.079180;
#BPMS:0.000000=95.000000
,14.000000=190.000000
;
#STOPS:14.000000=0.947369
,293.000000=0.315791
,325.000000=1.263164
;
#DELAYS:;
#WARPS:;
#TIMESIGNATURES:0.000000=4=4
;
#TICKCOUNTS:0.000000=4
;
#COMBOS:0.000000=1
;
#SPEEDS:0.000000=1.000000=0.000000=0
;
#SCROLLS:0.000000=1.000000
;
#FAKES:;
#LABELS:0.000000=Song Start
;
#NOTES:
// measure 0
0000
0000
0000
0000
,  // measure 1
0000
0000
0000
0000
,  // measure 2
1000
0100
0010
0001
,  // measure 3
0100
0100
1001
0001
,  // measure 4
0000
0010
0001
0000
,  // measure 5
0001
0100
0010
1000
,  // measure 6
0000
0010
1000
0000
,  // measure 7
1000
0100
0010
0001
,  // measure 8
0001
0100
0000
1000
,  // measure 9
1000
0100
0000
0001
,  // measure 10
0000
0001
0000
0010
,  // measure 11
0001
0010
0100
1000
,  // measure 12
0000
0100
0001
0000
,  // measure 13
0001
0100
1000
0001
,  // measure 14
0000
0100
1000
0000
,  // measure 15
1000
0100
0001
1000
,  // measure 16
1000
0010
0000
0001
,  // measure 17
0001
0010
0000
1000
,  // measure 18
0000
1000
0000
0100
,  // measure 19
0010
0001
0001
1000
,  // measure 20
0000
1000
0000
1000
,  // measure 21
0010
0100
0000
0001
,  // measure 22
0000
0001
0000
0010
,  // measure 23
0100
1000
0000
0001
,  // measure 24
0100
0001
0000
1000
,  // measure 25
0100
1000
0000
0001
,  // measure 26
0100
0010
1000
0000
,  // measure 27
0110
0000
1001
0001
,  // measure 28
0010
0200
0000
1300
,  // measure 29
0010
0200
0000
0301
,  // measure 30
0010
0200
0000
0310
,  // measure 31
1001
0100
1001
1000
,  // measure 32
0010
0002
0000
0013
,  // measure 33
1000
0002
0000
1003
,  // measure 34
0100
0002
0000
0103
,  // measure 35
0101
0100
1100
1000
,  // measure 36
0010
0100
0010
1000
,  // measure 37
0000
1000
0000
0001
,  // measure 38
0010
0100
0010
0001
,  // measure 39
0000
0001
0000
1000
,  // measure 40
0010
0100
0001
1000
,  // measure 41
0000
1000
0000
1001
,  // measure 42
0000
0110
0000
0000
1001
0000
0000
0001
,  // measure 43
0000
1000
0000
0001
0000
0000
1000
0000
,  // measure 44
1000
0100
0100
0010
,  // measure 45
0001
0100
0000
0001
,  // measure 46
0001
0100
0100
0010
,  // measure 47
1000
0100
0000
0010
,  // measure 48
0100
1000
0000
0010
,  // measure 49
0100
0001
0000
1000
,  // measure 50
0100
0010
0001
0100
,  // measure 51
1000
0100
0001
1000
,  // measure 52
1000
0010
0010
0001
,  // measure 53
0010
1000
0000
0001
,  // measure 54
0001
0010
0010
1000
,  // measure 55
0010
0001
0000
0010
,  // measure 56
0001
0100
0000
0010
,  // measure 57
1000
0100
0000
0010
,  // measure 58
0001
0100
0010
1000
,  // measure 59
0000
1000
0100
0001
,  // measure 60
0100
0001
0100
1000
,  // measure 61
0000
0001
0100
1000
,  // measure 62
0100
1000
0100
0001
,  // measure 63
0000
1000
0100
0010
,  // measure 64
0000
0001
0100
0010
,  // measure 65
1000
0001
0000
1000
,  // measure 66
1000
0001
0001
1000
,  // measure 67
0100
0010
0001
0200
,  // measure 68
0000
0000
1000
0000
0000
0001
0000
0000
,  // measure 69
0310
0010
1000
0200
,  // measure 70
0000
0000
0001
0000
0000
2000
0000
0000
,  // measure 71
3300
1000
0010
0001
,  // measure 72
0000
0001
0010
1000
,  // measure 73
0010
1001
1000
0010
,  // measure 74
0001
0010
0000
0200
,  // measure 75
0320
2030
3001
0010
,  // measure 76
1000
0010
0000
0200
,  // measure 77
0320
0032
0103
1000
,  // measure 78
0100
0001
0000
1001
,  // measure 79
0110
1001
1000
0100
,  // measure 80
0010
0001
0101
1100
,  // measure 81
0101
1100
2002
0000
,  // measure 82
0000
3003
0000
0000
;

//---------------dance-single - ----------------
#NOTEDATA:;
#CHARTNAME:;
#STEPSTYPE:dance-single;
#DESCRIPTION:;
#CHARTSTYLE:;
#DIFFICULTY:Beginner;
#METER:4;
#RADARVALUES:0.247562,0.310337,0.106098,0.106098,0.000000,196.000000,184.000000,12.000000,12.000000,0.000000,0.000000,0.000000,0.000000,0.000000,0.247562,0.310337,0.106098,0.106098,0.000000,196.000000,184.000000,12.000000,12.000000,0.000000,0.000000,0.000000,0.000000,0.000000;
#CREDIT:;
#OFFSET:-0.079180;
#BPMS:0.000000=190.000000
;
#STOPS:;
#DELAYS:;
#WARPS:;
#TIMESIGNATURES:0.000000=4=4
;
#TICKCOUNTS:0.000000=4
;
#COMBOS:0.000000=1
;
#SPEEDS:0.000000=1.000000=0.000000=0
;
#SCROLLS:0.000000=1.000000
;
#FAKES:;
#LABELS:0.000000=Song Start
;
#NOTES:
// measure 0
0000
0000
0000
0000
,  // measure 1
0000
0000
0000
0000
,  // measure 2
0000
0000
0000
0000
,  // measure 3
0000
0000
0000
0000
,  // measure 4
1000
0000
0000
0000
,  // measure 5
0001
0000
0000
0000
,  // measure 6
1000
0000
0000
0000
,  // measure 7
1001
0000
0000
0000
,  // measure 8
0001
0000
0001
0000
,  // measure 9
0010
0000
0010
0000
,  // measure 10
0001
0000
0001
0000
,  // measure 11
0100
0000
0100
0000
,  // measure 12
0001
0001
0001
0000
,  // measure 13
0001
0001
0001
0000
,  // measure 14
1000
0000
1000
0000
,  // measure 15
0001
1000
0001
0000
,  // measure 16
1000
0000
1000
0000
,  // measure 17
0010
0000
0010
0000
,  // measure 18
1000
0000
1000
0000
,  // measure 19
0100
0000
0100
0000
,  // measure 20
1000
1000
1000
0000
,  // measure 21
1000
1000
1000
0000
,  // measure 22
0001
0000
0001
0000
,  // measure 23
1000
0001
1000
0000
,  // measure 24
0010
0000
0010
0000
,  // measure 25
1000
0000
1000
0000
,  // measure 26
0001
0000
0001
0000
,  // measure 27
0010
0000
0010
0000
,  // measure 28
0001
0000
1000
0000
,  // measure 29
0001
0000
1000
0000
,  // measure 30
0020
0000
0030
0000
,  // measure 31
1001
0000
1001
0000
,  // measure 32
0001
0001
0002
0003
,  // measure 33
0010
0010
0020
0030
,  // measure 34
0001
0001
0002
0003
,  // measure 35
1001
0000
1001
0000
,  // measure 36
1000
1000
2000
3000
,  // measure 37
0010
0010
0020
0030
,  // measure 38
1000
1000
2000
3000
,  // measure 39
1001
0000
1001
0000
,  // measure 40
1000
0000
0100
0000
,  // measure 41
1000
0000
0000
0000
,  // measure 42
0001
0000
0100
0000
,  // measure 43
0001
0000
0000
0000
,  // measure 44
1000
0000
0010
0000
,  // measure 45
1000
0000
0000
0000
,  // measure 46
2002
0000
0000
0000
3000
0000
0000
0003
,  // measure 47
0000
0000
0000
0000
,  // measure 48
1000
0000
0010
0000
,  // measure 49
1000
0010
1000
0000
,  // measure 50
0001
0000
0010
0000
,  // measure 51
0001
0010
0001
0000
,  // measure 52
1000
0000
1000
0000
,  // measure 53
0010
0010
0010
0000
,  // measure 54
1000
0000
0001
0000
,  // measure 55
0010
0100
0010
0000
,  // measure 56
0001
0000
0100
0000
,  // measure 57
0001
0100
0001
0000
,  // measure 58
1000
0000
0100
0000
,  // measure 59
1000
0100
1000
0000
,  // measure 60
0001
0000
0001
0000
,  // measure 61
0010
0010
0010
0000
,  // measure 62
0001
0000
1000
0000
,  // measure 63
0010
0000
1000
0000
,  // measure 64
0001
1000
0001
0000
,  // measure 65
0010
0000
0100
0000
,  // measure 66
1000
0001
1000
0000
,  // measure 67
0010
0000
0100
0000
,  // measure 68
0001
0000
1000
0001
,  // measure 69
1000
0000
0100
0000
,  // measure 70
0010
0010
0010
0020
,  // measure 71
0030
0000
0010
0000
,  // measure 72
1001
0000
0001
0000
,  // measure 73
0100
0000
0001
0000
,  // measure 74
1001
0000
1000
0000
,  // measure 75
0100
0000
1000
0000
,  // measure 76
1001
0000
0001
1000
,  // measure 77
0001
1000
0001
0000
,  // measure 78
1000
0000
0010
0000
,  // measure 79
0100
0000
0001
0001
,  // measure 80
0001
0000
0010
0000
,  // measure 81
0100
0000
1000
1000
,  // measure 82
1000
0000
0001
0000
,  // measure 83
0100
0000
0010
0100
,  // measure 84
0010
0000
0010
0000
,  // measure 85
1000
1000
0001
0001
,  // measure 86
0000
0000
0000
0000
,  // measure 87
2002
0000
0000
3003
;

//---------------dance-single - ----------------
#NOTEDATA:;
#CHARTNAME:;
#STEPSTYPE:dance-single;
#DESCRIPTION:;
#CHARTSTYLE:;
#DIFFICULTY:Challenge;
#METER:16;
#RADARVALUES:0.940988,1.084189,0.574697,0.362501,0.526069,745.000000,680.000000,65.000000,41.000000,0.000000,0.000000,0.000000,0.000000,0.000000,0.940988,1.084189,0.574697,0.362501,0.526069,745.000000,680.000000,65.000000,41.000000,0.000000,0.000000,0.000000,0.000000,0.000000;
#CREDIT:;
#OFFSET:-0.079180;
#BPMS:0.000000=95.000000
,14.000000=190.000000
;
#STOPS:14.000000=0.947369
,170.500000=0.157893
,171.000000=0.157893
,171.500000=0.157893
,172.500000=0.157893
,291.000000=0.315791
,323.000000=1.263164
;
#DELAYS:;
#WARPS:;
#TIMESIGNATURES:0.000000=4=4
;
#TICKCOUNTS:0.000000=4
;
#COMBOS:0.000000=1
;
#SPEEDS:0.000000=1.000000=0.000000=0
;
#SCROLLS:0.000000=1.000000
;
#FAKES:;
#LABELS:0.000000=Song Start
;
#NOTES:
// measure 0
0000
0000
0000
0000
,  // measure 1
0000
0000
0000
0000
0000
0000
0000
0000
0000
0000
0000
0000
0000
0100
0010
0100
,  // measure 2
1001
0000
0000
0000
0001
0010
0001
0000
0000
0000
1000
0010
1000
0000
0001
0000
0010
0000
0000
0000
0000
0000
0000
0000
0010
0000
0001
0000
0100
0000
0010
0000
,  // measure 3
1001
0000
0000
0000
0100
0000
1001
0000
0000
0000
1001
0000
1000
0001
1000
0001
1000
0000
0000
0000
0000
0000
0000
0000
2000
0000
0000
0000
0100
0000
0000
0000
,  // measure 4
3100
0000
0010
0100
1000
0000
0010
0000
2000
0000
0001
0000
3001
0000
2000
0000
,  // measure 5
0100
0000
3100
0010
0001
0000
0100
0000
0010
0000
1000
0000
0002
0000
0100
0000
,  // measure 6
0103
0000
0010
0100
0001
0000
0010
0000
0002
0000
1000
0000
1003
0000
0002
0000
,  // measure 7
0100
0000
0103
0010
1000
0000
0100
0000
0010
0100
0010
0100
1000
0000
0001
0000
,  // measure 8
1001
0000
0000
0001
0100
0000
0010
0000
0100
0000
0001
0000
0010
0000
0001
0000
,  // measure 9
1001
0000
0000
1000
0100
0000
0010
0000
0001
0000
0100
0000
0010
0000
1000
0000
,  // measure 10
1000
0000
0010
0000
0100
0000
0100
0000
0010
0000
1000
0000
0001
0000
0010
0001
,  // measure 11
1000
0000
0010
1000
0001
0000
0000
0000
0001
0010
0100
1000
0002
0000
0100
0000
,  // measure 12
0103
0000
0010
1000
0100
0000
0010
0000
0002
0000
0100
0000
0103
0000
2000
0000
,  // measure 13
0100
0000
3100
0010
0100
0000
0001
0000
0010
0000
0100
0000
2000
0000
0100
0000
,  // measure 14
3100
0000
0010
0001
0100
0000
0010
0000
2000
0000
0100
0000
3100
0000
0002
0000
,  // measure 15
0100
0000
0103
0010
0100
0000
1000
0000
0010
0100
0010
0100
0001
0000
1000
0000
,  // measure 16
1100
0000
0100
1000
0001
0101
0000
0001
,  // measure 17
0100
0000
0010
0000
0100
0001
0100
0001
1000
0100
1000
0100
0010
0000
0001
0000
,  // measure 18
0001
0000
0010
0000
1000
0000
1000
0000
0010
0000
0001
0000
0100
0000
0010
1000
,  // measure 19
0001
0000
0010
0001
1000
0000
0010
0000
0010
0000
0010
0000
1000
0000
0100
0000
,  // measure 20
1000
0100
0001
0100
0001
0100
1000
0100
,  // measure 21
0010
0001
0000
1000
0010
1000
0001
0100
,  // measure 22
0001
0100
1000
0100
1000
0100
0001
0100
,  // measure 23
0010
0000
1000
0000
0000
0000
1000
0000
0100
0000
0010
0001
1000
0000
0001
0100
,  // measure 24
0001
0000
0001
0000
1000
0100
1000
0100
1000
0000
0001
0100
0001
0100
0001
0100
,  // measure 25
0001
0000
1000
0000
0100
0000
0001
0000
0200
0000
0000
0000
1300
0000
0001
0100
,  // measure 26
0010
0100
0010
0100
0001
0000
1000
0000
0100
0000
0010
0000
0001
0100
0010
0000
,  // measure 27
0110
0000
0110
0000
0000
0000
1000
0010
1000
0010
1000
0001
0010
0000
0010
0000
,  // measure 28
0100
0000
1000
0000
0010
0100
0001
0100
0001
0100
0001
0100
0010
0000
0010
0000
,  // measure 29
0100
0000
0001
0000
0010
0100
1000
0100
1000
0100
1000
0100
0010
0000
0010
0000
,  // measure 30
0001
0000
0100
0000
0010
1000
0001
1000
0001
1000
0001
1000
0100
0000
0010
0000
,  // measure 31
0011
0001
0100
0010
1010
1000
0100
0100
,  // measure 32
0001
0000
0100
0000
0010
0001
1000
0001
1000
0001
1000
0001
0100
0000
0100
0000
,  // measure 33
1000
0000
0100
0000
0010
1000
0001
1000
0001
1000
0001
1000
0100
0000
0100
0000
,  // measure 34
0010
0000
1000
0000
0010
0001
1000
0001
1000
0001
1000
0001
0100
0010
0100
0000
,  // measure 35
1001
0000
0000
0000
1000
0100
1000
0100
0010
0001
0010
0001
2000
0000
0010
0000
,  // measure 36
0001
0000
3002
0000
0010
0000
1000
0000
1003
0000
0101
0000
0000
0000
0001
0100
,  // measure 37
0001
0010
0100
0001
0100
0010
0002
0010
,  // measure 38
1000
0000
2003
0000
0010
0000
0001
0000
3001
0000
1100
0000
0000
0000
1000
0100
,  // measure 39
1000
0010
0100
1000
0100
0010
0200
0001
,  // measure 40
0010
0000
0320
0000
1000
0000
0100
0000
0130
0000
1001
0000
0000
0000
0001
1000
,  // measure 41
0001
0010
1000
0010
0001
0100
1002
0010
,  // measure 42
0013
2001
0010
3010
1000
0100
0101
1100
,  // measure 43
0101
0011
1010
1100
,  // measure 44
0101
0000
1000
0100
1000
0010
1000
0001
,  // measure 45
1000
0000
0100
1000
0010
0000
0000
0000
0011
0000
0000
0000
0101
0000
0000
0000
,  // measure 46
1100
0000
0001
0100
0001
0010
0001
1000
,  // measure 47
0001
0000
0100
0001
0010
0000
0100
0000
1000
0000
0010
0000
0001
0000
0000
0000
,  // measure 48
0001
0010
0100
0010
1000
0000
0110
0010
,  // measure 49
1000
0000
0010
1000
0100
0000
0000
0000
0011
0000
0000
0000
0110
0000
0000
0000
,  // measure 50
0011
0000
0000
0000
0001
0000
1000
0010
0100
0000
0001
0010
0100
0000
1000
0001
,  // measure 51
0100
0010
0100
0010
1000
0000
0000
0000
1100
0000
0000
0000
0101
0000
0000
0000
,  // measure 52
0011
0000
0001
0010
1000
0001
0100
1000
,  // measure 53
0001
0000
0100
0001
0010
0000
0000
0000
0101
0000
0000
0000
1100
0000
0000
0000
,  // measure 54
1010
0000
1000
0010
0001
1000
0100
0001
,  // measure 55
1000
0000
0100
1000
0010
0000
0100
0000
0001
0000
0010
0000
1000
0000
0000
0000
,  // measure 56
1000
0010
0100
0010
0001
0000
0110
0010
,  // measure 57
0001
0000
0010
0001
0100
0000
0000
0000
1010
0000
0000
0000
0110
0000
0000
0000
,  // measure 58
1010
0000
0000
0000
1001
0000
0001
0000
0010
0000
0000
0010
0100
0000
1000
0001
,  // measure 59
1000
0001
0100
0010
2000
0000
0000
0000
3020
0000
0000
0000
0031
0000
0010
0000
,  // measure 60
1000
0200
0001
0000
0301
0100
0010
0100
,  // measure 61
1000
1000
0002
0000
0023
0000
1030
0010
,  // measure 62
0001
0200
1000
0000
1300
0100
0010
0010
,  // measure 63
1000
0100
0210
0000
1300
0001
0010
1000
,  // measure 64
0010
0001
0100
0000
1010
0000
0011
0000
,  // measure 65
1010
0000
0001
0100
1000
0100
0001
0000
,  // measure 66
0110
0000
0000
0000
0001
0000
0010
0000
0100
1000
0100
1000
0001
1000
0001
1000
,  // measure 67
0010
0100
0101
0000
0100
0001
1001
0001
,  // measure 68
0000
1001
0001
0010
1000
0001
0100
0010
,  // measure 69
0100
1000
1100
0000
0100
1000
1001
1000
,  // measure 70
0000
1001
1000
0010
0001
1000
0100
0010
,  // measure 71
0100
0001
1000
0100
0010
0000
0000
0000
0001
0000
0011
0000
0001
0000
1000
0000
,  // measure 72
1010
0000
1000
0000
1001
0000
0000
0000
0001
0010
0100
1000
0001
0000
0000
0000
,  // measure 73
2000
0000
0010
0000
3010
0000
0001
0010
0100
0000
0010
0000
2000
0000
0100
0000
,  // measure 74
3100
0000
0010
0000
0011
0000
0000
0001
0100
0000
1000
0000
1000
0000
0100
0000
,  // measure 75
0002
0000
0010
0000
0013
0000
1000
0010
0100
0000
0010
0000
0002
0000
0100
0000
,  // measure 76
0103
0000
0010
0000
1010
0000
0000
1000
0100
0000
0010
0000
0011
0000
0000
0001
,  // measure 77
0200
0000
1000
0000
1300
0000
0100
0010
1000
0000
0100
0000
0002
0000
0100
0000
,  // measure 78
0103
0010
0022
0033
2020
3030
0011
1001
,  // measure 79
2000
0000
0100
0000
3100
0000
0001
0100
0010
0000
0001
0000
0100
0000
0010
1000
,  // measure 80
0100
0000
0010
0001
0100
0000
0010
1000
0100
0010
0100
0010
0100
0000
0000
0000
,  // measure 81
2002
0000
0000
3003
;

//---------------dance-single - Beta----------------
#NOTEDATA:;
#CHARTNAME:Beta;
#STEPSTYPE:dance-single;
#DESCRIPTION:Beta;
#CHARTSTYLE:;
#DIFFICULTY:Edit;
#METER:15;
#RADARVALUES:0.857625,1.084189,0.503965,0.221037,0.344818,679.000000,622.000000,57.000000,25.000000,0.000000,0.000000,0.000000,0.000000,0.000000,0.857625,1.084189,0.503965,0.221037,0.344818,679.000000,622.000000,57.000000,25.000000,0.000000,0.000000,0.000000,0.000000,0.000000;
#CREDIT:;
#OFFSET:-0.079180;
#BPMS:0.000000=95.000000
,14.000000=190.000000
;
#STOPS:14.000000=0.947369
,170.500000=0.157893
,171.000000=0.157893
,171.500000=0.157893
,172.500000=0.157893
,291.000000=0.315791
,323.000000=1.263164
;
#DELAYS:;
#WARPS:;
#TIMESIGNATURES:0.000000=4=4
;
#TICKCOUNTS:0.000000=4
;
#COMBOS:0.000000=1
;
#SPEEDS:0.000000=1.000000=0.000000=0
;
#SCROLLS:0.000000=1.000000
;
#FAKES:;
#LABELS:0.000000=Song Start
;
#NOTES:
// measure 0
0000
0000
0000
0000
,  // measure 1
0000
0000
0000
0000
0000
0000
0000
0000
0000
0000
0000
0000
0000
0100
0010
0100
,  // measure 2
1001
0000
0000
0000
0001
0010
0001
0000
0000
0000
1000
0010
1000
0000
0001
0000
0010
0000
0000
0000
0000
0000
0000
0000
0010
0000
0001
0000
0100
0000
0010
0000
,  // measure 3
1001
0000
0000
0000
0100
0000
1001
0000
0000
0000
1001
0000
1000
0001
1000
0001
1000
0000
0000
0000
0000
0000
0000
0000
1000
0000
0000
0000
0010
0000
0000
0000
,  // measure 4
1000
0000
0001
0010
0001
0000
1000
0000
0001
0000
0100
0000
0001
0000
1000
0000
,  // measure 5
0100
0000
1000
0001
1000
0000
0001
0000
0100
0000
0000
0000
0001
0000
0010
0000
,  // measure 6
0001
0000
1000
0010
1000
0000
0001
0000
1000
0000
0100
0000
1000
0000
0001
0000
,  // measure 7
0100
0000
0001
1000
0001
0000
1000
0000
0100
0010
0100
0010
0100
0000
0010
0000
,  // measure 8
0001
0000
0000
0001
0100
0000
0010
0000
0100
0000
0001
0000
1000
0000
0100
0000
,  // measure 9
1000
0000
0000
1000
0100
0000
0010
0000
1000
0000
0010
0000
0001
0000
0100
0000
,  // measure 10
0100
0000
1000
0000
0100
0000
0100
0000
0001
0000
0010
0000
0001
0000
1000
0010
,  // measure 11
1000
0000
0010
0100
0010
0000
0000
0000
0100
0001
0100
0001
0100
0000
0001
0000
,  // measure 12
0010
0000
0100
1000
0100
0000
0010
0000
0001
0000
0100
0000
1000
0000
0100
0000
,  // measure 13
0001
0000
1000
0010
1000
0000
0100
0000
0010
0000
0000
0000
0100
0000
1000
0000
,  // measure 14
0010
0000
0100
0001
0100
0000
0010
0000
1000
0000
0100
0000
0001
0000
0100
0000
,  // measure 15
1000
0000
0001
0010
0001
0000
0100
0000
0010
0100
0010
0100
0010
0000
1000
0000
,  // measure 16
1010
0000
1000
0001
0010
0011
0000
0001
,  // measure 17
0100
0000
0010
0000
1000
0100
1000
0100
0010
0001
0010
0001
1000
0000
0010
0000
,  // measure 18
0010
0000
0001
0000
0010
0000
0010
0000
1000
0000
0100
0000
0010
0000
0001
0100
,  // measure 19
0001
0000
1000
0100
1000
0000
0001
0000
0001
0000
0001
0000
0100
0000
0010
0000
,  // measure 20
0010
0100
0000
0001
0100
1000
0000
1000
,  // measure 21
0100
0001
0000
0010
0110
0000
0100
0010
,  // measure 22
0010
0100
0000
1000
0100
0001
0000
0001
,  // measure 23
0100
0000
1000
0000
0000
0000
0010
0000
1001
0000
0000
1000
0001
0000
0100
0000
,  // measure 24
0100
0010
0000
1000
0010
0001
0000
0001
,  // measure 25
0010
1000
0000
1000
1001
0000
1000
0100
,  // measure 26
0100
0000
0010
0000
0000
0000
0001
0000
0010
0000
1000
0000
0010
0100
0010
0000
,  // measure 27
0001
0000
1001
0000
0000
0000
0001
1000
0010
1000
0010
1000
0001
0000
0001
0000
,  // measure 28
0010
0000
0100
0000
0020
0000
0001
0000
0130
0010
0100
0000
1000
0000
1000
0000
,  // measure 29
0010
0000
0100
0000
0020
0000
1000
0000
0130
0010
0100
0000
0001
0000
0001
0000
,  // measure 30
0010
0000
0100
0000
2000
0000
0100
0000
3001
1000
0001
0000
0100
0000
0010
0000
,  // measure 31
1001
0000
0100
0010
1001
0000
1000
1000
,  // measure 32
0100
0000
0001
0000
0200
0000
1000
0000
0310
0100
0010
0000
0001
0000
0001
0000
,  // measure 33
0100
0000
1000
0000
0200
0000
0001
0000
0310
0100
0010
0000
1000
0000
1000
0000
,  // measure 34
0100
0000
0010
0000
0002
0000
0100
0000
1003
0001
1000
0000
0100
0000
0010
0000
,  // measure 35
1001
0000
0000
0000
1000
0100
1000
0100
0010
0001
0010
0001
2000
0000
0010
0000
,  // measure 36
0010
3002
0010
0010
1003
1001
0000
1000
,  // measure 37
0010
0100
1000
0100
0010
1000
0002
0100
,  // measure 38
0100
2003
0100
0100
3001
1001
0000
0001
,  // measure 39
0010
0100
0001
0100
0010
0001
0200
0001
,  // measure 40
0001
0320
1000
1000
0130
1001
0000
0001
,  // measure 41
0100
1000
0100
0001
0010
0001
1002
0010
,  // measure 42
0013
2001
0010
3010
1000
0100
0101
1100
,  // measure 43
0101
0011
1010
1100
,  // measure 44
0101
0000
0001
0010
0001
0100
0001
1000
,  // measure 45
0100
0000
1000
0010
1000
0000
0000
0000
0011
0000
0000
0000
0101
0000
0000
0000
,  // measure 46
1100
0000
1000
0010
1000
0100
1000
0001
,  // measure 47
0100
0000
0001
0010
0001
0000
0100
0000
0010
0000
0100
0000
1000
0000
0000
0000
,  // measure 48
1000
0100
0010
0100
0001
0000
0110
0100
,  // measure 49
0001
0000
1000
0100
0010
0000
0000
0000
1100
0000
0000
0000
0011
0000
0000
0000
,  // measure 50
0110
0000
0000
0000
0001
0000
1000
0010
1000
0000
0001
0010
0001
0000
0100
0001
,  // measure 51
0100
0010
1010
0000
1100
0000
0101
0000
,  // measure 52
0011
0000
1000
0010
0001
0010
0100
0001
,  // measure 53
1000
0000
0100
0010
0001
0000
0000
0000
0101
0000
0000
0000
1100
0000
0000
0000
,  // measure 54
1010
0000
0001
0010
1000
0010
0100
1000
,  // measure 55
0001
0000
0100
0010
1000
0000
0100
0000
0010
0000
0100
0000
0001
0000
0000
0000
,  // measure 56
0001
0100
0010
0100
1000
0000
0110
0100
,  // measure 57
1000
0000
0001
0100
0010
0000
0000
0000
0101
0000
0000
0000
1010
0000
0000
0000
,  // measure 58
0110
0000
0000
0000
0001
0000
1000
0000
0100
0000
0000
0100
0010
0000
0001
0000
,  // measure 59
0100
0010
0100
0010
2000
0000
0000
0000
3020
0000
0000
0000
0031
0000
0010
0000
,  // measure 60
1000
0200
0001
0000
0310
0100
0010
0100
,  // measure 61
1000
0000
0002
0000
0023
0000
1030
0010
,  // measure 62
0001
0200
1000
0000
0310
0100
0010
0100
,  // measure 63
0001
1000
0200
0000
0310
0001
0100
1000
,  // measure 64
0100
0001
0010
0000
0011
0000
0110
0000
,  // measure 65
1100
0000
0001
0100
1000
0100
0001
0000
,  // measure 66
0110
0000
0000
0000
0001
0000
0010
0000
0100
1000
0100
0000
1000
0001
1000
0000
,  // measure 67
0010
0100
0101
0000
0100
0100
0010
1001
,  // measure 68
0000
0001
0010
0100
0001
1000
0010
0100
,  // measure 69
1000
0001
1001
0000
0010
0010
0100
1001
,  // measure 70
0000
1000
0010
0100
1000
0001
0010
0100
,  // measure 71
0001
1000
0001
1000
0001
0000
0000
0000
1000
0000
0100
0000
0001
0000
0100
0000
,  // measure 72
1000
0000
0010
0000
0001
0000
0000
0000
0010
0100
0010
0100
0010
0000
0000
0000
,  // measure 73
1000
0000
0010
0000
0100
0000
0001
0010
0100
0000
0010
0000
0001
0000
0100
0000
,  // measure 74
1000
0100
0110
0000
0101
0000
0010
1000
,  // measure 75
0001
0000
0010
0000
0100
0000
1000
0010
0100
0000
0010
0000
1000
0000
0100
0000
,  // measure 76
0001
0100
0110
0000
1100
0000
0001
0010
,  // measure 77
1000
0000
0010
0000
0001
0000
0100
0010
0100
0000
1000
0000
0001
0000
0010
0000
,  // measure 78
1000
0100
0210
0000
0001
0000
1000
1300
,  // measure 79
0001
0000
0100
0000
1000
0000
0100
0010
0100
0000
0001
0000
0010
0000
0001
1000
,  // measure 80
0010
0000
1000
0001
0010
0000
0001
1000
0020
0000
0000
0000
0130
0000
0000
0000
,  // measure 81
2002
0000
0000
3003
;
