#VERSION:0.83;
#TITLE:Tantanmen;
#SUBTITLE:;
#ARTIST:Memme;
#TITLETRANSLIT:;
#SUBTITLETRANSLIT:;
#ARTISTTRANSLIT:;
#GENRE:Asian Techno;
#ORIGIN:;
#CREDIT:;
#BANNER:Tantanmen.png;
#BACKGROUND:Tantanmen-bg.png;
#PREVIEWVID:;
#JACKET:Tantanmen-jacket.png;
#CDIMAGE:;
#DISCIMAGE:;
#LYRICSPATH:;
#CDTITLE:cdtitle.png;
#MUSIC:Tantanmen.ogg;
#OFFSET:0.909515;
#SAMPLESTART:12.063457;
#SAMPLELENGTH:10.378380;
#SELECTABLE:YES;
#BPMS:0.000=185.000,
204.000=92.500,
218.000=185.000;
#STOPS:;
#DELAYS:;
#WARPS:;
#TIMESIGNATURES:0.000=4=4;
#TICKCOUNTS:0.000=4;
#COMBOS:0.000=1;
#SPEEDS:0.000=1.000=0.000=0;
#SCROLLS:0.000=1.000;
#FAKES:;
#LABELS:0.000=Song Start;
#BGCHANGES:3.813=Tantanmen.avi=1.000=1=0=0=StretchNoLoop==CrossFade==,
99999=-nosongbg-=1.000=0=0=0 // don't automatically add -songbackground-
;
#KEYSOUNDS:;
#ATTACKS:
;

//---------------dance-single - ----------------
#NOTEDATA:;
#CHARTNAME:;
#STEPSTYPE:dance-single;
#DESCRIPTION:;
#CHARTSTYLE:;
#DIFFICULTY:Challenge;
#METER:18;
#RADARVALUES:1.087627,1.187905,0.935925,0.323974,0.913427,846.000000,742.000000,104.000000,36.000000,20.000000,0.000000,0.000000,0.000000,0.000000,1.087627,1.187905,0.935925,0.323974,0.913427,846.000000,742.000000,104.000000,36.000000,20.000000,0.000000,0.000000,0.000000,0.000000;
#CREDIT:;
#NOTES:
// measure 0
0000
0000
0000
0000
,  // measure 1
0000
0000
0000
0000
,  // measure 2
0000
0000
0000
0000
,  // measure 3
0000
0000
0000
0000
,  // measure 4
0000
0000
0000
0000
,  // measure 5
0000
0000
0000
0000
,  // measure 6
0002
0000
0000
0000
0000
0000
0013
0001
1000
0000
0010
0000
0100
0000
0010
0000
,  // measure 7
1000
0000
0001
1000
0100
0000
0010
0000
0200
0000
0000
0000
1300
0000
0001
0000
,  // measure 8
0200
0000
0000
0000
0310
0000
1000
0001
0020
0000
0000
0000
0031
1000
0010
0000
,  // measure 9
0100
0000
0000
0100
0010
0000
0100
0010
1000
0001
1000
0000
0100
0000
0010
0000
,  // measure 10
0011
0000
0010
0001
1001
0000
1000
0001
,  // measure 11
0101
1000
1001
1010
0110
0000
0101
0000
,  // measure 12
1000
0000
0010
1000
0100
0000
0010
0000
0002
0000
0100
0000
1003
0000
2100
0000
,  // measure 13
0001
0000
3010
0000
0102
0000
1000
0000
0013
0000
0001
1000
0001
0000
0100
0000
,  // measure 14
1010
0000
0010
1000
1001
0000
1000
0100
,  // measure 15
1100
0001
1001
0011
0110
0000
0001
1000
,  // measure 16
0010
0000
0001
0010
0001
0000
1000
0000
0100
0000
0001
0000
0010
0000
0110
0000
,  // measure 17
0000
0000
0100
0010
0100
1000
0001
1000
0010
0100
0010
0100
0001
1000
0100
0010
,  // measure 18
0001
0000
0100
0000
0110
0000
0010
1000
0001
0000
0001
1000
0010
0000
0010
1000
,  // measure 19
0001
0010
0001
0010
0100
0000
0010
0001
0100
0000
0100
0000
0010
1000
0100
0000
,  // measure 20
0010
0000
0100
0000
0110
0000
0010
0001
1000
0000
1000
0001
0010
0000
0010
0001
,  // measure 21
1000
0010
1000
0010
0100
0000
0010
1000
0001
0010
0001
0010
0100
0000
0010
0000
,  // measure 22
0001
0000
0100
0000
0110
0000
0100
0001
1000
0000
1000
0001
0100
0000
0100
0001
,  // measure 23
0010
0000
0100
1000
0010
0000
0100
0000
0001
0000
0100
0000
0001
0000
0011
0000
,  // measure 24
0000
1010
1000
0100
0001
0100
1000
1001
,  // measure 25
0000
0000
1000
0000
0010
0000
0100
0000
0001
0010
0001
0010
0100
1000
0001
0000
,  // measure 26
0100
0000
0010
0000
1010
0000
1000
0100
0001
0000
0001
0100
1000
0000
1000
0100
,  // measure 27
0010
0001
0100
0010
1000
0000
0100
1000
0010
0000
0010
0000
0100
0001
0010
0000
,  // measure 28
0100
0000
0010
0000
0011
0000
0001
0100
1000
0000
1000
0100
0001
0000
0001
0100
,  // measure 29
0010
1000
0100
0010
0001
0000
0100
0001
0010
0001
0010
0100
1000
0000
0001
0000
,  // measure 30
0100
0000
0010
0000
1010
0000
1000
0010
0001
0000
0001
0010
1000
0000
1000
0100
,  // measure 31
0001
0000
0001
0100
0010
0100
1000
0000
0001
0000
1000
0010
0100
0000
0010
0000
,  // measure 32
1010
0000
0000
0100
0001
0000
0010
0000
0011
0000
0100
1000
0010
0000
0120
0000
,  // measure 33
0000
0000
0031
0000
0010
0000
1000
0000
0100
0000
0001
0100
1000
0000
1200
0000
,  // measure 34
0000
0000
0310
0000
0011
0000
0000
0000
0010
0000
0100
0000
1000
0001
1000
0000
,  // measure 35
1010
0010
0110
0100
0110
0010
2010
0001
,  // measure 36
3100
0100
1100
1001
0101
0001
1000
0001
,  // measure 37
0011
0010
0110
0100
0110
0010
0012
1000
,  // measure 38
0103
0000
0100
0000
1010
0000
1001
0000
0011
0000
0001
1000
0001
0000
0100
0000
,  // measure 39
0110
0010
1010
1000
1001
0001
0021
0100
,  // measure 40
0031
0001
0101
1001
1200
1000
0310
0012
,  // measure 41
0000
0000
1003
0010
0100
0000
0001
0010
0100
0000
1000
0000
0010
0000
1000
0000
,  // measure 42
0100
0000
0010
0001
0100
0010
1000
0100
0020
0000
0000
0000
0031
0000
0100
0000
,  // measure 43
1010
0000
1000
0100
0011
0000
0001
0100
,  // measure 44
1010
0001
0011
1100
0101
0000
0110
0000
,  // measure 45
0001
0000
0010
0001
0100
0000
0010
0000
2000
0000
0100
0000
3001
0000
0102
0000
,  // measure 46
1000
0000
0013
0000
2100
0000
0001
0000
3010
0000
1000
0001
1000
0000
0100
0000
,  // measure 47
1100
0000
1000
0010
0101
0000
0001
0010
,  // measure 48
1100
0001
0101
1010
0011
0000
1000
0001
,  // measure 49
0010
0000
1000
0010
1000
0000
0001
0000
0100
0000
1000
0000
0010
0000
0110
0000
,  // measure 50
0000
0000
0100
0010
0100
0001
1000
0001
0010
0100
0010
0100
1000
0001
0100
0010
,  // measure 51
2000
0000
0000
0000
0000
0000
3001
0100
0010
0000
0100
0000
0001
0000
0010
0000
0100
0000
0001
0000
0100
0000
0010
0000
0002
0000
0000
0000
1003
0000
0010
0000
,  // measure 52
1010
0000
0000
0100
0001
0000
0010
0000
0011
0000
0000
0000
1000
0000
0010
0000
0101
0000
0000
0000
0001
0000
0010
0000
2200
0000
0000
0000
3300
0000
0000
0000
,  // measure 53
0002
0000
0000
0000
0000
0000
1003
0100
0010
0000
0100
0000
1000
0000
0010
0000
0100
0000
1000
0100
1000
0000
0100
0000
0020
0000
0000
0000
1030
0000
0001
0000
,  // measure 54
1002
0000
0000
0000
1003
0000
0010
1000
0200
0000
0000
0000
0310
0001
0100
0000
0010
0000
0000
0000
0000
0000
0100
0000
0010
0000
0000
0000
0100
0000
0001
0000
,  // measure 55
1000
0001
0010
0000
0110
0000
0000
0000
0001
0000
0010
0000
0110
0000
0010
0001
,  // measure 56
0010
M00M
0010
1000
0010
M00M
0010
0001
1000
0010
1000
0010
0100
0000
1000
0100
,  // measure 57
0001
0100
1000
0000
1100
0000
0101
0000
1000
0000
0010
0000
0110
0000
0010
1000
,  // measure 58
0010
M00M
0010
0001
0010
M00M
0010
1000
0001
0010
0100
0010
0001
0100
0010
0001
,  // measure 59
0010
0100
0001
1000
0100
0000
0110
0000
0001
0000
1000
0000
1010
0000
0010
1000
,  // measure 60
0100
0000
0100
1000
0010
M00M
0010
0001
0100
0000
0100
0001
0010
0100
1000
0000
,  // measure 61
0001
0100
0010
0000
0110
0000
2010
0000
0000
0000
3100
0000
0110
0000
0021
0000
,  // measure 62
0000
0000
0031
0100
0001
0100
2000
0000
0000
0000
3001
0000
1000
0100
1000
0100
,  // measure 63
0002
0000
0010
0000
2003
0000
0010
0000
3001
0000
0100
0000
0110
0000
0001
0100
,  // measure 64
1000
00MM
1000
0010
0001
MM00
0001
0100
0001
0010
0001
0010
0100
0000
0001
0100
,  // measure 65
1000
0100
0001
0000
0101
0000
1100
0000
0001
0000
0010
0000
0110
0000
1000
0100
,  // measure 66
0001
MM00
0001
0010
1000
00MM
1000
0100
1000
0010
0100
0010
1000
0100
0010
1000
,  // measure 67
0010
0100
1000
0001
0100
0000
0110
0000
1000
0000
0001
0000
0011
0000
0010
0001
,  // measure 68
0100
0000
0100
0001
0010
M00M
0010
1000
0100
0000
0100
1000
0010
0100
0001
0000
,  // measure 69
1000
0100
0010
0000
0100
0000
1002
0000
0000
0000
1003
0010
0001
0010
2000
0000
,  // measure 70
0000
0000
3001
0010
1000
0010
0002
0000
0000
0000
1003
0010
1000
0100
0001
0100
,  // measure 71
1000
0010
1000
0000
0001
0000
0010
0000
0011
0000
0001
0000
0100
0000
0010
0000
,  // measure 72
1010
1000
0100
0010
0011
1001
0101
1001
,  // measure 73
0011
0000
0010
0000
0001
0010
0100
1000
0010
0000
0001
0000
0010
1000
0100
0010
,  // measure 74
0001
0100
0001
0100
0010
1000
0200
0000
0000
0000
0301
0100
0010
0001
0010
0100
,  // measure 75
1000
0010
0100
0001
0010
0001
0100
0010
1000
0000
1000
0000
0100
0000
0010
0000
,  // measure 76
0011
0001
0100
0010
1010
1001
1100
1001
,  // measure 77
1010
0000
0010
0000
1000
0010
0100
0001
0010
0001
0100
0010
1000
0100
1000
0010
,  // measure 78
0100
0001
0010
0100
1000
0001
0200
0000
0000
0000
0300
0000
0001
0100
0001
0100
,  // measure 79
1000
0100
1000
0100
0010
0100
0001
0000
0100
0000
1000
0100
0001
1000
0001
0010
,  // measure 80
1000
0000
0000
0000
;

//---------------dance-single - ----------------
#NOTEDATA:;
#CHARTNAME:;
#STEPSTYPE:dance-single;
#DESCRIPTION:;
#CHARTSTYLE:;
#DIFFICULTY:Hard;
#METER:15;
#RADARVALUES:0.842075,0.935925,0.485961,0.404968,0.409467,655.000000,601.000000,54.000000,45.000000,8.000000,0.000000,0.000000,0.000000,0.000000,0.842075,0.935925,0.485961,0.404968,0.409467,655.000000,601.000000,54.000000,45.000000,8.000000,0.000000,0.000000,0.000000,0.000000;
#CREDIT:;
#NOTES:
// measure 0
0000
0000
0000
0000
,  // measure 1
0000
0000
0000
0000
,  // measure 2
0000
0000
0000
0000
,  // measure 3
0000
0000
0000
0000
,  // measure 4
0000
0000
0000
0000
,  // measure 5
0000
0000
0000
0000
,  // measure 6
0002
0000
0000
0013
0100
0010
0001
1000
,  // measure 7
0010
0100
0010
1000
0002
0000
1003
0100
,  // measure 8
0020
0000
0031
0100
0020
0000
1030
0001
,  // measure 9
0011
0000
0000
1000
0100
0000
0010
0000
0001
0000
0001
0000
0010
0000
0001
0000
,  // measure 10
0100
0000
0010
1000
0100
0000
0010
0001
,  // measure 11
0100
1000
0100
0001
0010
0000
0110
0000
,  // measure 12
0020
0000
0031
0010
0001
0000
0100
0000
0020
0000
1000
0000
1030
0000
1002
0000
,  // measure 13
0100
1003
2001
0010
3001
1000
0100
0010
,  // measure 14
0001
0000
0010
0001
0100
0000
0010
1000
,  // measure 15
0100
0001
0100
1000
0010
0000
0100
0010
,  // measure 16
2000
0000
3100
1000
0100
0000
0010
0000
0002
0000
0100
0000
0103
0000
1010
0000
,  // measure 17
0000
0001
0100
1000
0001
0010
1000
0100
,  // measure 18
0110
0011
0101
1100
,  // measure 19
1000
0010
1000
0000
0001
0000
1000
0100
1000
0000
0001
0000
1000
0000
0010
0000
,  // measure 20
0110
1010
1100
0101
,  // measure 21
0001
0010
0001
0000
0100
0000
0010
0000
1000
0010
1000
0000
0100
0000
0010
0000
,  // measure 22
0011
0101
1100
1010
,  // measure 23
1000
0000
0100
0010
0100
0000
0010
0000
0002
0000
0100
0000
0103
0000
0110
0000
,  // measure 24
0000
1000
0010
0100
0001
0010
0100
1001
,  // measure 25
0000
0001
0010
1000
0001
0100
1000
0010
,  // measure 26
0110
0000
0000
0000
1000
0000
0001
0010
0001
0000
1000
0010
1000
0000
0001
0010
,  // measure 27
0001
0000
0100
0000
0100
0000
0010
1000
0010
0000
1000
0000
0100
0000
0010
0000
,  // measure 28
0110
0000
0000
0000
0001
0000
1000
0010
1000
0000
0001
0010
0001
0000
1000
0010
,  // measure 29
1000
0000
0100
0000
0010
0000
0001
0000
0100
0010
0100
0000
0010
0000
1000
0000
,  // measure 30
1001
0000
0000
0000
0001
0000
1000
0100
1000
0000
0001
0100
0001
0000
1000
0100
,  // measure 31
1000
0010
0100
0001
0010
1000
0010
0001
,  // measure 32
0021
0000
0000
0031
0010
0000
0100
0000
1000
0000
0010
1000
0010
0000
0200
0000
,  // measure 33
0000
0000
1300
0000
0100
0000
0001
0000
0010
0000
0100
0010
0100
0000
2000
0000
,  // measure 34
0000
3100
1100
0000
0101
0000
0001
1000
,  // measure 35
1010
0110
1010
0012
,  // measure 36
1003
0100
0001
0100
1000
0000
0100
0010
,  // measure 37
0011
0110
0011
2010
,  // measure 38
3010
0001
0010
1000
0200
0000
0310
0001
,  // measure 39
0011
0101
1100
1020
,  // measure 40
0031
0010
1000
0100
0002
0000
0103
2100
,  // measure 41
0000
0000
3010
1000
0010
0000
0100
0000
0001
0000
0010
0000
0100
0000
0010
0000
,  // measure 42
0001
0000
0100
0010
0100
0000
0010
0000
2000
0000
0000
0000
3010
0000
1000
0000
,  // measure 43
0100
0000
0010
0001
0100
0000
1000
0100
,  // measure 44
0001
0010
1000
0010
0001
0000
0101
0000
,  // measure 45
0020
0000
1030
0010
1000
0000
0100
0000
0020
0000
0001
0000
0031
0000
2001
0000
,  // measure 46
0100
3001
1002
0010
1003
0001
0100
0010
,  // measure 47
1000
0000
0010
1000
0100
0000
0001
0100
,  // measure 48
1000
0010
0001
0010
1000
0000
0100
0010
,  // measure 49
0002
0000
0103
0001
0100
0000
0010
0000
2000
0000
0100
0000
3100
0000
0011
0000
,  // measure 50
0000
1000
0100
0001
1000
0010
0001
0100
,  // measure 51
0020
0000
0000
1030
0010
0100
0001
0010
0100
0010
0001
0100
0020
0000
1030
0100
,  // measure 52
0002
0000
0103
1000
0200
0000
1300
0010
0002
0000
0013
1000
0020
0000
0130
0000
,  // measure 53
0002
0000
0000
1003
0100
0010
0001
0100
0010
0100
0001
0010
0200
0000
0301
0100
,  // measure 54
2000
0000
3010
0001
0020
0000
1030
0100
1100
0000
0000
0001
0010
0000
0100
0000
,  // measure 55
1000
0000
1000
0000
0001
0000
0100
0000
0010
0000
1000
0000
0100
0000
1000
0100
,  // measure 56
1000
0000
1000
0001
1000
0000
1000
0010
1000
0000
0010
M00M
0010
0000
0001
0010
,  // measure 57
0001
0000
0010
0000
0100
0000
0100
0000
0010
0000
0001
0000
0100
0000
0001
0100
,  // measure 58
0001
0000
0001
1000
0001
0000
0001
0010
0001
0000
0100
M00M
0100
0000
1000
0000
,  // measure 59
0010
0000
0001
0000
0010
0000
1000
0000
0100
0000
0010
0000
0001
0000
1000
0010
,  // measure 60
1000
0000
0001
0100
0001
0000
0010
0001
0010
0000
0100
1000
0100
0000
0010
0000
,  // measure 61
0001
0100
0010
0002
0000
0013
0100
0002
,  // measure 62
0000
0000
0013
0100
0010
0100
2000
0000
0000
0000
3001
0000
0100
0010
0100
0010
,  // measure 63
0100
0000
0010
0000
1000
0000
0100
0000
0010
0000
0001
0000
0100
0000
0010
1000
,  // measure 64
0001
0000
0001
1000
0100
0000
0100
0010
0001
0000
0010
M00M
0010
0000
1000
0010
,  // measure 65
1000
0000
0010
0000
0100
0000
0100
0000
0010
0000
1000
0000
0100
0000
0010
0001
,  // measure 66
1000
0000
1000
0001
0100
0000
0100
0010
1000
0000
0100
M00M
0100
0000
0001
0000
,  // measure 67
0010
0000
1000
0000
0010
0000
0001
0000
0100
0000
0010
0000
1000
0000
0001
0010
,  // measure 68
0001
0000
1000
0100
1000
0000
0010
1000
0010
0000
0100
0001
0100
0000
0010
0000
,  // measure 69
1000
0000
0100
0000
0010
0000
0012
0000
0000
0000
1003
0010
1000
0010
0200
0000
,  // measure 70
0000
0000
0301
0010
0001
0010
0200
0000
0000
0000
1300
0010
1000
0000
0001
0000
,  // measure 71
0010
0001
0100
0010
1010
0000
0010
1000
,  // measure 72
1001
0000
1000
0100
1100
0100
0110
0010
,  // measure 73
0011
0000
0000
0000
1000
0010
1000
0010
1000
0000
0001
0000
1000
0100
1000
0100
,  // measure 74
1000
0000
0001
0000
0100
0010
0200
0000
0000
0000
0310
1000
0001
0000
0010
0000
,  // measure 75
1000
0010
0001
0010
0110
0000
0010
0001
,  // measure 76
1001
0000
0001
0100
0101
0100
0110
0010
,  // measure 77
1010
0000
0000
0000
0001
0010
0001
0010
0001
0000
0100
0000
1000
0000
0100
0000
,  // measure 78
0001
0000
0010
0000
0001
1000
0002
0000
0000
0000
0003
0000
1000
0000
0100
0000
,  // measure 79
0001
0000
0100
0000
1000
0000
0010
0000
0100
0000
0001
0010
0001
0010
0001
0010
,  // measure 80
0100
0000
0000
0000
;

//---------------dance-single - ----------------
#NOTEDATA:;
#CHARTNAME:;
#STEPSTYPE:dance-single;
#DESCRIPTION:;
#CHARTSTYLE:;
#DIFFICULTY:Medium;
#METER:11;
#RADARVALUES:0.559241,0.575954,0.521958,0.404968,0.000000,435.000000,377.000000,58.000000,45.000000,0.000000,0.000000,0.000000,0.000000,0.000000,0.559241,0.575954,0.521958,0.404968,0.000000,435.000000,377.000000,58.000000,45.000000,0.000000,0.000000,0.000000,0.000000,0.000000;
#CREDIT:;
#NOTES:
// measure 0
0000
0000
0000
0000
,  // measure 1
0000
0000
0000
0000
,  // measure 2
0000
0000
0000
0000
,  // measure 3
0000
0000
0000
0000
,  // measure 4
0000
0000
0000
0000
,  // measure 5
0000
0000
0000
0000
,  // measure 6
2000
0000
3100
1000
,  // measure 7
0001
0100
0020
0030
,  // measure 8
2020
3030
0022
0033
,  // measure 9
0011
0000
1100
0000
0011
0000
0001
0010
,  // measure 10
0001
0000
0001
0100
0001
0000
1000
0010
,  // measure 11
1000
0100
1000
0100
1000
0000
1100
0000
,  // measure 12
0002
0000
0100
0000
2003
0000
0100
3002
,  // measure 13
0000
0010
2003
0000
3001
0100
0001
0000
,  // measure 14
1010
0000
1000
0100
1000
0000
0001
0010
,  // measure 15
0001
0100
0001
0100
0001
0000
1000
0100
,  // measure 16
0020
0000
0031
0200
0010
0000
1000
1300
,  // measure 17
0000
2000
3200
0302
,  // measure 18
0013
0011
1010
0011
,  // measure 19
0001
0100
0001
0000
1000
0100
1000
0000
,  // measure 20
0010
1010
0011
1010
,  // measure 21
1000
0100
1000
0000
0001
0100
0001
0000
,  // measure 22
0010
1100
0101
1100
,  // measure 23
0001
0100
0010
1000
0002
0000
0013
0001
,  // measure 24
0000
0001
0100
0000
0001
0010
0100
1000
,  // measure 25
0000
0002
0023
0230
,  // measure 26
1300
1010
0011
0101
,  // measure 27
1000
0010
0100
0000
0001
0010
0100
0000
,  // measure 28
0010
0011
0101
1100
,  // measure 29
0100
1000
0010
0000
0100
0001
0010
0000
,  // measure 30
0100
1100
1010
0011
,  // measure 31
0001
0010
0100
1000
0001
0000
0100
0010
,  // measure 32
2000
0000
0100
0000
3002
0000
0100
2003
,  // measure 33
0000
0000
0010
0000
3002
0000
0010
2000
,  // measure 34
0000
3003
1001
0000
1001
0000
0001
0010
,  // measure 35
0100
0001
0100
0010
,  // measure 36
0001
0010
0001
0010
0001
0000
1000
0010
,  // measure 37
0100
1000
0100
0010
,  // measure 38
1000
0010
1000
0010
1000
0000
0001
1000
,  // measure 39
0100
0001
0100
1000
,  // measure 40
0010
0100
0010
0100
0010
0000
1000
0200
,  // measure 41
0000
0000
0001
0000
0310
0000
0100
1000
,  // measure 42
0001
0000
0100
0000
0110
0000
1000
0010
,  // measure 43
0100
0000
0100
0010
1000
0000
0001
0010
,  // measure 44
0100
0010
0100
0010
0001
0000
0101
0000
,  // measure 45
2000
0000
0100
0000
3002
0000
0100
2003
,  // measure 46
0000
0010
3002
0000
1003
0100
1000
0000
,  // measure 47
0011
0000
0001
0010
0100
0000
1000
0010
,  // measure 48
0100
0010
0100
0010
1000
0000
0001
0100
,  // measure 49
0020
0000
1030
0200
0010
0000
0001
0301
,  // measure 50
0000
0002
0203
2300
,  // measure 51
3002
0000
0103
0000
0001
0100
1000
0000
,  // measure 52
1000
0010
0001
0000
1000
0100
0020
0000
,  // measure 53
0032
0000
0103
0000
0001
0010
1000
0000
,  // measure 54
1000
0010
0001
0100
1010
0000
0101
0000
,  // measure 55
2020
0000
3030
0000
1000
0010
1000
0000
,  // measure 56
1010
0000
0110
0000
0010
1000
0100
0000
,  // measure 57
0010
0001
0100
0000
0001
0010
0001
0000
,  // measure 58
0011
0000
0110
0000
0010
0001
0100
0000
,  // measure 59
0010
1000
0100
0000
0010
0100
0010
0000
,  // measure 60
0110
0000
1001
0000
0001
0100
0010
0000
,  // measure 61
1000
0000
0001
0200
0000
0300
1000
0200
,  // measure 62
0000
0300
0001
0020
0000
0030
1000
0000
,  // measure 63
0010
0100
0010
0000
0001
0100
0010
0000
,  // measure 64
0101
0000
0011
0000
0010
0001
1000
0000
,  // measure 65
0010
1000
0001
0000
1000
0100
0010
0000
,  // measure 66
1100
0000
1010
0000
0010
1000
0001
0000
,  // measure 67
0010
0001
1000
0000
0010
0100
0010
0000
,  // measure 68
0110
0000
1001
0000
1000
0010
0100
0000
,  // measure 69
0001
0000
1000
0200
0000
0300
0001
0200
,  // measure 70
0000
0300
0001
0020
0000
0030
1000
0000
,  // measure 71
0010
1000
0100
0000
0011
0000
0001
0000
,  // measure 72
1001
0001
0101
1100
,  // measure 73
0101
0000
1000
0010
0100
0000
0010
1000
,  // measure 74
0100
0000
0010
0001
0100
0000
0010
0100
,  // measure 75
0001
0100
1010
1000
,  // measure 76
1001
1000
1100
0101
,  // measure 77
1100
0000
0001
0010
0100
1000
0001
0010
,  // measure 78
0100
1000
0001
0100
0000
0000
0110
0000
,  // measure 79
1010
0000
0110
0000
0100
0001
1000
0100
,  // measure 80
0010
0000
0000
0000
;

//---------------dance-single - ----------------
#NOTEDATA:;
#CHARTNAME:;
#STEPSTYPE:dance-single;
#DESCRIPTION:;
#CHARTSTYLE:;
#DIFFICULTY:Easy;
#METER:8;
#RADARVALUES:0.442250,0.539957,0.665947,0.368970,0.000000,344.000000,270.000000,74.000000,41.000000,0.000000,0.000000,0.000000,0.000000,0.000000,0.442250,0.539957,0.665947,0.368970,0.000000,344.000000,270.000000,74.000000,41.000000,0.000000,0.000000,0.000000,0.000000,0.000000;
#CREDIT:;
#NOTES:
// measure 0
0000
0000
0000
0000
,  // measure 1
0000
0000
0000
0000
,  // measure 2
0000
0000
0000
0000
,  // measure 3
0000
0000
0000
0000
,  // measure 4
0000
0000
0000
0000
,  // measure 5
0000
0000
0000
0000
,  // measure 6
2000
0000
3100
0010
,  // measure 7
0100
1000
0002
0003
,  // measure 8
0200
0300
0020
0030
,  // measure 9
1001
0110
2002
3003
,  // measure 10
0001
0001
0010
0010
,  // measure 11
0100
0010
0001
0011
,  // measure 12
2000
0000
0000
0000
3020
0000
0000
0230
,  // measure 13
0000
0302
0010
0100
,  // measure 14
1003
1000
0010
0010
,  // measure 15
0100
0010
1000
1100
,  // measure 16
0002
0000
0000
0000
0203
0000
0000
1300
,  // measure 17
0000
2000
3200
0302
,  // measure 18
0013
0011
0011
0011
,  // measure 19
0001
0010
0100
1000
,  // measure 20
0010
1010
1010
1010
,  // measure 21
1000
0010
0100
0001
,  // measure 22
1000
1001
1001
1001
,  // measure 23
0001
0000
0010
0000
0100
0000
0000
1000
,  // measure 24
0000
0000
0001
0000
0100
0000
0000
0110
,  // measure 25
0000
0000
0000
0000
,  // measure 26
1000
1010
0101
1010
,  // measure 27
0010
1000
0100
0010
,  // measure 28
0001
0011
1100
0011
,  // measure 29
0010
0001
0100
0010
,  // measure 30
1000
1001
0110
1001
,  // measure 31
0001
0010
0100
1000
,  // measure 32
0010
0000
0010
0000
0100
0000
0000
0001
,  // measure 33
0000
0000
1000
0000
1000
0000
0000
2002
,  // measure 34
0000
0000
3003
1000
,  // measure 35
0001
0010
0001
0010
,  // measure 36
0100
0100
0100
1000
,  // measure 37
0010
1000
0010
0100
,  // measure 38
0001
0001
0001
0010
,  // measure 39
0100
1000
0100
1000
,  // measure 40
0010
0000
0010
0000
0010
0000
0000
1001
,  // measure 41
0000
1001
0110
0000
,  // measure 42
0001
1000
2002
3003
,  // measure 43
1000
1000
0010
0010
,  // measure 44
0001
0010
1000
1010
,  // measure 45
0002
0000
0000
0000
0023
0000
0000
0230
,  // measure 46
0000
2300
0010
0100
,  // measure 47
3001
0001
0010
0010
,  // measure 48
1000
0010
0001
0101
,  // measure 49
2000
0000
0000
0000
3200
0000
0000
0301
,  // measure 50
0000
0002
0203
2300
,  // measure 51
3020
0000
0130
0000
0010
1000
1000
0000
,  // measure 52
0020
0000
0130
0000
0010
0001
0001
0000
,  // measure 53
0020
0000
1030
0000
0100
0010
0001
0000
,  // measure 54
0100
0010
1000
0000
1001
0000
0110
0000
,  // measure 55
2002
3003
1000
1100
,  // measure 56
0101
1100
0100
1000
,  // measure 57
0010
0100
0001
0101
,  // measure 58
1100
0101
0100
0001
,  // measure 59
0010
0100
1000
1010
,  // measure 60
0110
0101
0011
0110
,  // measure 61
1100
0000
0000
0002
0000
0000
0000
0023
,  // measure 62
0000
0000
0000
2030
0000
0000
3010
0000
,  // measure 63
0001
1000
0010
1010
,  // measure 64
1100
0101
0100
0001
,  // measure 65
0010
0100
1000
0011
,  // measure 66
0101
1100
0100
1000
,  // measure 67
0010
0100
0001
0011
,  // measure 68
0110
1100
1010
0110
,  // measure 69
0101
0000
0000
2002
0000
3003
0000
0220
,  // measure 70
0000
0330
0000
2000
0000
0000
3001
0000
,  // measure 71
0010
0100
1100
1000
,  // measure 72
1001
1000
1010
1010
,  // measure 73
1010
0001
0010
1000
,  // measure 74
0010
0001
0100
0010
,  // measure 75
1000
0001
0011
0001
,  // measure 76
1001
0001
0101
0101
,  // measure 77
0101
1000
0010
0100
,  // measure 78
0001
0000
0000
1001
0000
0000
1100
0000
,  // measure 79
0110
0000
0011
0000
1000
0010
1000
0010
,  // measure 80
1000
0000
0000
0000
;

//---------------dance-single - ----------------
#NOTEDATA:;
#CHARTNAME:;
#STEPSTYPE:dance-single;
#DESCRIPTION:;
#CHARTSTYLE:;
#DIFFICULTY:Beginner;
#METER:5;
#RADARVALUES:0.316260,0.526008,0.377970,0.143988,0.000000,246.000000,204.000000,42.000000,16.000000,0.000000,0.000000,0.000000,0.000000,0.000000,0.316260,0.526008,0.377970,0.143988,0.000000,246.000000,204.000000,42.000000,16.000000,0.000000,0.000000,0.000000,0.000000,0.000000;
#CREDIT:;
#OFFSET:0.909515;
#BPMS:0.000000=185.000000
;
#STOPS:;
#DELAYS:;
#WARPS:;
#TIMESIGNATURES:0.000000=4=4
;
#TICKCOUNTS:0.000000=4
;
#COMBOS:0.000000=1
;
#SPEEDS:0.000000=1.000000=0.000000=0
;
#SCROLLS:0.000000=1.000000
;
#FAKES:;
#LABELS:0.000000=Song Start
;
#NOTES:
// measure 0
0000
0000
0000
0000
,  // measure 1
0000
0000
0000
0000
,  // measure 2
0000
0000
0000
0000
,  // measure 3
0000
0000
0000
0000
,  // measure 4
0000
0000
0000
0000
,  // measure 5
0000
0000
0000
0000
,  // measure 6
1000
0000
0100
0000
,  // measure 7
0010
0010
0010
0000
,  // measure 8
0001
0000
1000
0000
,  // measure 9
1001
1001
2002
3003
,  // measure 10
0011
0000
0101
0000
,  // measure 11
1000
1000
1000
0000
,  // measure 12
0002
0000
0023
0000
,  // measure 13
0130
1000
0010
0000
,  // measure 14
1010
0000
1100
0000
,  // measure 15
0001
0001
0001
0000
,  // measure 16
0200
0000
0000
0000
0020
0000
0000
0330
,  // measure 17
0000
0000
0000
0000
,  // measure 18
1000
0010
1000
0010
,  // measure 19
1000
0000
0001
0000
,  // measure 20
0001
0010
0001
0010
,  // measure 21
0001
0000
1000
0000
,  // measure 22
0010
0100
0010
0100
,  // measure 23
0010
0000
1000
0000
,  // measure 24
0100
0000
0010
0000
,  // measure 25
0001
0000
0000
0000
,  // measure 26
0001
0100
0001
0100
,  // measure 27
0001
0000
0010
0000
,  // measure 28
0100
1000
0100
1000
,  // measure 29
0100
0000
1000
0000
,  // measure 30
0010
0100
0010
0100
,  // measure 31
0010
0000
1000
0000
,  // measure 32
1001
0000
0010
0000
,  // measure 33
1001
0000
0100
0000
,  // measure 34
2002
0000
3003
0000
,  // measure 35
0001
0001
0001
0000
,  // measure 36
0010
0010
0010
0000
,  // measure 37
0100
0100
0100
0000
,  // measure 38
1000
1000
1000
0000
,  // measure 39
0010
0010
0010
0000
,  // measure 40
0100
0100
0100
0000
,  // measure 41
0010
1000
0100
0000
,  // measure 42
0010
0001
0100
0000
,  // measure 43
1010
0000
0011
0000
,  // measure 44
0001
0001
0001
0000
,  // measure 45
2000
0000
3020
0000
,  // measure 46
0130
0001
0010
0000
,  // measure 47
0011
0000
1010
0000
,  // measure 48
1000
1000
1000
0000
,  // measure 49
0200
0000
0000
0000
0020
0000
0000
0330
,  // measure 50
0000
0000
0000
0000
,  // measure 51
0001
0000
0001
0000
,  // measure 52
0001
0100
0001
0000
,  // measure 53
1000
0000
1000
0000
,  // measure 54
1000
0010
1000
0000
,  // measure 55
0001
0000
0001
0000
,  // measure 56
0001
0010
0001
0000
,  // measure 57
1000
0100
1000
0000
,  // measure 58
1001
1001
1001
0000
,  // measure 59
1000
1010
1010
1010
,  // measure 60
1000
0000
0001
0000
,  // measure 61
0001
0011
0011
0011
,  // measure 62
0001
0000
1000
0000
,  // measure 63
0010
1001
1001
1001
,  // measure 64
0100
0000
0001
0000
,  // measure 65
0020
0030
0002
0003
,  // measure 66
0200
0300
0002
0003
,  // measure 67
1000
1100
1100
1100
,  // measure 68
0100
0000
1000
0000
,  // measure 69
0001
0101
0101
0101
,  // measure 70
0100
0000
0001
0000
,  // measure 71
0010
1001
1001
1001
,  // measure 72
0100
0000
1000
0000
,  // measure 73
1010
0000
0011
0000
,  // measure 74
1010
0000
1000
0001
,  // measure 75
1000
0000
0010
0000
,  // measure 76
0100
0100
0100
0000
,  // measure 77
0001
0010
0100
0000
,  // measure 78
0010
0100
1000
0000
,  // measure 79
0001
0000
0010
0000
,  // measure 80
0100
0100
0100
0000
,  // measure 81
1000
0001
1000
1001
,  // measure 82
0000
1000
0001
1000
,  // measure 83
1001
0110
1001
0000
;
