#VERSION:0.83;
#TITLE:Take My Life;
#SUBTITLE:;
#ARTIST:Y&Co.;
#TITLETRANSLIT:;
#SUBTITLETRANSLIT:;
#ARTISTTRANSLIT:;
#GENRE:Eurobeat;
#ORIGIN:;
#CREDIT:;
#BANNER:Take My Life.png;
#BACKGROUND:Take My Life-bg.png;
#PREVIEWVID:;
#JACKET:Take My Life-jacket.png;
#CDIMAGE:;
#DISCIMAGE:;
#LYRICSPATH:;
#CDTITLE:cdtitle.png;
#MUSIC:Take My Life.ogg;
#OFFSET:-0.109284;
#SAMPLESTART:39.150002;
#SAMPLELENGTH:10.971428;
#SELECTABLE:YES;
#BPMS:0.000=175.000;
#STOPS:;
#DELAYS:;
#WARPS:;
#TIMESIGNATURES:0.000=4=4;
#TICKCOUNTS:0.000=4;
#COMBOS:0.000=1;
#SPEEDS:0.000=1.000=0.000=0;
#SCROLLS:0.000=1.000;
#FAKES:;
#LABELS:0.000=Song Start;
#BGCHANGES:;
#KEYSOUNDS:;
#ATTACKS:
;

//---------------dance-single - ----------------
#NOTEDATA:;
#CHARTNAME:;
#STEPSTYPE:dance-single;
#DESCRIPTION:;
#CHARTSTYLE:;
#DIFFICULTY:Challenge;
#METER:18;
#RADARVALUES:1.046214,1.174231,0.354772,0.211174,1.419087,867.000000,825.000000,42.000000,25.000000,0.000000,0.000000,0.000000,0.000000,0.000000,1.046214,1.174231,0.354772,0.211174,1.419087,867.000000,825.000000,42.000000,25.000000,0.000000,0.000000,0.000000,0.000000,0.000000;
#CREDIT:;
#NOTES:
0000
0000
0000
0000
,
0000
0000
0000
0000
,
0000
0000
0000
0000
,
0000
0000
0000
0000
,
1000
0100
1000
0001
0100
0001
1000
0100
1000
0001
0100
0010
1000
0100
0010
0001
,
1000
0010
1000
0001
0010
0001
1000
0010
1000
0100
0010
0001
0100
0010
1000
0100
,
0010
0001
0000
0001
1000
0000
0010
1000
0000
1000
0001
0000
1000
0100
0000
0100
,
0001
0000
0000
0000
0000
0000
0001
0000
0000
0100
0000
0000
0000
0000
0000
0100
0000
0000
1000
0000
0000
0000
0000
0000
0001
0000
0100
0000
0010
0000
2000
0000
0000
0000
0000
0000
3010
0000
0000
1000
0000
0000
0100
0000
0000
0010
0000
0000
,
0001
0100
0001
1000
0100
1000
0001
0100
0001
1000
0100
0010
0001
0100
0010
1000
,
0001
0010
0001
1000
0010
1000
0001
0010
0001
0100
0010
1000
0100
0010
0001
0100
,
0010
1000
0000
1000
0100
0000
0010
0001
0000
0001
0100
0000
0010
1000
0000
1000
,
0001
0010
0000
0010
1000
0000
1000
0001
0000
0001
0100
0000
0100
1000
0000
1000
,
0001
0100
0110
0100
0001
1000
1001
1000
,
0001
0000
0010
0000
0011
0000
0000
0000
1010
0000
0010
1000
0100
0000
0010
0000
,
0001
0100
0101
0001
1000
0100
1100
1000
,
0010
0000
0100
0000
0101
0000
0000
0000
0001
0100
0010
0000
1000
0100
0010
0000
,
0001
1000
0001
0000
1001
0000
1000
0000
0010
0000
1000
0000
1100
0000
1000
0000
,
0001
0000
1000
0000
1010
0000
0000
0000
0011
0000
0010
0001
0100
0000
0010
0000
,
1000
0100
0110
0100
1000
0001
0101
0110
,
0000
1010
0000
1001
0000
0021
0000
0130
,
1000
0000
0001
0000
1000
0010
0100
0000
0010
0000
1000
0100
0010
0000
0001
0000
,
0100
0000
0010
0000
1000
0001
0010
0000
0100
0000
0010
0001
1000
0000
0010
0000
,
0100
0000
0001
0000
0010
0100
1000
0000
0010
0000
0100
0010
1000
0000
0100
0000
,
0001
0000
0100
0000
0010
0000
0001
0000
1000
0010
0100
0000
0001
0010
0100
1000
,
0001
0000
1000
0000
0001
0010
0100
0000
0010
0000
0001
1000
0010
0000
0100
0000
,
1000
0000
0100
0000
0010
1000
0001
0000
1000
0000
0100
0010
0001
0000
0100
0000
,
0010
0000
1000
0000
0100
1000
0001
0000
1000
0000
0010
1000
0001
0000
0010
0000
,
0001
0001
0100
0100
0010
0010
1000
1000
,
0220
0000
0000
0330
,
1001
0000
0000
0000
0000
0000
0011
0000
0000
0010
0001
1000
0020
0000
0000
0000
0000
0000
1030
0000
0000
1010
0000
0000
,
0010
0000
0101
0000
0100
0000
0001
1000
0100
0000
0010
0001
1000
0000
1000
0001
,
0200
0001
0001
0310
2000
0010
0010
3001
,
1000
0000
0100
0000
0001
0000
0100
0000
1000
0010
0100
0001
0010
0001
0100
0010
,
1000
0000
0000
0000
0000
0000
1010
0000
0000
0010
1000
0001
0020
0000
0000
0000
0000
0000
0031
0000
0000
0011
0000
0000
,
0010
0000
1100
0000
0100
0000
1000
0001
0100
0000
0010
1000
0001
0000
0001
1000
,
0200
1000
1000
0310
0002
0010
0010
1003
,
0001
0100
0001
0000
0010
0000
0100
1000
0001
0100
0010
0100
0001
0100
0010
1000
,
0001
0100
0101
0001
0100
1000
0001
0010
,
1000
0100
1100
1000
0100
0001
1000
0010
,
0001
1000
1010
0010
0001
1000
0100
0001
,
0010
0000
0100
0000
1100
0000
1000
0000
0001
0100
0010
1000
0100
1000
0010
0100
,
0002
0003
0000
0000
,
0001
0100
0001
1000
0100
1000
0001
0100
0001
1000
0100
0010
0001
0100
0010
1000
,
0001
0010
0001
1000
0010
1000
0001
0010
0001
0100
0010
1000
0100
0010
0001
0100
,
0010
1000
0000
1000
0001
0000
0010
0001
0000
0001
1000
0000
0001
0100
0000
0100
,
1000
0000
0000
0000
0000
0000
1000
0000
0000
0100
0000
0000
0000
0000
0000
0100
0000
0000
0001
0000
0000
0000
0000
0000
1000
0000
0100
0000
0010
0000
0002
0000
0000
0000
0000
0000
0013
0000
0000
0001
0000
0000
0100
0000
0000
0010
0000
0000
,
1000
0100
1000
0001
0100
0001
1000
0100
1000
0001
0100
0010
1000
0100
0010
0001
,
1000
0010
1000
0001
0010
0001
1000
0010
1000
0100
0010
0001
0100
0010
1000
0100
,
0010
0001
0000
0001
0100
0000
0010
1000
0000
1000
0100
0000
0010
0001
0000
0001
,
1000
0010
0000
0010
0001
0000
0001
1000
0000
1000
0100
0000
0100
0001
0000
0001
,
2000
0000
0000
3000
,
1001
0000
0001
0021
0000
0230
0000
0000
1300
0010
0000
0010
,
0001
0000
0001
0010
0000
0010
1010
0000
0000
1001
1000
0100
,
0010
0000
0010
0001
0000
0001
0100
0000
0100
1000
0000
1000
,
0010
0000
0010
0001
0000
0001
0100
0010
1000
0100
1000
0001
,
1001
0000
1000
1020
0000
0230
0000
0000
0301
0010
0000
0010
,
1000
0000
1000
0010
0000
0010
0011
0000
0000
1001
0001
0100
,
0010
0000
0010
1000
0000
1000
0100
0000
0100
0001
0000
0001
,
0010
0000
0010
1000
0000
1000
0100
0010
0001
0100
0010
1000
,
1100
0000
0100
1000
0000
1000
0010
0100
0001
1000
0100
0010
,
0011
0000
0001
0100
0000
0100
0001
0010
0100
1000
0010
1000
,
1001
0000
0001
0010
0000
0010
1000
0000
1000
0010
0100
0010
,
0011
0000
0001
0100
0000
0001
0100
1000
0100
0001
0010
0002
,
0000
0000
0000
0000
,
0003
0000
0000
0000
,
1000
0010
1000
0001
0100
0001
1000
0010
1000
0001
0010
0100
1000
0001
0100
0010
,
1000
0100
1000
0001
0010
0001
1000
0100
1000
0001
0010
0100
1000
0010
0100
0001
,
1000
0100
0000
0100
0010
0000
0001
0100
0000
0100
0010
0000
1000
0100
0000
0100
,
0001
0000
0000
0000
0000
0000
0001
0000
0000
0100
0000
0000
0000
0000
0000
0100
0000
0000
1000
0000
0000
0000
0000
0000
0001
0000
0100
0000
0010
0000
2000
0000
0000
0000
0000
0000
3001
0000
0000
0010
0000
0000
0100
0000
0000
1000
0000
0000
,
0001
0010
0001
1000
0100
1000
0001
0010
0001
1000
0010
0100
0001
1000
0100
0010
,
0001
0100
0001
1000
0010
1000
0001
0100
0001
1000
0010
0100
0001
0010
0100
1000
,
0001
0100
0000
0100
0010
0000
1000
0100
0000
0100
0010
0000
0001
0100
0000
0010
,
1000
0100
0000
0100
0001
0000
0001
1000
0000
1000
0010
0000
0010
0001
0000
1000
,
0001
0100
0000
0100
1000
0000
1000
0001
0000
0001
0010
0000
0010
1000
0000
0001
,
1000
0100
0010
0100
1000
0001
0100
0010
0100
0001
0010
0100
0010
1000
0010
0100
,
0010
0001
1000
0001
0100
0010
1000
0001
0010
0100
0001
0100
0010
0001
1000
0001
,
0100
0010
0000
0010
0001
0000
0001
0010
0000
0010
1000
0000
0001
0010
0000
0010
,
1000
0000
0000
0000
0000
0000
0010
0000
0000
0001
0000
0000
0000
0000
0000
0001
0000
0000
0100
0000
0000
0000
0000
0000
1000
0000
0100
0000
0010
0000
0200
0000
0000
0000
0000
0000
0301
0000
0000
0010
0000
0000
0100
0000
0000
1000
0000
0000
,
0001
0100
0010
0100
0001
1000
0100
0010
0100
1000
0010
0100
0010
0001
0010
0100
,
0010
1000
0001
1000
0100
0010
0001
1000
0010
0100
1000
0100
0010
1000
0001
1000
,
0100
0010
0000
0010
1000
0000
1000
0010
0000
0010
0001
0000
1000
0010
0000
0010
,
1000
0100
0000
0100
0001
0000
0001
0010
0000
0010
1000
0000
1000
0100
0000
0010
,
0002
0000
0000
0000
0000
0000
0000
0000
0000
1003
0010
0000
1000
0010
0100
0002
,
2000
0000
0000
3003
,
0220
0330
0000
0000
;

//---------------dance-single - ----------------
#NOTEDATA:;
#CHARTNAME:;
#STEPSTYPE:dance-single;
#DESCRIPTION:;
#CHARTSTYLE:;
#DIFFICULTY:Hard;
#METER:15;
#RADARVALUES:0.841074,0.818403,0.388559,0.219621,0.857365,697.000000,651.000000,46.000000,26.000000,0.000000,0.000000,0.000000,0.000000,0.000000,0.841074,0.818403,0.388559,0.219621,0.857365,697.000000,651.000000,46.000000,26.000000,0.000000,0.000000,0.000000,0.000000,0.000000;
#CREDIT:;
#NOTES:
0000
0000
0000
0000
,
0000
0000
0000
0000
,
0000
0000
0000
0000
,
0000
0000
0000
0000
,
1000
0000
0010
0100
0000
0100
0001
0000
0010
0100
0000
0100
1000
0000
0001
0000
,
0100
0000
0010
1000
0000
1000
0100
0000
0010
0001
0000
0001
0100
0000
0010
0000
,
1000
0100
0000
1000
0100
0000
1000
0001
0000
1000
0001
0000
1000
0010
0000
1000
,
0001
0000
1000
0100
0000
0100
0010
0000
0001
1000
0020
0000
1000
0000
1030
0000
,
0001
0000
0010
0100
0000
0100
1000
0000
0010
0100
0000
0100
0001
0000
1000
0000
,
0100
0000
0010
0001
0000
0001
0100
0000
0010
1000
0000
1000
0100
0000
0010
0000
,
0001
0100
0000
0001
0100
0000
0001
1000
0000
0001
1000
0000
0001
0010
0000
0001
,
1000
0000
0000
1010
0000
0000
1001
0000
0000
0011
0000
0000
1001
0000
0000
0000
,
0101
0000
1000
0010
1000
0001
0010
0001
,
0010
0000
0100
0000
0100
0000
1000
0000
0001
0000
0100
0001
0100
0000
0001
0000
,
1000
1000
0100
0010
0001
1000
0001
1000
,
0010
0000
0001
0000
0010
0000
1000
0000
0001
0010
0001
0000
1000
0010
1000
0000
,
0100
0010
0100
0000
1001
0000
0000
0000
1000
0000
0010
0000
1000
0000
0010
0000
,
0100
0000
0001
0000
0001
0000
1000
0000
0100
0000
0010
0100
0010
0000
0001
0000
,
1000
1000
0010
0001
1000
0100
0001
0101
,
0000
1001
0000
0011
0000
0210
0000
1300
,
0001
0100
1000
0100
0001
0010
0100
0001
,
0100
0010
0001
1000
0010
0001
0010
1000
,
0100
0010
0001
1000
0010
0100
1000
0100
,
0010
0000
1000
0000
0100
0000
0010
0000
0001
1000
0010
0000
1000
0001
1000
0001
,
0010
0100
1000
0010
0001
1000
0100
0001
,
1000
0001
0010
1000
0001
0100
1000
0001
,
0100
1000
0100
0001
1000
0100
0001
0100
,
1000
1000
0010
0010
0100
0100
0001
0001
,
0220
0000
0000
0330
,
1001
0000
0000
0000
1010
0000
0100
0001
0200
0000
0000
0000
0301
0000
0010
0000
,
1000
0000
0010
0000
0001
0000
0100
0010
1000
0000
0100
0000
0010
0000
0001
0000
,
1000
0010
0100
0100
0010
1000
0100
0100
,
0001
0000
0100
0000
0010
0000
0100
0000
1000
0000
0010
0000
1000
0001
1000
0001
,
1000
0000
0000
0000
0011
0000
0100
1000
0200
0000
0000
0000
1300
0000
0010
0000
,
0001
0000
0010
0000
1000
0000
0100
0010
0001
0000
0100
0000
0010
0000
1000
0000
,
0001
0010
0100
0100
0010
0001
0100
0100
,
1000
0000
0001
0000
0010
0000
1000
0000
0100
0000
0010
0001
1000
0000
0010
1000
,
0001
0001
0010
0001
0001
0100
1000
0100
,
0010
0010
1000
0010
0010
1000
0100
0001
,
0100
0100
0010
0100
0100
1000
0001
0100
,
0010
0000
0010
0000
1000
0000
0001
0000
0010
0100
0010
0100
1000
0001
1000
0001
,
0200
0300
0000
0000
,
0001
0000
0010
0100
0000
0100
1000
0000
0010
0100
0000
0100
0001
0000
1000
0000
,
0100
0000
0010
0001
0000
0001
0100
0000
0010
1000
0000
1000
0100
0000
0010
0000
,
0001
0100
0000
0001
0100
0000
0001
1000
0000
0001
1000
0000
0001
0010
0000
0001
,
1000
0000
0001
0100
0000
0100
0010
0000
1000
0001
0020
0000
0001
0000
0031
0000
,
1000
0000
0010
0100
0000
0100
0001
0000
0010
0100
0000
0100
1000
0000
0001
0000
,
0100
0000
0010
1000
0000
1000
0100
0000
0010
0001
0000
0001
0100
0000
0010
0000
,
1000
0100
0000
1000
0100
0000
1000
0001
0000
1000
0001
0000
1000
0010
0000
1000
,
0001
0000
0000
0011
0000
0000
1001
0000
0000
1010
0000
0000
1001
0000
0000
0000
,
0220
0000
0000
0330
,
1001
0000
0001
0020
0000
0032
0000
0000
0103
0010
0000
0010
,
1000
0000
1000
0001
0000
0000
0011
0000
0000
1100
0000
0000
,
1002
0103
2001
3010
,
1001
0000
0000
0110
0000
0000
1000
0100
0010
0001
0100
0010
,
1000
0000
1000
0020
0000
2030
0000
0000
3100
0010
0000
0010
,
0001
0000
0001
1000
0000
0000
1010
0000
0000
0101
0000
0000
,
0012
1003
2010
3001
,
0011
0000
0000
1100
0000
0000
0001
0010
0001
1000
0010
1000
,
0100
0000
0100
1000
0000
1000
0010
0000
0010
0100
0010
0100
,
0001
0000
0001
0010
0000
0010
0100
1000
0100
1000
0100
1000
,
0001
0000
0001
0100
0000
0100
0010
0000
0010
1000
0010
1000
,
0001
0000
0001
0010
0000
0100
1000
0001
0100
0010
1000
0002
,
0000
0000
0000
0000
,
0003
0000
0000
0000
,
1000
0000
0001
0010
0000
0010
0100
0000
0010
0001
0000
0001
0100
0000
0010
0000
,
1000
0000
0100
1000
0000
1000
0010
0000
0100
0001
0000
0001
0010
0000
0100
1000
,
0001
0100
0000
0001
0100
0000
0001
1000
0000
0001
1000
0000
0001
0010
0000
0001
,
1000
0000
1000
0010
0000
0010
0100
0000
0001
1000
0200
0000
0010
0000
0310
0000
,
0001
0000
1000
0010
0000
0010
0100
0000
0010
1000
0000
1000
0100
0000
0010
0000
,
0001
0000
0100
0001
0000
0001
0010
0000
0100
1000
0000
1000
0010
0000
0100
0001
,
1000
0100
0000
1000
0100
0000
1000
0001
0000
1000
0001
0000
1000
0010
0000
1000
,
0001
0000
0000
0011
0000
0000
0101
0000
0000
1010
0000
0000
1001
0000
0000
0001
,
1000
0000
0000
1010
0000
0000
0101
0000
0000
0011
0000
0000
1001
0000
0000
1000
,
0010
0000
1000
0010
0000
0010
0001
0000
0001
0010
0000
0010
1000
0000
0100
0000
,
0010
0000
0001
0100
0000
0100
1000
0000
1000
0100
0000
0100
0001
0000
0010
0001
,
0010
0100
0000
0100
1000
0000
0001
0100
0000
0100
0010
0000
0100
1000
0000
1000
,
0100
0000
0010
1000
0000
1000
0001
0000
0100
0010
2000
0000
0100
0000
3100
0000
,
0010
0000
0001
0010
0000
0010
1000
0000
1000
0010
0000
0010
0001
0000
0100
0000
,
0010
0000
1000
0100
0000
0100
0001
0000
0001
0100
0000
0100
1000
0000
0010
1000
,
0010
0100
0000
0100
0001
0000
1000
0100
0000
0100
0010
0000
0001
1000
0000
1000
,
0010
0000
0000
0101
0000
0000
0011
0000
0000
1100
0000
0000
1010
0000
0000
0000
,
0202
0000
0000
0000
0000
0000
0303
0000
0000
1000
0100
0000
0010
0001
0010
0001
,
0200
0000
0000
0300
,
0220
0330
0000
0000
;

//---------------dance-single - ----------------
#NOTEDATA:;
#CHARTNAME:;
#STEPSTYPE:dance-single;
#DESCRIPTION:;
#CHARTSTYLE:;
#DIFFICULTY:Medium;
#METER:12;
#RADARVALUES:0.559912,0.604907,0.397006,0.337878,0.320984,464.000000,417.000000,47.000000,40.000000,0.000000,0.000000,0.000000,0.000000,0.000000,0.559912,0.604907,0.397006,0.337878,0.320984,464.000000,417.000000,47.000000,40.000000,0.000000,0.000000,0.000000,0.000000,0.000000;
#CREDIT:;
#NOTES:
0000
0000
0000
0000
,
0000
0000
0000
0000
,
0000
0000
0000
0000
,
0000
0000
0000
0000
,
0001
0000
0000
0010
0000
0000
0100
0000
0000
0010
0000
0000
0001
0000
1000
0000
,
0001
0000
0000
0100
0000
0000
0010
0000
0000
0100
0000
0000
0001
0000
1000
0000
,
0100
0000
0000
0010
0000
0000
0100
0000
0000
0010
0000
0000
0100
0000
1000
0000
,
0010
0000
0000
1000
0000
0000
0001
0000
0010
0000
0002
0000
0000
0000
0000
0000
,
1003
0000
0000
0010
0000
0000
0100
0000
0000
0010
0000
0000
1000
0000
0001
0000
,
1000
0000
0000
0100
0000
0000
0010
0000
0000
0100
0000
0000
1000
0000
0001
0000
,
0100
0000
0000
0010
0000
0000
0100
0000
0000
0010
0000
0000
0100
0000
0001
0000
,
0010
0000
0000
1001
0000
0000
0100
0000
0000
1001
0000
0000
0010
0000
0000
0000
,
1001
0000
1000
0100
1000
0100
0010
0001
,
0000
0001
0100
0000
0010
0100
0010
0000
,
1001
0000
0001
0010
0001
0010
0001
1000
,
0000
1010
0000
0101
0000
0011
0000
0010
,
0001
1000
0001
0100
0001
0100
0010
1000
,
0000
1000
0100
0000
1000
0100
0010
0001
,
0000
0010
0001
0100
0000
0010
1000
0100
,
0000
0011
0000
1100
0000
0012
0000
0000
,
1003
0020
0032
0023
,
2030
0000
3100
0010
0001
0100
0010
1000
,
0001
0020
2030
3020
,
0032
0000
1003
0010
0100
0001
0010
0100
,
1000
0002
0203
2300
,
3200
0000
0301
1000
0000
1000
0100
0010
,
0000
0010
0001
1000
0010
0100
0001
1000
,
0100
0010
0100
0010
0100
1000
0100
0001
,
0200
0000
0000
0300
,
0110
0000
1001
0000
0002
0000
1003
0010
,
0000
0010
0001
0000
0011
0000
1010
0000
,
2001
0000
3100
0000
1002
0000
0013
0001
,
1000
0010
0100
0000
0010
1000
0100
0000
,
0110
0000
1001
0000
2000
0000
3001
0010
,
0000
0010
1000
0000
1010
0000
0011
0000
,
1002
0000
0103
0000
2001
0000
3010
1000
,
0001
0010
0100
0000
1000
0001
0100
0010
,
1000
0100
0000
1000
0100
0010
0001
0100
,
0010
1000
0000
0010
1000
0001
0010
0100
,
0010
0001
0000
0010
0001
1000
0010
0100
,
0001
1000
0000
0001
0010
1000
0010
0001
,
0000
0000
0000
0000
,
1000
0000
0000
0010
0000
0000
0100
0000
0000
0010
0000
0000
1000
0000
0001
0000
,
1000
0000
0000
0100
0000
0000
0010
0000
0000
0100
0000
0000
1000
0000
0001
0000
,
0100
0000
0000
0010
0000
0000
0100
0000
0000
0010
0000
0000
0100
0000
0001
0000
,
0010
0000
0000
0001
0000
0000
1000
0000
0010
0000
2000
0000
0000
0000
0000
0000
,
3001
0000
0000
0010
0000
0000
0100
0000
0000
0010
0000
0000
0001
0000
1000
0000
,
0001
0000
0000
0100
0000
0000
0010
0000
0000
0100
0000
0000
0001
0000
1000
0000
,
0100
0000
0000
0010
0000
0000
0100
0000
0000
0010
0000
0000
0100
0000
1000
0000
,
0010
0000
0000
1001
0000
0000
0100
0000
0000
1001
0000
0000
0010
0000
0000
0000
,
2002
0000
0000
3003
,
1100
0000
0000
0010
0000
0002
0000
0000
0000
0103
0000
0010
,
0000
0000
0010
1000
0000
0000
0011
0000
0000
1010
0000
0000
,
2001
3100
0210
1300
,
1001
1001
0001
0100
,
0101
0000
0000
0010
0000
2000
0000
0000
0000
3100
0000
0010
,
0000
0000
0010
0001
0000
0000
1010
0000
0000
0011
0000
0000
,
2001
3010
1002
0013
,
0001
0100
1000
0010
,
0001
0000
0000
0001
0000
0000
0100
0000
0100
0010
0000
0010
,
1000
0000
0000
1000
0000
0000
0100
0000
0100
0010
0000
0010
,
0001
0000
0000
0001
0000
0000
1000
0000
0010
0100
0000
0001
,
1000
0000
0000
1000
0000
0000
0001
0000
1000
0100
0000
0220
,
0000
0000
0000
0000
,
0330
0000
0000
0000
,
1000
0000
0000
0001
0000
0000
0010
0000
0000
0001
0000
0000
1000
0000
0001
0000
,
0100
0000
0000
0010
0000
0000
1000
0000
0000
0010
0000
0000
0100
0000
0001
0000
,
1000
0000
0000
0100
0000
0000
1000
0000
0000
0100
0000
0000
0010
0000
0001
0000
,
1000
0000
0000
1000
0000
0000
1000
0000
0010
0000
0200
0000
0000
0000
0000
0000
,
0301
0000
0000
1000
0000
0000
0010
0000
0000
1000
0000
0000
0001
0000
1000
0000
,
0100
0000
0000
0010
0000
0000
0001
0000
0000
0010
0000
0000
0100
0000
1000
0000
,
0001
0000
0000
0100
0000
0000
0001
0000
0000
0100
0000
0000
0010
0000
1000
0000
,
0100
0000
0000
1001
0000
0000
0010
0000
0000
1001
0000
0000
0001
0000
1000
0000
,
0001
0000
0000
0011
0000
0000
1000
0000
0000
1010
0000
0000
0001
0000
0010
0000
,
0001
0000
0000
0100
0000
0000
1000
0000
0000
0100
0000
0000
0001
0000
1000
0000
,
0001
0000
0000
0010
0000
0000
1000
0000
0000
0010
0000
0000
0001
0000
1000
0000
,
0001
0000
0000
0100
0000
0000
0001
0000
0000
0100
0000
0000
0010
0000
1000
0000
,
0100
0000
0000
0100
0000
0000
0100
0000
1000
0000
0020
0000
0000
0000
0000
0000
,
1030
0000
0000
0100
0000
0000
0001
0000
0000
0100
0000
0000
1000
0000
0001
0000
,
1000
0000
0000
0010
0000
0000
0001
0000
0000
0010
0000
0000
1000
0000
0001
0000
,
1000
0000
0000
0100
0000
0000
1000
0000
0000
0100
0000
0000
0010
0000
0001
0000
,
1000
0000
0000
1010
0000
0000
0001
0000
0000
0011
0000
0000
1000
0000
0001
0000
,
2002
0000
0000
3003
,
0220
0000
0000
0330
,
2002
3003
0000
0000
;

//---------------dance-single - ----------------
#NOTEDATA:;
#CHARTNAME:;
#STEPSTYPE:dance-single;
#DESCRIPTION:;
#CHARTSTYLE:;
#DIFFICULTY:Easy;
#METER:8;
#RADARVALUES:0.432001,0.498159,0.270302,0.363219,0.000000,358.000000,326.000000,32.000000,43.000000,0.000000,0.000000,0.000000,0.000000,0.000000,0.432001,0.498159,0.270302,0.363219,0.000000,358.000000,326.000000,32.000000,43.000000,0.000000,0.000000,0.000000,0.000000,0.000000;
#CREDIT:;
#NOTES:
0000
0000
0000
0000
,
0000
0000
0000
0000
,
0000
0000
0000
0000
,
0000
0000
0000
0000
,
0001
0000
0001
0000
0001
0000
0010
0001
,
0100
0000
0100
0000
0100
0000
0001
0100
,
1000
1000
0100
0100
,
0001
0000
0001
0000
0010
0002
0000
0000
,
1003
0000
1000
0000
1000
0000
0010
1000
,
0100
0000
0100
0000
0100
0000
1000
0100
,
0001
0001
0100
0100
,
1000
0010
0001
0010
,
1001
0000
0001
0000
0001
0000
1000
0100
,
0000
0100
1000
0000
0001
0000
1000
0000
,
1001
0000
0001
0000
0001
0000
1000
0010
,
0000
0001
0000
0010
0000
1000
0100
0000
,
1001
0000
1000
0000
1000
0000
0001
0100
,
0000
0100
0001
0000
1000
0000
0100
0000
,
0001
0000
0100
0000
1000
0000
0010
0100
,
0000
1001
0000
0110
0000
1001
0000
0000
,
1000
0002
0023
0032
,
2003
3002
0203
0010
,
0310
2000
3020
2030
,
3002
2003
3200
0010
,
0310
0002
0203
2300
,
3200
0000
0301
1000
0000
0001
1000
0100
,
0000
0010
0100
0000
0010
0000
0001
0000
,
0101
1100
0101
1100
,
0202
0000
0000
0303
,
0010
0000
1001
0000
1200
0000
0310
0001
,
0000
0001
0000
0001
0100
0000
1010
0000
,
1002
0010
2003
0010
,
3001
1000
0001
0000
1000
0000
0100
0000
,
0010
0000
1001
0000
0201
0000
0310
1000
,
0000
1000
0000
1000
0100
0000
0011
0000
,
2001
0010
3002
0100
,
2003
0010
3010
1000
,
0100
0000
0100
0000
0010
0001
1000
0000
,
0001
0000
0001
0000
0100
0001
1000
0000
,
0010
0000
0010
0000
1000
0100
0010
0000
,
0001
0000
0001
0000
0100
0010
1000
0001
,
0000
0000
0000
0000
,
1000
0000
1000
0000
1000
0000
0010
1000
,
0100
0000
0100
0000
0100
0000
1000
0100
,
0001
0001
0100
0100
,
1000
0000
1000
0000
0010
2000
0000
0000
,
3001
0000
0001
0000
0001
0000
0010
0001
,
0100
0000
0100
0000
0100
0000
0001
0100
,
1000
1000
0100
0100
,
0001
0010
1000
0010
,
2002
0000
0000
3003
,
0001
0100
1000
1000
,
0100
0001
0011
1100
,
0012
1003
1002
0103
,
0001
0001
0100
0010
,
1000
0100
0001
0001
,
0100
1000
1010
0101
,
2010
3001
0012
1003
,
0010
0001
0010
1000
,
0100
0100
0010
0001
,
0100
0100
0010
1000
,
0001
0001
0010
0001
,
1000
1000
0010
2002
,
0000
0000
0000
0000
,
3003
0000
0000
0000
,
0001
0000
0001
0000
0001
0000
0100
0001
,
0010
0000
0010
0000
0010
0000
0001
0010
,
1000
1000
0010
0010
,
0001
0000
0001
0000
0100
0020
0000
0000
,
1030
0000
1000
0000
1000
0000
0100
1000
,
0010
0000
0010
0000
0010
0000
1000
0010
,
0001
0001
0010
0010
,
1000
0100
0001
0100
,
1000
0010
0001
0010
,
1000
0000
0100
0000
0001
0000
1000
0010
,
0001
0000
0100
0000
1000
0000
0001
0010
,
1000
1000
0001
0001
,
0100
0000
0100
0000
0010
2000
0000
0000
,
3001
0000
0010
0000
1000
0000
0001
0100
,
1000
0000
0010
0000
0001
0000
1000
0100
,
0001
0001
1000
1000
,
0001
0010
1000
0010
,
0022
0000
0000
0033
,
2002
0000
0000
3003
,
0220
0330
0000
0000
;

//---------------dance-single - ----------------
#NOTEDATA:;
#CHARTNAME:;
#STEPSTYPE:dance-single;
#DESCRIPTION:;
#CHARTSTYLE:;
#DIFFICULTY:Beginner;
#METER:6;
#RADARVALUES:0.337878,0.462576,0.219621,0.329431,0.000000,280.000000,254.000000,26.000000,39.000000,0.000000,0.000000,0.000000,0.000000,0.000000,0.337878,0.462576,0.219621,0.329431,0.000000,280.000000,254.000000,26.000000,39.000000,0.000000,0.000000,0.000000,0.000000,0.000000;
#CREDIT:;
#NOTES:
0000
0000
0000
0000
,
0000
0000
0000
0000
,
0000
0000
0000
0000
,
0000
0000
0000
0000
,
1000
0010
1000
0010
,
1000
0100
1000
0100
,
0010
0010
0100
0100
,
0010
0001
2002
3003
,
0001
0010
0001
0010
,
0001
0100
0001
0100
,
0010
0010
1000
1000
,
2002
0000
0000
3003
,
1000
0010
1000
0100
,
1000
1000
1000
0000
,
0001
0100
0010
1000
,
0001
0010
0001
0000
,
0001
0010
0001
0100
,
0001
0001
0001
0000
,
1000
0100
0010
0001
,
2002
0000
0000
3003
,
0001
0100
0010
1000
,
0010
0100
0002
0003
,
1000
0100
0010
0001
,
0010
0100
2000
3000
,
0001
0100
0001
1000
,
0100
1000
0001
0000
,
0100
0100
0010
0010
,
1000
0001
1000
0001
,
2002
0000
0000
3003
,
0010
1001
1001
0000
,
1000
0100
0011
1100
,
0012
0003
1002
0003
,
0001
0100
0010
1000
,
0010
1001
1001
0000
,
0001
0100
1010
0101
,
2010
3000
2001
3000
,
1000
0100
0010
0001
,
1000
0000
1000
0010
,
0001
0000
0010
0001
,
0100
0000
0001
0100
,
1000
0000
0100
1000
,
0001
0000
0000
0000
,
0001
0010
0001
0010
,
0001
0100
0001
0100
,
0010
0010
0100
0100
,
0010
1000
2002
3003
,
1000
0010
1000
0010
,
1000
0100
1000
0100
,
0010
0010
0001
0001
,
2002
0000
0000
3003
,
0220
0000
0000
0330
,
0001
0001
1000
0000
,
1000
0001
0010
0001
,
2000
3000
0020
0030
,
0100
0001
0010
0001
,
1000
1000
0001
0000
,
0001
1000
0010
1000
,
0002
0003
0020
0030
,
0001
0100
0010
1000
,
0100
0000
1000
0100
,
0001
0000
0100
0001
,
0010
0000
0001
0010
,
1000
0000
0010
1000
,
0200
0000
0000
0000
,
0300
0000
0000
0000
,
1000
0100
1000
0100
,
1000
0010
1000
0010
,
0100
0100
0001
0001
,
0010
0100
2200
3300
,
0001
0100
0001
0100
,
0001
0010
0001
0010
,
0001
0001
1000
1000
,
0220
0000
0000
0330
,
2002
0000
0000
3003
,
1000
0100
0010
0001
,
0010
0100
1000
0001
,
0100
0100
0010
0010
,
1000
0001
0022
0033
,
0001
0100
0010
1000
,
0010
0100
0001
1000
,
0100
0100
0010
0010
,
0001
1000
0001
1000
,
2002
0000
0000
3003
,
0220
0000
0000
0330
,
2002
3003
0000
0000
;
