#TITLE:THE LYCANTHROPE;
#SUBTITLE:;
#ARTIST:L.E.D.;
#TITLETRANSLIT:;
#SUBTITLETRANSLIT:;
#ARTISTTRANSLIT:;
#GENRE:Goa Trance;
#CREDIT:;
#BANNER:THE LYCANTHROPE.png;
#BACKGROUND:THE LYCANTHROPE-bg.png;
#LYRICSPATH:;
#CDTITLE:cdtitle.png;
#MUSIC:THE LYCANTHROPE.ogg;
#OFFSET:-1.616832;
#SAMPLESTART:14.000929;
#SAMPLELENGTH:12.387099;
#SELECTABLE:YES;
#BPMS:0.000000=155.000000
;
#STOPS:
;
#BGCHANGES:;
#KEYSOUNDS:;
#ATTACKS:;

//---------------dance-single - ----------------
#NOTES:
     dance-single:
     :
     Challenge:
     15:
     0.809805,1.011582,0.235800,0.160344,1.037521,601.000000,576.000000,25.000000,17.000000,16.000000,0.000000,0.809805,1.011582,0.235800,0.160344,1.037521,601.000000,576.000000,25.000000,17.000000,16.000000,0.000000:
0000
0000
0000
0000
,
0000
0000
0000
0000
,
0000
0000
0000
0000
,
0000
0000
0000
0000
0000
0000
0000
0000
0001
0000
1000
0000
0001
1000
0001
1000
,
0100
1000
0010
0010
1000
0001
0001
1000
,
0100
0000
0100
0000
0010
0000
0100
0000
1000
0000
0001
0100
0001
0100
0010
1000
,
0001
0000
0010
0000
1000
0000
0010
0000
0011
0000
0000
1010
0000
0000
1000
0001
,
1000
0000
0000
1100
0000
0000
0101
0000
0001
0010
0001
0010
0100
1000
0100
1000
,
0001
0000
0000
0101
0000
0000
1000
0000
1000
0000
0000
1100
0000
0000
0001
0000
,
0010
0000
0000
1001
0000
0000
0010
0000
1000
0000
0001
0000
0010
0001
0000
0001
,
0100
0000
0000
1001
0000
0000
0100
0000
0100
0000
0000
1001
0000
0000
1000
0000
,
0100
0000
0000
0110
0000
0000
0001
0000
0010
0000
0001
0100
0000
0100
0001
0000
,
1000
0000
0000
1010
0000
0000
0001
0000
0001
0000
0000
0011
0000
0000
1000
0000
,
0100
0000
0000
1001
0000
0000
0100
0000
0001
0000
1000
0000
0010
1000
0000
1000
,
0100
0000
0000
1001
0000
0000
0010
0000
0010
0000
0000
1001
0000
0000
0001
1000
,
0001
0000
0000
0101
0000
0000
1100
0000
1010
0000
0000
0011
0000
0001
1000
0001
,
1000
0000
0000
1000
0010
0000
0100
0000
0001
0000
0000
0001
0010
0000
0001
0000
,
0100
0000
0000
0100
0010
0000
1000
0000
0100
0000
0010
0000
0001
0100
0000
0010
,
1000
0000
0000
1000
0001
0000
0010
0000
0100
0000
0000
0100
0010
0000
0001
0000
,
0100
0000
0000
0100
1000
0000
0100
0000
0001
0010
0001
0010
0100
1000
0100
1000
,
0001
0000
0000
0001
0010
0000
0100
0000
1000
0000
0000
1000
0010
0000
1000
0000
,
0100
0000
0000
0100
0010
0000
0001
0000
0100
0000
0010
0000
1000
0100
0000
0010
,
0001
0000
0000
0001
1000
0000
0010
0000
0100
0000
0000
0100
0010
0000
1000
0001
,
0010
0000
0000
1100
0000
0000
0101
0000
1000
0010
0100
0001
1000
0010
0100
0001
,
1000
0000
0100
0000
0010
0001
0000
0200
0000
0000
0310
0000
1000
0001
0000
0001
,
1000
0000
0100
0000
0010
0002
0000
0000
0203
0000
0000
0310
1000
0000
0100
1000
,
0001
0000
1000
0000
0010
0100
0000
0002
0000
0000
0013
0000
0100
1000
0000
1000
,
0001
0100
0010
0000
1000
0200
0000
0000
0320
0000
0000
0130
1000
0000
0001
1000
,
0001
0000
0100
0000
0010
1000
0000
0200
0000
0000
0310
0000
0001
1000
0000
1000
,
0001
0000
0100
0000
0010
2000
0000
0000
3200
0000
0000
0310
0001
0000
0100
0001
,
1000
0000
0001
0000
0010
0100
0000
2000
0000
0000
3010
0000
0100
0001
0000
0001
,
1000
0000
0100
0000
0001
0000
0100
0000
1000
0010
1000
0010
0100
0001
1000
0000
,
0001
0000
0010
0M00
0010
0000
1000
0000
0001
0000
0010
0100
0010
0000
0001
1000
,
0001
0000
0100
00M0
0100
0000
1000
0000
0010
0000
0100
0001
0100
0001
1000
0100
,
1000
0000
0010
0M00
0010
0000
0001
0000
1000
0000
0010
0100
0010
0000
1000
0001
,
1000
0000
0100
00M0
0100
0000
0001
0000
0010
0100
0010
0100
1000
0001
0100
0010
,
1000
0000
0100
00M0
0100
0000
0001
0000
0010
0000
0001
0100
0001
0000
1000
0100
,
1000
0000
0010
0M00
0010
0000
0001
0000
1000
0000
0010
1000
0010
1000
0001
0010
,
0001
0000
0100
00M0
0100
0000
1000
0000
0001
0000
1000
0000
0010
0M00
0010
0000
,
0001
0100
0001
0100
0010
1000
0010
1000
0001
0010
0100
1000
0001
1000
0100
0010
,
0002
0000
0000
0000
,
0000
0000
0000
0000
,
2000
0000
0000
0000
,
0000
0000
0000
3003
,
0101
0010
1000
1000
1100
0010
0001
0001
,
0101
0010
1000
1000
1100
0010
0001
0001
,
1000
0010
1000
0010
1000
0010
1000
0010
0100
0001
0100
0001
0100
0001
0100
0001
,
1000
0100
0010
0001
1000
0100
1000
0100
0010
0001
1000
0010
0100
0001
1000
0100
,
0010
0000
0001
0100
0001
0000
1000
0100
0000
0010
0100
0010
0100
0000
1000
0100
,
0000
1000
0000
0001
0100
0000
0010
1000
0001
0000
1000
0100
0000
0010
0100
0010
,
0001
0000
0100
00M0
0100
0000
1000
0010
0000
1000
0100
00M0
0100
0000
0001
0010
,
0000
0001
0100
00M0
0100
0000
1000
0010
0100
0001
0100
0001
1000
0100
1000
0100
,
0010
0000
0001
1000
0001
0000
1000
0010
0000
0100
0000
0001
0010
0000
0100
1000
,
0000
0010
0000
0100
0001
0000
1000
0001
0010
0100
0010
0100
1000
0001
1000
0001
,
0100
00M0
0100
0000
1000
0000
0100
1000
0000
1000
0010
0000
1000
0001
1000
0000
,
0100
00M0
0100
0000
0001
0000
1000
0001
0010
0000
0001
0000
0100
0000
0001
1000
,
0001
0000
1000
0100
1000
0000
0001
0100
0000
0010
0100
0010
0100
0000
0001
0100
,
0000
0001
0000
1000
0100
0000
0010
0001
1000
0000
0001
0100
0000
0010
0100
0010
,
1000
0000
0100
00M0
0100
0000
0001
0010
0000
0001
0100
00M0
0100
0000
1000
0010
,
0000
1000
0100
00M0
0100
0000
0001
0010
0100
1000
0100
1000
0001
0100
0001
0100
,
0002
0000
0010
0000
0010
0000
1003
0010
2000
0000
0010
0000
0010
0000
3001
0100
,
0002
0000
0100
0000
0100
0000
1003
0100
2000
0000
0100
0000
0100
0000
3001
0000
,
0010
0001
1000
0001
1000
0001
0100
0010
0100
0001
1000
0001
1000
0001
0010
0100
,
0010
0001
1000
0001
0100
0001
1000
0001
0010
0100
1000
0010
0100
0001
0010
0100
,
2000
0000
0000
0000
,
3000
0000
0000
0000
;

//---------------dance-single - ----------------
#NOTES:
     dance-single:
     :
     Hard:
     13:
     0.595564,0.613080,0.113184,0.198072,0.499896,442.000000,430.000000,12.000000,21.000000,0.000000,0.000000,0.595564,0.613080,0.113184,0.198072,0.499896,442.000000,430.000000,12.000000,21.000000,0.000000,0.000000:
0000
0000
0000
0000
,
0000
0000
0000
0000
,
0000
0000
0000
0000
,
0000
0000
0000
0000
,
1000
0001
0010
0000
0001
1000
0000
0001
,
0100
0000
0010
1000
0000
0001
0010
0100
,
1000
0000
1000
0000
0001
0000
0001
0000
0100
0000
0000
1001
0000
0000
0010
0000
,
0010
0000
0000
1001
0000
0000
1000
0000
0100
0000
0010
0000
0100
0000
0010
0000
,
0002
0000
0000
0100
0000
0000
1003
0000
2000
0000
0000
0100
0000
0000
3001
0000
,
0002
0000
0000
0010
0000
0000
1003
0000
0010
0000
0100
0000
0000
0001
0000
0001
,
2000
0000
0000
0100
0000
0000
3001
0000
0002
0000
0000
0100
0000
0000
1003
0000
,
2000
0000
0000
0010
0000
0000
3001
0000
0010
0000
0100
0010
0000
0001
1000
0000
,
0020
0000
0000
1000
0000
0000
0130
0000
0200
0000
0000
0001
0000
0000
0310
0000
,
2000
0000
0000
0100
0000
0000
3001
0000
0100
0000
0010
0000
0000
1000
0000
0001
,
0020
0000
0000
0001
0000
0000
0130
0000
0200
0000
0000
1000
0000
0000
0310
0000
,
0001
0000
0000
1001
0000
0000
0010
0000
0010
0000
0000
1001
0000
0000
1000
0000
,
0010
0000
0000
0100
0000
0000
0010
0000
1000
0000
0000
0001
0000
0000
1000
0000
,
0100
0000
0000
0100
0000
0000
0100
0000
0010
0000
0001
0000
1000
0010
0000
1000
,
0010
0000
0000
0100
0000
0000
0001
0000
0010
0000
0000
0100
0000
0000
1000
0000
,
0001
0000
0000
0001
0000
0000
0001
0000
1000
0000
0010
0000
0001
0000
0010
0000
,
1000
0000
0000
0100
0000
0000
0010
0000
0001
0000
0000
1000
0000
0000
0001
0000
,
0100
0000
0000
0100
0000
0000
0100
0000
0010
0000
1000
0000
0001
0010
0000
0001
,
0010
0000
0000
0100
0000
0000
1000
0000
0010
0000
0000
0100
0000
0000
0001
0000
,
1000
0000
0000
0110
0000
0000
1000
0000
0001
0010
0001
0000
1000
0010
1000
0000
,
0001
0000
0010
0000
0000
0100
0000
0010
0000
0000
0001
0000
0000
1000
0000
0001
,
0100
0000
0010
0000
0000
2000
0000
0000
3200
0000
0000
0302
0000
0000
0103
0000
,
1000
0000
0010
0000
0000
0100
0000
0001
0000
0000
0010
0000
0000
0100
0000
1000
,
0001
0000
0100
0000
0000
1010
0000
0000
1001
0000
0000
0011
0000
0000
0001
0000
,
1000
0000
0010
0000
0000
0100
0000
0010
0000
0000
1000
0000
0000
0001
0000
1000
,
0100
0000
0010
0000
0000
0002
0000
0000
0203
0000
0000
2300
0000
0000
3100
0000
,
0001
0000
0010
0000
0000
1000
0000
0010
0000
0000
0001
0000
0000
0100
0000
0010
,
1000
0100
0010
0001
0100
0010
1001
0000
,
1000
0100
0001
0100
1000
0100
0001
0100
,
1000
0000
0100
0000
0001
0000
0100
0000
1000
0000
0010
0100
0010
0000
1000
0000
,
0001
0100
1000
0100
0001
0100
1000
0100
,
0001
0000
0010
0000
0100
0000
1000
0000
0010
1000
0010
0000
0100
0001
0100
0000
,
0001
0010
1000
0010
0001
0010
1000
0010
,
0001
0000
0010
0000
1000
0000
0010
0000
0001
0000
0100
0010
0100
0000
0001
0000
,
1000
0010
1000
1000
0001
0010
0001
0001
,
1000
0000
0100
0000
0010
0000
0001
0000
1000
0010
1000
0000
0001
0010
0001
0000
,
0200
0000
0000
0000
,
0000
0000
0000
0000
,
0020
0000
0000
0000
,
0000
0000
0000
0330
,
1000
0010
1000
0010
0001
0010
0001
0010
,
0001
0100
0001
0100
1000
0100
1000
0100
,
1000
0010
0001
0010
1000
0100
0001
0100
,
1000
0000
0010
0000
0001
0000
0010
0000
1000
0100
1000
0000
0001
0010
0001
0000
,
1000
0000
0010
0000
0100
0000
0000
0010
0000
0010
1000
0000
0100
0000
0000
0010
,
0000
0010
0100
0000
1000
0000
0010
0000
0100
0000
0010
1000
0000
0010
1000
0000
,
0100
0000
0001
0000
0100
0000
0000
0010
0000
0100
1000
0000
0100
0000
0000
0010
,
0000
0100
0001
0000
0100
0000
1000
0000
0001
0100
0001
0000
0100
0010
0100
0000
,
0010
0000
1000
0000
0100
0000
0010
0001
0000
0001
0000
0100
0000
0000
0010
1000
,
0000
1000
0000
0100
0000
0000
0010
0000
0100
1000
0100
0000
1000
0001
1000
0000
,
0010
0000
0100
0000
0001
0000
0000
0001
0000
0010
0100
0000
1000
0000
0000
0000
,
0001
0000
0010
0000
0100
0000
1000
0000
0010
0000
0010
0000
0100
0000
0001
1000
,
0001
0000
0010
0000
0100
0000
0000
0010
0000
0010
0001
0000
0100
0000
0000
0010
,
0000
0010
0100
0000
0001
0000
0010
0000
0100
0000
0010
0001
0000
0010
0001
0000
,
0100
0000
1000
0000
0100
0000
0000
0010
0000
0100
0001
0000
0100
0000
0000
0010
,
0000
0100
1000
0000
0100
0000
0001
0000
1000
0100
1000
0000
0100
0000
0010
0001
,
0010
0001
0100
1000
0100
0001
0010
1000
,
0010
0001
1000
0010
0001
0010
1000
0100
,
1001
0000
0001
0100
1001
0000
1000
0100
,
0001
0000
0100
0000
1000
0000
0010
0000
1000
0100
1000
0000
0001
0100
0001
0000
,
0220
0000
0000
0000
,
0330
0000
0000
0000
;

//---------------dance-single - ----------------
#NOTES:
     dance-single:
     :
     Medium:
     9:
     0.436567,0.459810,0.103752,0.160344,0.000000,324.000000,313.000000,11.000000,17.000000,0.000000,0.000000,0.436567,0.459810,0.103752,0.160344,0.000000,324.000000,313.000000,11.000000,17.000000,0.000000,0.000000:
0000
0000
0000
0000
,
0000
0000
0000
0000
,
0000
0000
0000
0000
,
0000
0000
0000
0000
,
0001
0001
0010
0010
,
1000
1000
0100
0100
,
0001
0000
1000
0000
0001
0000
1000
0000
0200
0000
0000
0300
0000
0000
0010
0000
,
0020
0000
0000
0030
0000
0000
0100
0000
0200
0000
0000
0000
2300
0000
0000
0000
,
3001
0000
0010
0001
0100
0000
0100
0001
,
0010
0000
0001
0010
0100
1000
0001
0000
,
1000
0000
0010
1000
0100
0000
0100
1000
,
0010
0000
0100
0001
0010
0000
0010
0000
,
0100
0000
1000
0001
0100
0000
0100
0001
,
1000
0000
0001
0010
0100
1000
0001
0000
,
0100
0000
0001
1000
0100
0000
0100
2000
,
0002
0000
0000
3003
0000
0000
0200
0000
0020
0000
0000
0330
0000
0000
1000
0000
,
0001
0001
0100
0100
,
0010
0000
0010
0000
0100
0010
0100
0001
,
1000
1000
0100
0100
,
0001
0000
0001
0000
0001
0100
0010
0100
,
1000
1000
0010
0010
,
0100
0000
0100
0000
0010
0100
0010
1000
,
0001
0000
0001
0000
0010
0000
0010
0200
,
2000
0000
0000
3300
0000
0000
0001
0000
0020
0000
0000
0000
0032
0000
0000
0000
,
1003
0000
0010
1000
0100
0000
0100
0000
,
1000
0000
0100
1000
0010
0000
0010
0000
,
1000
0000
0010
1000
0100
0000
0100
0000
,
0010
0001
1000
0000
1000
0000
0010
1000
,
0001
0000
0010
0001
0100
0000
0100
0000
,
0001
0000
0100
0001
0010
0000
0010
0000
,
0001
0000
0010
0001
0100
0000
0100
0000
,
0001
1000
0100
0010
0100
0000
0110
0000
,
0001
0010
0001
0000
0001
1000
0001
0000
,
0001
0100
0001
0000
1000
0010
1000
0000
,
0100
0010
0100
0000
0100
1000
0100
0000
,
0100
0010
0001
0000
1001
0000
0110
0000
,
1000
0010
1000
0000
1000
0001
1000
0000
,
1000
0100
1000
0000
0001
0010
0001
0000
,
1000
0010
0001
0000
0001
0010
1000
0000
,
1000
0010
0100
0001
1000
0010
0100
0001
,
2000
0000
0000
0000
,
0000
0000
0000
0000
,
0002
0000
0000
0000
,
0000
0000
0000
3003
,
1000
0100
0010
0000
0001
0100
0010
0000
,
1000
0100
0010
0000
0001
0100
0010
0000
,
2010
0100
0100
3100
,
0012
0103
1001
1001
,
1000
0010
1000
0000
0001
0010
0100
0000
,
0100
0010
0001
0000
1000
0010
1000
0000
,
0001
1000
0100
0000
1000
0001
0100
0000
,
0001
1000
0100
0000
0010
0001
1000
0001
,
1000
0010
0100
0000
0010
1000
0100
0000
,
1000
0100
0001
0000
0001
0100
1000
0000
,
0001
0100
0001
0000
1000
0100
1000
0000
,
0001
0100
0001
0000
0110
0000
1001
0000
,
0001
0010
0001
0000
1000
0010
0100
0000
,
0100
0010
1000
0000
0001
0010
0001
0000
,
1000
0001
0100
0000
0001
1000
0100
0000
,
1000
0001
0100
0000
0010
1000
0001
1000
,
0001
0010
1000
0000
1000
0010
0001
0000
,
0001
0100
1000
0000
1000
0100
0001
0000
,
0011
1000
1010
0001
,
1000
0100
1000
0001
0100
0001
0100
0010
,
2000
0000
0000
0000
,
3000
0000
0000
0000
;

//---------------dance-single - ----------------
#NOTES:
     dance-single:
     :
     Easy:
     6:
     0.332815,0.429156,0.282960,0.216936,0.000000,247.000000,217.000000,30.000000,23.000000,0.000000,0.000000,0.332815,0.429156,0.282960,0.216936,0.000000,247.000000,217.000000,30.000000,23.000000,0.000000,0.000000:
0000
0000
0000
0000
,
0000
0000
0000
0000
,
0000
0000
0000
0000
,
0000
0000
0000
0000
,
1000
1000
0100
0100
,
0010
0010
0001
0001
,
0100
0100
2002
3003
,
0220
0330
0002
2003
,
3001
0001
0100
0100
,
0010
0010
1000
0001
,
0010
0010
0100
0100
,
1000
0001
0101
1010
,
1000
1000
0100
0100
,
0010
0010
0001
1000
,
0010
0010
0100
0100
,
0220
0330
2002
3003
,
1000
0100
1000
0100
,
0010
0001
0100
1000
,
0100
0001
0100
0001
,
0010
0001
0110
1001
,
0001
0100
0001
0100
,
0010
1000
0100
0001
,
0100
1000
0100
1000
,
2002
3003
0101
1010
,
0001
0010
0010
0001
,
1000
0010
0010
1000
,
0001
0100
0100
0001
,
1000
0100
0010
0001
,
1000
0010
0010
1000
,
0001
0010
0010
0001
,
1000
0100
0100
1000
,
0001
0100
0220
0330
,
1000
0010
0001
0010
,
1000
0010
0001
0010
,
1000
0100
0001
0100
,
1000
0100
0011
1100
,
0001
0100
1000
0100
,
0001
0100
1000
0100
,
0001
0010
1000
0010
,
0011
1100
1010
0101
,
2002
0000
0000
0000
,
0000
0000
0000
0000
,
0000
0000
0000
0000
,
0000
0000
0000
3003
,
1000
1000
0010
0010
,
0001
0001
0100
0100
,
1000
0010
0001
0100
,
2000
0000
0001
3001
,
1000
0100
0010
0100
,
1000
0100
0001
0100
,
1000
0010
0100
0010
,
1000
0010
0001
0010
,
1000
0100
0001
1000
,
0001
0100
1000
0001
,
1000
0010
0001
1000
,
0001
0010
1000
0001
,
1001
1000
0100
0001
,
0100
1000
0010
1000
,
1001
0001
0100
1000
,
0100
0001
0010
0001
,
1001
0010
1000
0100
,
1001
0010
0001
0100
,
2002
3003
0220
0330
,
1010
0101
0011
1100
,
2002
0000
0000
0000
,
3003
0000
0000
0000
;

//---------------dance-single - ----------------
#NOTES:
     dance-single:
     :
     Beginner:
     2:
     0.158997,0.214578,0.047160,0.113184,0.000000,118.000000,113.000000,5.000000,12.000000,0.000000,0.000000,0.158997,0.214578,0.047160,0.113184,0.000000,118.000000,113.000000,5.000000,12.000000,0.000000,0.000000:
0000
0000
0000
0000
,
0000
0000
0000
0000
,
0000
0000
0000
0000
,
0000
0000
0000
0000
,
1000
0000
1000
0000
,
0001
0000
0001
0000
,
0100
0100
0200
0000
,
0000
0000
0300
0000
,
0001
0000
0001
0000
,
0010
0000
0010
0000
,
0100
0000
0100
0000
,
1000
0000
0001
0000
,
1000
0000
1000
0000
,
0010
0000
0010
0000
,
0100
0000
0001
0000
,
2002
0000
3003
0000
,
1000
0000
1000
0000
,
1000
0000
0100
0100
,
0100
0000
0100
0000
,
0100
0000
0010
0010
,
0010
0000
0010
0000
,
0010
0000
0001
0001
,
0001
0000
0001
0000
,
2002
0000
3003
0000
,
0001
0000
0001
0000
,
0100
0000
0100
0000
,
0010
0000
0010
0000
,
1000
0000
0001
0000
,
1000
0000
1000
0000
,
0100
0000
0100
0000
,
0010
0000
0001
0000
,
2002
0000
3003
0000
,
1000
0000
0010
0000
,
1000
0000
0010
0000
,
1000
0000
0010
0000
,
1000
0000
1000
0000
,
0001
0000
0010
0000
,
0001
0000
0010
0000
,
0001
0000
0010
0000
,
0001
0000
0001
0000
,
0200
0000
0000
0000
,
0000
0000
0000
0000
,
0300
0000
0000
0000
,
0000
0000
0000
0000
,
0001
0000
1000
0000
,
0001
0000
1000
0000
,
0001
0000
1000
0000
,
2002
0000
3003
0000
,
1000
0000
0100
0000
,
1000
0000
0100
0000
,
0010
0000
0001
0000
,
0010
0000
0001
0000
,
1000
0000
1000
0000
,
0001
0000
0001
0000
,
0100
0000
0100
0000
,
0010
0000
1000
0000
,
0001
0000
0010
0000
,
0001
0000
0010
0000
,
0100
0000
1000
0000
,
0100
0000
1000
0000
,
0001
0000
0001
0000
,
1000
0000
1000
0000
,
0010
0000
0100
0000
,
0010
0010
0010
0000
,
2002
0000
0000
0000
,
3003
0000
0000
0000
;
