#VERSION:0.83;
#TITLE:Stompbox;
#SUBTITLE:;
#ARTIST:The Qemists;
#TITLETRANSLIT:;
#SUBTITLETRANSLIT:;
#ARTISTTRANSLIT:;
#GENRE:Punk Drum & Bass;
#ORIGIN:;
#CREDIT:;
#BANNER:Stompbox.png;
#BACKGROUND:Stompbox-bg.png;
#PREVIEWVID:;
#JACKET:Stompbox-jacket.png;
#CDIMAGE:;
#DISCIMAGE:;
#LYRICSPATH:;
#CDTITLE:cdtitle.png;
#MUSIC:Stompbox.ogg;
#OFFSET:-0.012268;
#SAMPLESTART:43.897980;
#SAMPLELENGTH:10.971428;
#SELECTABLE:YES;
#BPMS:0.000=175.000;
#STOPS:;
#DELAYS:;
#WARPS:;
#TIMESIGNATURES:0.000=4=4;
#TICKCOUNTS:0.000=4;
#COMBOS:0.000=1;
#SPEEDS:0.000=1.000=0.000=0;
#SCROLLS:0.000=1.000;
#FAKES:;
#LABELS:0.000=Song Start;
#BGCHANGES:;
#KEYSOUNDS:;
#ATTACKS:
;

//---------------dance-single - ----------------
#NOTEDATA:;
#CHARTNAME:;
#STEPSTYPE:dance-single;
#DESCRIPTION:;
#CHARTSTYLE:;
#DIFFICULTY:Challenge;
#METER:13;
#RADARVALUES:0.642315,0.711157,0.329425,0.106840,0.106840,505.000000,468.000000,37.000000,12.000000,26.000000,0.000000,0.000000,0.000000,0.000000,0.642315,0.711157,0.329425,0.106840,0.106840,505.000000,468.000000,37.000000,12.000000,26.000000,0.000000,0.000000,0.000000,0.000000;
#CREDIT:;
#NOTES:
0000
0000
0000
0000
,
0000
0000
0000
0000
,
0000
0000
0000
0000
,
0000
0000
0000
0000
,
0000
0000
0000
0000
,
0000
0000
0000
0000
,
0000
0000
0000
1000
1010
0M00
0011
0001
,
0000
0000
0001
0000
0011
0000
0M00
0000
0010
1000
0010
1000
0010
0000
1000
0000
,
1002
0000
0000
M000
0000
0000
0013
0000
0100
0000
0010
0000
0001
0000
0100
0000
,
0010
0100
0001
0001
0101
0000
0010
0000
,
2001
0000
0000
000M
0000
0000
3010
0000
0100
0000
0010
0000
1000
0000
0100
0000
,
0010
0100
1000
1000
1100
0000
0010
0000
,
1002
0000
0000
M000
0000
0000
0103
0000
0010
0000
0100
0000
0001
0000
1000
0000
,
0100
0010
0001
0001
0011
0000
0100
0000
,
2001
0000
0000
000M
0000
0000
3100
0000
0010
0000
0100
0000
1000
0000
0001
0000
,
0100
0000
0010
0000
1000
0000
1000
0000
0001
0100
0001
0100
0001
0100
0001
0100
,
0002
0000
0100
0100
,
0103
0000
0100
0100
,
0102
0000
0100
1000
,
0103
0000
0100
0001
,
2001
0100
0100
0100
,
3001
0010
0010
0010
,
1002
0100
0100
0100
,
1003
0000
0010
1000
0001
0010
0001
1000
,
1001
0000
0010
1000
0100
0001
0100
1000
,
0010
M00M
0010
0001
0100
1000
0100
0001
,
0010
M00M
0010
1000
0100
0001
0100
1000
,
0010
0001
0010
1000
0100
0010
0110
0000
,
0010
0001
1000
0001
0010
0001
1000
0001
,
1000
0010
0001
1000
0100
0001
1000
0010
,
0200
0000
0000
0000
,
0300
0000
0010
1000
0010
1000
0001
0010
,
1001
0000
0001
0100
0010
0010
0010
0100
,
0001
0000
1000
0100
0010
0010
0001
0100
,
1001
0000
1000
0100
0010
0010
0010
0100
,
1000
0000
1000
0010
0001
0001
0010
1000
,
1010
0000
0010
1000
0100
0100
0100
1000
,
0010
0000
0100
0001
0010
0001
0100
0000
,
1010
0000
0000
0000
1000
0000
0000
1000
0100
0000
0010
0000
0011
0000
0000
0000
,
1100
0000
0000
0000
0011
0000
0000
0000
1000
0010
1000
0010
1000
0000
0001
0000
,
1001
0000
1000
0100
0010
0010
0010
0100
,
1000
0000
0001
0100
0010
0010
1000
0100
,
1001
0000
0001
0100
0010
0010
0010
0100
,
0001
0000
0001
0010
1000
1000
0010
0001
,
0011
0000
0010
0001
0100
0100
0100
0001
,
0010
0000
0100
1000
0010
1000
0100
0000
,
0010
0001
1000
0000
0010
1000
0001
0000
,
0010
0000
0001
0100
1010
0000
1000
0000
,
0101
0000
0000
0000
0001
0000
0001
0000
0100
M00M
0100
0000
1000
0000
0001
0000
,
0100
0000
0001
0100
1000
0100
0001
0100
,
0110
0000
0000
0000
1000
0000
1000
0000
0010
M00M
0010
0000
0001
0000
1000
0000
,
0100
0000
0001
0100
1000
0010
0001
0010
,
1010
0000
0000
0000
1000
0000
1000
0000
0100
M00M
0100
0000
0001
0000
1000
0000
,
0100
0000
1000
0100
0001
0100
1000
0100
,
0110
0000
0000
0000
0001
0000
0001
0000
0010
M00M
0010
0000
1000
0000
0001
0000
,
0100
0000
1001
0100
0010
0010
0010
0000
,
1001
0000
0000
0000
1000
0000
0001
0000
0100
M00M
0100
0000
1000
0000
0010
0000
,
0001
0000
0001
0010
1000
0100
0010
0100
,
1001
0000
0000
0000
0001
0000
1000
0000
0100
M00M
0100
0000
0001
0000
0010
0000
,
1000
0000
1000
0010
0001
0100
1000
0000
,
0110
0000
0000
0000
0001
0000
1000
0000
0010
M00M
0010
0000
0001
0000
0010
0000
,
0100
1000
0100
1000
0100
0000
1000
0000
0001
0000
0100
0000
0010
0000
0000
0000
,
2001
0000
0000
000M
0000
0000
3010
0000
0100
0000
0010
0000
1000
0000
0100
0000
,
0010
0100
1000
0001
0200
0000
0300
0000
,
1001
0000
1000
0100
0010
0010
0010
0001
,
0100
0000
0001
0100
0010
0010
0010
1000
,
0100
0000
0010
0001
1000
1000
1000
0001
,
0100
0000
0001
0100
1000
0001
0010
1000
,
0100
0000
0010
0100
1000
1000
1000
0001
,
0100
0000
0010
1000
0100
0010
0001
0000
,
1002
0000
0000
M000
0000
0000
0013
0000
0100
0000
0010
0000
0001
0000
0100
0000
,
0010
0100
0001
0010
1000
0010
0001
0100
,
0010
0000
0010
0000
,
0010
0000
0000
0010
0100
0010
0100
0010
,
1000
0000
1000
0010
0100
0010
0100
0010
,
1000
0000
1000
0010
0100
0010
0100
0010
,
1000
0000
0001
0100
0010
1000
0100
0010
,
0001
0000
0001
0100
0010
1000
0100
0010
,
0001
0000
0001
0100
0010
1000
0100
0010
,
0000
0000
0001
0001
0001
0001
0010
1000
;

//---------------dance-single - 1stMIX Style (SC2019)----------------
#NOTEDATA:;
#CHARTNAME:;
#STEPSTYPE:dance-single;
#DESCRIPTION:1stMIX Style (SC2019);
#CHARTSTYLE:;
#DIFFICULTY:Edit;
#METER:12;
#RADARVALUES:0.609245,0.604483,0.311618,0.000000,0.000000,479.000000,444.000000,35.000000,0.000000,0.000000,0.000000,0.000000,0.000000,0.000000,0.609245,0.604483,0.311618,0.000000,0.000000,479.000000,444.000000,35.000000,0.000000,0.000000,0.000000,0.000000,0.000000,0.000000;
#CREDIT:;
#NOTES:
0000
0000
0000
0000
,
0000
0000
0000
0000
,
0000
0000
0000
0000
,
0000
0000
0000
0000
,
0000
0000
0000
0000
,
0000
0000
0000
0000
,
0000
0000
0000
1000
0010
0000
1000
0001
,
0000
0001
0010
0000
0001
1000
0001
0100
,
0101
0000
0000
1000
0010
1000
0001
1000
,
0010
1000
0100
0000
0101
0000
0100
0000
,
1100
0000
0000
0001
0010
0001
1000
0001
,
0010
0001
0100
0000
1100
0000
0100
0000
,
0101
0000
0000
1000
0010
0100
0010
1000
,
0100
0010
0100
0000
0101
0000
0100
0000
,
1100
0000
0000
0001
0010
0100
0010
0001
,
0100
0010
1000
1000
0001
0100
1000
0100
,
0001
0000
0001
0001
,
0001
0000
0001
0001
,
0001
0000
0001
1000
,
0001
0000
0001
1000
,
0001
0010
1000
0100
,
0001
0010
1000
0100
,
0001
0010
0001
0010
,
0001
0000
1000
0010
1000
0001
0010
0001
,
1001
0000
0010
0001
0001
0001
0010
0001
,
0001
0000
0010
1000
1000
1000
0010
1000
,
1000
0000
0010
0001
0100
1000
0100
0001
,
0010
1000
0010
0001
0100
0010
0110
0000
,
0010
1000
0001
1000
0010
1000
0001
1000
,
0001
0010
1000
0001
0100
1000
0001
0010
,
0100
0000
0000
0000
,
0000
0000
0010
0001
0010
0001
1000
0010
,
1001
0000
0001
0100
0010
0010
0010
0100
,
0001
0000
1000
0100
0010
0010
0001
0100
,
1001
0000
1000
0100
0010
0010
0010
0100
,
1000
0000
1000
0010
0001
0001
0010
1000
,
1010
0000
0010
1000
0100
0100
0100
1000
,
0010
0000
0100
0001
0010
0001
0100
0000
,
1010
1000
1100
0011
,
1100
0000
0011
0000
1000
1000
0010
0000
,
1001
0000
1000
0100
0010
0010
0010
0100
,
1000
0000
0001
0100
0010
0010
1000
0100
,
1001
0000
0001
0100
0010
0010
0010
0100
,
0001
0000
0001
0010
1000
1000
0010
0001
,
0011
0000
0010
0001
0100
0100
0100
0001
,
0010
0000
0100
1000
0010
1000
0100
0000
,
0010
0001
1000
0000
0010
1000
0001
0000
,
0010
0000
0001
0100
1010
0000
1000
0000
,
0101
0000
0001
0001
0100
0010
0100
0000
,
0110
0000
0001
0100
1000
0100
0001
0000
,
0101
0000
1000
1000
0010
0100
0010
1000
,
0100
0000
0001
0100
1000
0010
0001
0010
,
1010
0000
1000
1000
0100
0010
0100
0000
,
0110
0000
1000
0100
0001
0100
1000
0000
,
1001
0000
0001
0001
0010
0100
0010
0001
,
0100
0000
1001
0000
0010
0010
0010
0000
,
1001
0000
1000
0100
0001
0100
0010
0000
,
0011
0000
1000
0010
0001
0010
1000
0000
,
1001
0000
1000
0100
0010
0100
0010
0001
,
0100
0000
1000
0100
0001
0010
1000
0000
,
0110
0000
0001
0100
1000
0100
0010
0100
,
0001
0001
0010
1000
0010
0001
0010
0000
,
1001
0000
0000
0001
0010
0001
1000
0001
,
0010
0001
0100
0010
1000
0000
0000
0000
,
1001
0000
1000
0100
0010
0010
0010
0001
,
0100
0000
0001
0100
0010
0010
0010
1000
,
0100
0000
0010
0001
1000
1000
1000
0001
,
0100
0000
0001
0100
1000
0001
0010
1000
,
0100
0000
0010
0100
1000
1000
1000
0001
,
0100
0000
0010
1000
0100
0010
0001
0000
,
1001
0000
0000
0001
0010
0001
1000
0001
,
0010
0001
0100
0000
1000
0100
0001
0010
,
0100
0000
0100
0000
,
0100
0000
0000
0010
0100
0010
0100
0010
,
0001
0000
0001
0010
0100
0010
0100
0010
,
0001
0000
0001
0010
0100
0010
0100
0010
,
0001
0000
1000
0100
0010
0001
0100
0010
,
1000
0000
1000
0100
0010
0001
0100
0010
,
1000
0000
1000
0100
0010
0001
0100
0010
,
0000
0000
1000
1000
1000
1000
0010
0001
;

//---------------dance-single - ----------------
#NOTEDATA:;
#CHARTNAME:;
#STEPSTYPE:dance-single;
#DESCRIPTION:;
#CHARTSTYLE:;
#DIFFICULTY:Hard;
#METER:10;
#RADARVALUES:0.496045,0.568925,0.320521,0.115744,0.000000,390.000000,354.000000,36.000000,13.000000,0.000000,0.000000,0.000000,0.000000,0.000000,0.496045,0.568925,0.320521,0.115744,0.000000,390.000000,354.000000,36.000000,13.000000,0.000000,0.000000,0.000000,0.000000,0.000000;
#CREDIT:;
#NOTES:
0000
0000
0000
0000
,
0000
0000
0000
0000
,
0000
0000
0000
0000
,
0000
0000
0000
0000
,
0000
0000
0000
0000
,
0000
0000
0000
0000
,
0000
0000
0000
1000
0010
0000
0010
1000
,
0000
0001
0010
0000
0100
0000
0010
0000
,
0021
0000
0000
0130
1000
0000
0010
0000
,
1000
0010
0100
0000
0101
0000
0010
0000
,
1020
0000
0000
0130
0001
0000
0010
0000
,
0001
0010
0100
0000
1100
0000
0010
0000
,
0012
0000
0000
0103
0010
0000
0100
0000
,
0001
0010
0100
0000
0011
0000
1000
0000
,
2010
0000
0000
3100
0010
0000
0100
0000
,
1000
0010
0100
0000
0001
0010
0100
1000
,
0002
0000
0000
0000
,
0003
0000
0000
0000
,
2000
0000
0000
0000
,
3000
0000
0000
0000
,
2000
0010
0010
0010
,
3001
0100
0100
0100
,
0002
0010
0010
0010
,
1003
0000
0100
0010
0001
1000
0100
0000
,
1001
0000
0001
0010
0001
0000
0001
0100
,
0001
0000
1000
0010
1000
0000
1000
0100
,
1000
0000
0100
1000
0010
0000
0100
0001
,
0010
0000
0100
1000
0010
0000
0110
0000
,
1000
0010
1000
0000
0001
0010
0001
0000
,
1001
0000
0001
0100
0000
1000
0100
0000
,
0002
0000
0000
0000
,
0003
0000
0100
0010
0100
0010
0100
0000
,
1001
0000
0001
0000
1000
0100
1000
0100
,
1000
0000
0001
0000
1000
0010
0100
0010
,
1000
0000
0001
0000
1000
0100
1000
0100
,
1000
0000
0001
0100
0010
1000
0100
0000
,
0110
0000
0001
0000
0100
0010
0100
0010
,
0100
0000
0010
0000
1000
0100
0010
0000
,
0011
0001
0101
1100
,
0101
0000
1100
0000
0001
1000
0001
0000
,
1001
0000
1000
0000
0001
0100
0001
0100
,
0001
0000
1000
0000
0001
0010
0100
0010
,
0001
0000
1000
0000
0001
0100
0001
0100
,
0001
0000
1000
0100
0010
0001
0100
0000
,
0110
0000
1000
0000
0100
0010
0100
0010
,
0100
0000
0010
0000
0001
0100
0010
0000
,
1000
0100
0001
0100
,
1000
0100
1001
0000
,
1001
0000
0010
1000
0001
0000
0001
1000
,
0100
0000
1100
0000
0010
0001
1000
0000
,
1001
0000
0010
0001
1000
0000
1000
0001
,
0100
0000
0010
1000
0001
0100
0010
0000
,
0110
0000
0001
0100
0001
0000
1000
0100
,
1000
0000
1001
0000
0100
0010
0100
0000
,
1001
0000
1000
0010
1000
0000
0001
0010
,
0001
0000
1000
0000
1000
1000
1000
0000
,
0101
0000
0010
1000
0100
0000
0010
0001
,
0100
0000
0110
0000
1000
0001
0010
0000
,
1100
0000
0010
0001
0100
0000
0010
1000
,
0100
0000
0010
0001
1000
0100
0010
0000
,
0011
0000
1000
0001
0100
0000
0001
1000
,
0100
0000
1000
0001
1000
0001
1000
0000
,
1020
0000
0000
0130
0001
0000
0010
0000
,
0001
0010
0100
0000
2200
0000
3300
0000
,
0101
0000
0000
0000
1000
0010
1000
0010
,
0100
0000
0000
0000
0010
1000
0001
0010
,
0001
0000
0000
0000
0001
0010
0001
0010
,
0100
0000
0010
0001
0100
0000
0010
1000
,
0100
0000
0000
0000
1000
0001
1000
0001
,
0100
0000
0000
0000
0001
1000
0100
0000
,
0021
0000
0000
0130
1000
0000
0010
0000
,
1000
0010
0100
0000
0101
0000
1100
0000
,
0001
0000
0001
0000
,
0001
0000
0001
0001
,
1000
0000
0001
0001
,
1000
0000
0001
0001
,
1000
0000
0000
0001
1000
0001
1000
0001
,
0100
0000
0000
0001
1000
0001
1000
0001
,
0100
0000
0000
0001
1000
0001
1000
0001
,
0000
0000
1000
0100
1000
0100
0010
0001
;

//---------------dance-single - ----------------
#NOTEDATA:;
#CHARTNAME:;
#STEPSTYPE:dance-single;
#DESCRIPTION:;
#CHARTSTYLE:;
#DIFFICULTY:Medium;
#METER:8;
#RADARVALUES:0.400652,0.497810,0.365038,0.124647,0.000000,315.000000,274.000000,41.000000,14.000000,0.000000,0.000000,0.000000,0.000000,0.000000,0.400652,0.497810,0.365038,0.124647,0.000000,315.000000,274.000000,41.000000,14.000000,0.000000,0.000000,0.000000,0.000000,0.000000;
#CREDIT:;
#NOTES:
0000
0000
0000
0000
,
0000
0000
0000
0000
,
0000
0000
0000
0000
,
0000
0000
0000
0000
,
0000
0000
0000
0000
,
0000
0000
0000
0000
,
0000
0000
1010
0011
,
0000
1010
0011
1010
,
2001
0000
0000
3001
0010
0000
0100
0000
,
0010
0100
1000
0010
,
1002
0000
0000
1003
0010
0000
0100
0000
,
0010
0100
0001
0010
,
2001
0000
0000
3100
0010
0000
0100
0000
,
1000
0001
0100
0010
,
1002
0000
0000
0103
0010
0000
0100
0000
,
0001
1000
0100
0010
,
0012
0000
0000
0000
,
0003
0000
0000
0000
,
0002
0000
0000
0000
,
0003
0000
0000
0000
,
0002
0000
1000
1000
,
1003
0000
1000
1000
,
2000
0000
0001
0001
,
3001
0000
0000
0000
,
1001
0000
0001
0100
0001
0000
0010
0000
,
0001
0000
1000
0100
1000
0000
0010
0000
,
1000
0000
0001
0010
0001
0000
1000
0010
,
1000
0000
0001
0010
0001
0000
0110
0000
,
1000
0001
0100
0010
,
1001
0000
0000
0110
0000
0000
1001
0000
,
0200
0000
0000
0000
,
0300
0010
0010
0010
,
1001
0000
0000
0001
0100
0000
0100
0000
,
1000
0000
0000
1000
0100
0000
0001
0000
,
0101
0000
0000
1000
0010
0000
0010
0000
,
0001
0000
0010
0100
0010
0000
1000
0000
,
1001
0000
0000
0001
0010
0000
0010
0000
,
0100
0000
0000
1000
0010
0000
0010
0000
,
0202
0303
0001
1000
,
1100
1100
0011
1100
,
1001
0000
0000
1000
0100
0000
0100
0000
,
0001
0000
0000
0001
0100
0000
1000
0000
,
1100
0000
0000
0001
0010
0000
0010
0000
,
1000
0000
0010
0100
0010
0000
0001
0000
,
1001
0000
0000
1000
0010
0000
0010
0000
,
0100
0000
0000
0001
0010
0000
0010
0000
,
0200
1000
0010
0010
,
0001
0310
1100
0000
,
0001
0100
0001
0100
,
1000
0000
0100
0010
0100
0000
0001
0000
,
1000
0010
1000
0010
,
0001
0000
0010
1000
0001
0000
1000
0000
,
0100
0001
0100
0001
,
0100
0000
1000
0100
1000
0000
0001
0000
,
0100
0010
0100
0001
,
0010
0010
1001
1001
,
1000
0100
1000
0100
,
0001
0000
0100
0010
0100
0000
1000
0000
,
0001
0010
0001
0010
,
1000
0000
0010
0001
1000
0000
0001
0000
,
0100
1000
0100
1000
,
0100
0000
0001
0100
0001
0000
0010
0000
,
1002
0000
0000
1003
0010
0000
0100
0000
,
0010
0100
0001
0010
,
1001
0000
0000
1000
0010
0000
0010
0000
,
1000
0000
0000
0001
0010
0000
0010
0000
,
1100
0000
0000
0001
0010
0000
0010
0000
,
0100
0000
1000
0010
1000
0000
0010
0000
,
1010
0000
0000
0001
0100
0000
0100
0000
,
0010
0000
0000
1000
0100
0000
0100
0000
,
2001
0000
0000
3001
0010
0000
0100
0000
,
0010
0100
1000
0010
,
0110
0000
0100
0000
,
0100
0000
0100
0100
,
0100
0000
0100
0100
,
0100
0000
0100
0100
,
0100
0000
1001
1001
,
0100
0000
1001
1001
,
0100
0000
1001
1001
,
0000
0000
1000
0001
1000
0001
1000
0001
;

//---------------dance-single - ----------------
#NOTEDATA:;
#CHARTNAME:;
#STEPSTYPE:dance-single;
#DESCRIPTION:;
#CHARTSTYLE:;
#DIFFICULTY:Easy;
#METER:6;
#RADARVALUES:0.311618,0.355022,0.160261,0.151357,0.000000,245.000000,227.000000,18.000000,17.000000,0.000000,0.000000,0.000000,0.000000,0.000000,0.311618,0.355022,0.160261,0.151357,0.000000,245.000000,227.000000,18.000000,17.000000,0.000000,0.000000,0.000000,0.000000,0.000000;
#CREDIT:;
#NOTES:
0000
0000
0000
0000
,
0000
0000
0000
0000
,
0000
0000
0000
0000
,
0000
0000
0000
0000
,
0000
0000
0000
0000
,
0000
0000
0000
0000
,
0000
0000
0010
0010
,
0000
0010
0010
0010
,
2001
0000
3001
0010
,
0100
0010
0001
0001
,
1002
0000
1003
0010
,
0100
0010
1000
1000
,
2001
0000
3100
0010
,
0001
0100
0010
1000
,
1002
0000
0103
0010
,
1000
0100
0010
0001
,
0012
0000
0000
0000
,
0003
0000
0000
0000
,
0002
0000
0000
0000
,
0003
0000
0000
0000
,
0002
0000
1000
1000
,
1003
0000
1000
1000
,
2000
0000
0001
0001
,
3001
0000
0000
0000
,
1000
0010
0100
0001
,
0010
0001
0100
0010
,
1000
0100
1000
0010
,
0100
0001
0010
1001
,
1000
1000
0001
0001
,
1000
0001
1000
0001
,
0020
0000
0000
0000
,
0030
0010
0010
0010
,
1001
0000
0001
0100
,
0010
0000
1000
0010
,
1001
0000
0001
0100
,
0010
1000
0100
0010
,
1001
0000
0001
0100
,
0010
0000
0010
1000
,
2002
3003
0001
0010
,
1000
0010
0001
0100
,
1001
0000
1000
0100
,
0010
0000
0001
0010
,
1001
0000
1000
0100
,
0010
0001
0100
0010
,
1001
0000
1000
0100
,
0010
0000
0010
0001
,
0200
0010
0000
0010
,
0000
0310
1001
0000
,
1000
0100
1000
0100
,
1000
0000
0010
1000
,
0001
0100
0001
0100
,
0001
0010
0002
0003
,
1000
0010
1000
0010
,
1000
0000
0100
1000
,
0001
0010
0001
0010
,
0001
0100
1001
0000
,
1000
0010
0001
0010
,
1000
0000
0100
1000
,
0001
0010
1000
0010
,
0001
0100
0002
0003
,
1000
0100
0001
0100
,
1000
1000
0010
0000
,
2001
0000
3001
0010
,
0100
0010
0002
0003
,
1001
0000
0001
0100
,
1000
0000
1000
0100
,
0001
0000
0001
0010
,
1000
1000
0010
0001
,
1000
0000
0010
1000
,
0100
0000
0010
0001
,
1002
0000
1003
0010
,
0100
0010
1000
0100
,
0010
0000
0010
0000
,
0010
0000
0010
0010
,
0010
0000
0010
0010
,
0010
0000
0010
0010
,
0010
0000
0001
0100
,
1000
0000
0001
0100
,
1000
0000
0001
0100
,
0000
0010
0010
0010
;

//---------------dance-single - ----------------
#NOTEDATA:;
#CHARTNAME:;
#STEPSTYPE:dance-single;
#DESCRIPTION:;
#CHARTSTYLE:;
#DIFFICULTY:Beginner;
#METER:3;
#RADARVALUES:0.204778,0.280456,0.080130,0.044517,0.000000,161.000000,152.000000,9.000000,5.000000,0.000000,0.000000,0.000000,0.000000,0.000000,0.204778,0.280456,0.080130,0.044517,0.000000,161.000000,152.000000,9.000000,5.000000,0.000000,0.000000,0.000000,0.000000,0.000000;
#CREDIT:;
#NOTES:
0000
0000
0000
0000
,
0000
0000
0000
0000
,
0000
0000
0000
0000
,
0000
0000
0000
0000
,
0000
0000
0000
0000
,
0000
0000
0000
0000
,
0000
0000
0000
0000
,
0000
0000
0000
0000
,
1001
0000
0001
0000
,
0010
0010
0010
0000
,
1001
0000
1000
0000
,
0010
0010
0010
0000
,
1001
0000
1000
0000
,
0100
0100
0100
0000
,
1001
0000
0001
0000
,
0100
0100
0100
0000
,
0020
0000
0000
0000
,
0030
0000
0000
0000
,
0020
0000
0000
0000
,
0030
0000
0000
0000
,
2000
0000
0000
0000
,
3000
0000
0000
0000
,
0002
0000
0000
0000
,
0003
0000
0000
0000
,
0010
0000
0010
0000
,
0010
0000
0010
0000
,
0010
0000
0010
0000
,
0010
0010
0010
0000
,
0001
0000
1000
0000
,
0010
0000
0010
0000
,
0020
0000
0000
0000
,
0030
0000
0000
0000
,
1001
0000
0001
0001
,
0001
0000
1000
1000
,
1000
0000
0001
0001
,
0001
0000
0010
0010
,
0010
0000
0001
0001
,
0001
0000
1000
1000
,
1000
0000
0010
0000
,
0010
0010
0010
0000
,
1001
0000
1000
1000
,
1000
0000
0001
0001
,
0001
0000
1000
1000
,
1000
0000
0100
0100
,
0100
0000
1000
1000
,
1000
0000
0001
0001
,
0001
0000
1000
0000
,
0001
0000
1000
0000
,
0010
0000
0010
0000
,
0010
0000
0100
0100
,
0100
0000
0100
0000
,
0100
0000
0010
0010
,
0010
0000
0010
0000
,
0010
0000
0100
0100
,
0100
0000
0100
0000
,
0001
0000
1000
0000
,
0100
0000
0100
0000
,
0100
0000
0010
0010
,
0010
0000
0010
0000
,
0010
0000
0100
0100
,
0100
0000
0100
0000
,
0100
0000
0010
0000
,
1001
0000
0001
0000
,
1000
1000
1000
0000
,
1001
0000
0001
0001
,
0001
0000
0010
0010
,
0010
0000
0100
0100
,
0100
0000
1000
1000
,
1000
0000
0010
0010
,
0010
0000
0100
0000
,
1001
0000
1000
0000
,
0001
0001
0001
0000
,
0010
0000
0000
0000
,
0000
0000
0000
0000
,
0000
0000
0000
0000
,
0000
0000
0000
0000
,
0000
0000
0010
0100
,
0010
0000
0010
0100
,
0010
0000
0010
0100
;
