#VERSION:0.83;
#TITLE:Still Winter;
#SUBTITLE:;
#ARTIST:CROW'SCLAW;
#TITLETRANSLIT:;
#SUBTITLETRANSLIT:;
#ARTISTTRANSLIT:;
#GENRE:Touhou Metal;
#ORIGIN:;
#CREDIT:;
#BANNER:Still Winter.png;
#BACKGROUND:Still Winter-bg.png;
#PREVIEWVID:;
#JACKET:Still Winter-jacket.png;
#CDIMAGE:;
#DISCIMAGE:;
#LYRICSPATH:;
#CDTITLE:cdtitle.png;
#MUSIC:Still Winter.ogg;
#OFFSET:-0.302928;
#SAMPLESTART:55.478340;
#SAMPLELENGTH:11.034485;
#SELECTABLE:YES;
#BPMS:0.000=174.000;
#STOPS:;
#DELAYS:;
#WARPS:;
#TIMESIGNATURES:0.000=4=4;
#TICKCOUNTS:0.000=4;
#COMBOS:0.000=1;
#SPEEDS:0.000=1.000=0.000=0;
#SCROLLS:0.000=1.000;
#FAKES:;
#LABELS:0.000=Song Start;
#BGCHANGES:;
#KEYSOUNDS:;
#ATTACKS:
;

//---------------dance-single - ----------------
#NOTEDATA:;
#CHARTNAME:;
#STEPSTYPE:dance-single;
#DESCRIPTION:;
#CHARTSTYLE:;
#DIFFICULTY:Challenge;
#METER:14;
#RADARVALUES:0.689433,0.838794,0.605513,0.614550,1.152282,534.000000,467.000000,67.000000,68.000000,0.000000,0.000000,0.000000,0.000000,0.000000,0.689433,0.838794,0.605513,0.614550,1.152282,534.000000,467.000000,67.000000,68.000000,0.000000,0.000000,0.000000,0.000000,0.000000;
#CREDIT:;
#NOTES:
// measure 0
0000
0000
0000
0000
,  // measure 1
0000
0000
0000
0000
,  // measure 2
0000
0000
0000
0000
,  // measure 3
0000
0000
0000
0000
,  // measure 4
2002
0000
0000
0000
,  // measure 5
0000
0000
0000
3003
,  // measure 6
0110
0000
0110
0000
0000
1000
0010
0100
0001
0100
0001
0100
,  // measure 7
0010
0100
0001
0100
0001
0100
0001
1000
0100
0010
0000
0000
,  // measure 8
0011
0000
0001
0010
0000
1002
0000
0000
0013
0001
0000
0201
,  // measure 9
0000
0000
0301
0010
0000
1002
0000
0000
0013
0001
0100
0010
,  // measure 10
1000
0000
1000
0010
0000
2001
0000
0000
3010
1000
0000
1200
,  // measure 11
0000
0000
1300
0010
0000
2001
0000
0000
3100
1000
0010
0100
,  // measure 12
0001
0000
1000
0100
0000
0210
0000
0000
0301
0100
0000
0120
,  // measure 13
0000
0000
0130
1000
0000
1002
0000
0000
0013
0001
0100
0010
,  // measure 14
1000
0000
0001
0100
0000
0210
0000
0000
1300
0100
0000
0120
,  // measure 15
0000
0000
0130
0001
0000
0001
0010
0100
1000
0010
0000
0000
,  // measure 16
2001
0000
0000
3010
0000
0010
1000
0000
1000
0100
0000
0100
,  // measure 17
0010
0000
0100
0010
0000
0100
0010
0000
0100
1000
0000
0010
,  // measure 18
2000
0000
0000
3010
0000
0010
0001
0000
0001
1000
0000
1000
,  // measure 19
0100
0000
0001
0100
0000
0001
0100
0000
0001
0010
0000
0000
,  // measure 20
0021
0000
0000
0130
0000
0010
0001
0000
0001
1000
0000
1000
,  // measure 21
0010
0000
1000
0010
0000
1000
0010
0000
0010
0100
0000
0100
,  // measure 22
0002
0000
0000
0013
0000
0100
1000
0000
1000
0010
0000
0201
,  // measure 23
0000
0000
0310
0100
0001
1000
1001
0000
0000
1100
0000
0000
,  // measure 24
1002
0000
0000
0013
0000
0010
0001
0000
0001
0100
0000
0100
,  // measure 25
0010
0000
0100
0010
0000
0100
0010
0000
0100
0001
0000
0010
,  // measure 26
0002
0000
0000
0013
0000
0010
1000
0000
1000
0001
0000
0001
,  // measure 27
0100
0000
1000
0100
0000
1000
0100
0000
1000
0010
0000
0000
,  // measure 28
1020
0000
0000
0130
0000
0010
1000
0000
1000
0001
0000
0001
,  // measure 29
0010
0000
0001
0010
0000
0001
0010
0000
0010
0100
0000
0100
,  // measure 30
2000
0000
0000
3010
0000
0100
0001
0000
0001
0010
0000
1200
,  // measure 31
0000
0000
0301
0100
0010
0100
1000
0001
0100
0010
0000
0000
,  // measure 32
0202
0000
0000
0000
,  // measure 33
0000
0000
0000
0000
0000
0000
0303
0000
0001
0010
0000
0000
,  // measure 34
2200
0000
0000
0000
0000
0000
0000
0000
0000
3300
0000
1000
,  // measure 35
0100
0010
0001
0100
0001
0100
0001
0100
0001
0010
0000
0000
,  // measure 36
1001
0000
1001
0000
0000
0001
0100
0001
1000
0100
1000
0001
,  // measure 37
0010
0001
0100
0010
1000
0010
1000
0010
1000
0001
0100
0001
,  // measure 38
2002
0000
0000
3003
0000
1000
0100
0010
0100
0010
0100
0010
,  // measure 39
0100
0010
0100
0010
0100
0010
0100
0010
0100
0010
0100
0010
,  // measure 40
1002
0000
0000
0013
0000
0010
0001
0000
0001
0100
0000
0100
,  // measure 41
1000
0000
1000
0100
0000
0100
0001
0000
0001
0010
0000
0000
,  // measure 42
2100
0000
0000
3001
0000
0001
0010
0000
0010
1000
0000
1000
,  // measure 43
0010
0000
0010
0001
0000
0102
0000
0000
1003
0100
0000
0000
,  // measure 44
0012
0000
0000
1003
0000
1000
0010
0000
0010
0100
0000
0100
,  // measure 45
1000
0000
1000
0100
0000
0100
0001
0000
0001
0010
0000
0000
,  // measure 46
0012
0000
0000
1003
0000
1000
0010
0000
1000
0100
0000
2001
,  // measure 47
0000
0000
3001
0100
0000
1002
0000
0000
1003
0100
0000
0000
,  // measure 48
2001
0000
0000
3010
0000
0010
1000
0000
1000
0100
0000
0100
,  // measure 49
0001
0000
0001
0100
0000
0100
1000
0000
1000
0010
0000
0000
,  // measure 50
0102
0000
0000
1003
0000
1000
0010
0000
0010
0001
0000
0001
,  // measure 51
0010
0000
0010
1000
0000
2100
0000
0000
3001
0100
0000
0000
,  // measure 52
2010
0000
0000
3001
0000
0001
0010
0000
0010
0100
0000
0100
,  // measure 53
0001
0000
0001
0100
0000
0100
1000
0000
1000
0010
0000
0000
,  // measure 54
2010
0000
0000
3001
0000
0001
0010
0000
0001
0100
0000
2010
,  // measure 55
0000
0000
3100
0010
0000
0012
0000
0000
0103
0010
0000
1000
,  // measure 56
0100
0000
1000
0010
0000
2001
0000
0000
3010
1000
0000
1200
,  // measure 57
0000
0000
1300
0010
0000
2001
0000
0000
3010
1000
0100
0010
,  // measure 58
0001
0000
0001
0010
0000
1002
0000
0000
0013
0001
0000
0201
,  // measure 59
0000
0000
0301
0010
0000
1002
0000
0000
0103
0001
0010
0100
,  // measure 60
1000
0000
0001
0100
0000
0210
0000
0000
1300
0100
0000
0120
,  // measure 61
0000
0000
0130
0001
0000
2001
0000
0000
3010
1000
0100
0010
,  // measure 62
0001
0000
1000
0100
0000
0210
0000
0000
0301
0100
0000
0120
,  // measure 63
0000
0000
0130
1000
0000
1000
0010
0100
0001
0010
0100
1000
,  // measure 64
0001
0000
1000
0010
0000
0102
0000
0000
1003
0100
0000
0012
,  // measure 65
0000
0000
0103
0010
0000
1002
0000
0000
0103
1000
0100
0010
,  // measure 66
1000
0000
0001
0010
0000
2100
0000
0000
3001
0100
0000
2010
,  // measure 67
0000
0000
3100
0010
0000
2001
0000
0000
3100
0001
0100
0010
,  // measure 68
0001
0000
1000
0010
0000
0120
0000
0000
0031
0010
0000
2010
,  // measure 69
0000
0000
3001
0010
0000
0210
0000
0000
0301
0100
1000
0010
,  // measure 70
1000
0000
0001
0010
0000
0120
0000
0000
1030
0010
0000
0012
,  // measure 71
0000
0000
0103
0001
0000
2010
0000
0000
3000
0011
0000
0000
,  // measure 72
2200
0000
0000
0000
,  // measure 73
0000
0000
0000
0000
,  // measure 74
0300
3000
0000
0000
;

//---------------dance-single - ----------------
#NOTEDATA:;
#CHARTNAME:;
#STEPSTYPE:dance-single;
#DESCRIPTION:;
#CHARTSTYLE:;
#DIFFICULTY:Hard;
#METER:11;
#RADARVALUES:0.560325,0.603931,1.084501,1.120651,0.537732,434.000000,314.000000,120.000000,124.000000,0.000000,0.000000,0.000000,0.000000,0.000000,0.560325,0.603931,1.084501,1.120651,0.537732,434.000000,314.000000,120.000000,124.000000,0.000000,0.000000,0.000000,0.000000,0.000000;
#CREDIT:;
#NOTES:
0000
0000
0000
0000
,
0000
0000
0000
0000
,
0000
0000
0000
0000
,
0000
0000
0000
0000
,
2002
0000
0000
0000
,
0000
0000
0000
3003
,
0110
0000
0110
0000
0000
0000
1001
0000
0000
0010
0000
0000
,
1001
0100
0001
1001
,
1000
0000
0000
1010
0000
0220
0000
0330
0000
0110
0000
0202
,
0000
0303
0000
0101
0000
2002
0000
3003
0000
1100
0000
0010
,
0001
0000
0000
0011
0000
0220
0000
0330
0000
0110
0000
2200
,
0000
3300
0000
1100
0000
2002
0000
3003
0000
0101
0000
0010
,
1000
0000
0000
1010
0000
2002
0000
3003
0000
0011
0000
2002
,
0000
3003
0000
0101
0000
0220
0000
0330
0000
1010
0000
0100
,
0001
0000
0000
0011
0000
2002
0000
3003
0000
1010
0000
2002
,
0000
3003
0000
1100
0000
0210
0000
0000
0310
0001
0000
0001
,
2000
0000
0000
3010
0000
2000
0000
0000
3010
1000
0000
0200
,
0000
0000
0000
0010
0000
0000
0310
0000
0100
1000
0000
1000
,
0002
0000
0000
0013
0000
0002
0000
0000
0013
0001
0000
0200
,
0000
0000
0000
0010
0000
0000
0310
0000
1000
0001
0000
0000
,
2000
0000
0000
3100
0000
2000
0000
0000
3100
1000
0000
0002
,
0000
0000
0000
0100
0000
0000
0103
0000
0010
1000
0000
1000
,
0002
0000
0000
0103
0000
0002
0000
0000
0013
0001
0000
2001
,
0000
3010
1010
0011
,
2010
0000
0000
3001
0000
0020
0000
0000
0031
0100
0000
0200
,
0000
0000
0000
1000
0000
0000
1300
0000
1000
0100
0000
0100
,
0002
0000
0000
1003
0000
0020
0000
0000
1030
0100
0000
0200
,
0000
0000
0000
0001
0000
0000
0301
0000
0100
0010
0000
0000
,
0200
0000
0000
1300
0000
0002
0000
0000
0103
0010
0000
0200
,
0000
0000
0000
1000
0000
0000
0301
0000
0100
0010
0000
0010
,
2000
0000
0000
3001
0000
0020
0000
0000
0130
0010
0000
2001
,
0000
3100
0011
1001
,
0202
0000
0000
0000
,
0000
0000
0303
0101
,
2200
0000
0000
3300
,
1100
0010
0001
0101
,
1001
0000
1001
0000
0000
0000
1000
0000
0000
0100
0000
0000
,
1001
0010
0001
0100
,
1002
0000
0100
0100
,
0100
0000
0000
0100
0000
0000
0103
0000
0100
0010
0000
0000
,
2001
0000
0000
3010
0000
1000
0001
0000
1000
0001
0000
1000
,
0200
0000
0000
0001
0000
0000
0010
0000
1300
0100
0000
0000
,
0012
0000
0000
1003
0000
0010
0100
0000
0010
0100
0000
0010
,
2000
0000
0000
3010
0000
1010
0000
0000
0000
0011
0000
0000
,
1020
0000
0000
0130
0000
0001
1000
0000
0001
1000
0000
0001
,
0020
0000
0000
1000
0000
0000
0100
0000
0031
0010
0000
0000
,
0210
0000
0000
1300
0000
0001
0100
0000
0001
0100
0000
0202
,
0000
0303
0000
1001
0000
2200
0000
3300
0000
1100
0000
0000
,
1002
0000
0000
0013
0000
0001
1000
0000
0001
1000
0000
0001
,
0200
0000
0000
1000
0000
0000
0010
0000
0301
0100
0000
0000
,
2010
0000
0000
3001
0000
0010
0100
0000
0010
0100
0000
0010
,
0002
0000
0000
0013
0000
0011
0000
0000
0000
1010
0000
0000
,
0021
0000
0000
0130
0000
1000
0001
0000
1000
0001
0000
1000
,
0020
0000
0000
0001
0000
0000
0100
0000
1030
0010
0000
0000
,
0210
0000
0000
0301
0000
2000
0000
0000
3100
0010
0000
0120
,
0000
0000
0000
0130
0000
1002
0000
0000
0103
0010
0000
0010
,
1000
0000
0000
1100
0000
0220
0000
0330
0000
0110
0000
0022
,
0000
0033
0000
0011
0000
2002
0000
3003
0000
1010
0000
0100
,
0001
0000
0000
0101
0000
0220
0000
0330
0000
0110
0000
2020
,
0000
3030
0000
1010
0000
2002
0000
3003
0000
0011
0000
0100
,
1000
0000
0000
1100
0000
2002
0000
3003
0000
0101
0000
2002
,
0000
3003
0000
0011
0000
0220
0000
0330
0000
1100
0000
0010
,
0001
0000
0000
0101
0000
2002
0000
3003
0000
1100
0000
2002
,
0000
3003
0000
1010
0000
0120
0000
0000
0000
1030
0000
1000
,
0001
0000
0000
0011
0000
2002
0000
3003
0000
1001
0000
0202
,
0000
0303
0000
0101
0000
0220
0000
0330
0000
0100
0000
0001
,
0010
0000
0000
1010
0000
2002
0000
3003
0000
1001
0000
2200
,
0000
3300
0000
1100
0000
0220
0000
0330
0000
0100
0000
1000
,
0010
0000
0000
0011
0000
2002
0000
3003
0000
1010
0000
0202
,
0000
0303
0000
0011
0000
2200
0000
3300
0000
1000
0000
0001
,
0010
0000
0000
1010
0000
2002
0000
3003
0000
0011
0000
2020
,
0000
3030
0000
1010
0000
0022
0000
0033
0000
1001
0000
0000
,
0202
0000
0000
0000
,
0000
0000
0000
0000
,
0300
0003
0000
0000
;

//---------------dance-single - ----------------
#NOTEDATA:;
#CHARTNAME:;
#STEPSTYPE:dance-single;
#DESCRIPTION:;
#CHARTSTYLE:;
#DIFFICULTY:Medium;
#METER:8;
#RADARVALUES:0.418307,0.503276,0.551288,0.723000,0.320831,324.000000,263.000000,61.000000,80.000000,0.000000,0.000000,0.000000,0.000000,0.000000,0.418307,0.503276,0.551288,0.723000,0.320831,324.000000,263.000000,61.000000,80.000000,0.000000,0.000000,0.000000,0.000000,0.000000;
#CREDIT:;
#NOTES:
0000
0000
0000
0000
,
0000
0000
0000
0000
,
0000
0000
0000
0000
,
0000
0000
0000
0000
,
2002
0000
0000
0000
,
0000
0000
0000
3003
,
0110
0000
0110
0000
0000
0000
1001
0000
0000
0010
0000
0000
,
1001
0100
1000
0110
,
1001
0000
0000
0001
0000
0020
0000
0000
0030
0001
0000
2000
,
0000
0000
3000
0001
0000
0200
0000
0000
0300
0001
0000
0000
,
0001
0000
0000
1000
0000
0020
0000
0000
0030
1000
0000
0002
,
0000
0000
0003
1000
0000
0200
0000
0000
0300
1000
0000
0000
,
1000
0000
0000
0010
0000
0200
0000
0000
0300
0010
0000
2000
,
0000
0000
3000
0100
0000
0020
0000
0000
0030
0001
0000
0000
,
0001
0000
0000
0010
0000
0200
0000
0000
0300
0010
0000
0002
,
0000
0000
0003
0100
0000
0020
0000
0000
0030
1000
0000
0000
,
1001
0010
1000
0010
,
0002
0100
0103
0101
,
1100
0001
0010
0001
,
2000
0010
3010
1010
,
0011
0100
1000
0010
,
0200
0001
0301
0101
,
1100
0000
0000
0001
0000
0000
0100
0000
0000
1001
0000
2001
,
0000
3100
0011
1100
,
1001
0010
0001
0010
,
2000
0100
3100
1100
,
0101
1000
0010
1000
,
0002
0010
0013
0011
,
1010
0100
0001
0010
,
0200
1000
1300
1100
,
0101
0000
0000
1000
0000
0000
0100
0000
0000
1001
0000
1002
,
0000
0000
0000
0103
0000
0000
1001
0000
0100
0010
0000
0000
,
2002
0000
0000
0000
,
0000
0000
3003
1001
,
0220
0000
0000
0330
,
0110
0001
1000
0110
,
1001
0000
1001
0000
0000
0000
0001
0000
0000
0100
0000
0000
,
1001
0010
1000
0100
,
2001
0000
0010
0010
,
0010
0010
3010
0110
,
2001
0000
0000
3010
0000
2000
0000
0000
3010
1000
0000
0002
,
0000
0010
0013
1100
,
0012
0000
0000
1003
0000
0020
0000
0000
0130
0010
0000
2000
,
0000
0000
0000
3000
0000
1001
0000
0000
1000
0001
0000
0000
,
2001
0000
0000
3100
0000
2000
0000
0000
3100
1000
0000
0002
,
0000
0100
0103
1010
,
0102
0000
0000
0013
0000
0200
0000
0000
1300
0010
0000
2020
,
0000
0000
3030
0000
0000
0021
0000
0000
0000
0130
0000
0000
,
1002
0000
0000
0013
0000
0002
0000
0000
0013
0001
0000
2000
,
0000
0010
3010
0101
,
2010
0000
0000
3001
0000
0020
0000
0000
0130
0010
0000
0002
,
0000
0000
0000
0003
0000
1001
0000
0000
0001
1000
0000
0000
,
1002
0000
0000
0103
0000
0002
0000
0000
0103
0001
0000
2000
,
0000
0100
3100
0011
,
2100
0000
0000
3001
0000
0200
0000
0000
0310
1000
0000
2020
,
0000
0000
3030
0000
0000
1001
0000
0000
0000
0011
0000
0000
,
1001
0000
0000
0001
0000
0200
0000
0000
0300
0001
0000
2000
,
0000
0000
3000
0001
0000
0020
0000
0000
0030
0001
0000
0000
,
0001
0000
0000
1000
0000
0200
0000
0000
0300
1000
0000
0002
,
0000
0000
0003
1000
0000
0020
0000
0000
0030
1000
0000
0000
,
1000
0000
0000
0100
0000
0020
0000
0000
0030
0100
0000
2000
,
0000
0000
3000
0010
0000
0200
0000
0000
0300
0001
0000
0000
,
0001
0000
0000
0100
0000
0020
0000
0000
0030
0100
0000
0002
,
0000
0000
0003
0010
0000
0200
0000
0000
0300
1000
0000
0000
,
0001
0000
0000
1000
0000
0020
0000
0000
0030
0100
0000
0020
,
0000
0000
0030
0001
0000
0020
0000
0000
0030
1000
0000
0000
,
1000
0000
0000
0001
0000
0020
0000
0000
0030
0100
0000
0020
,
0000
0000
0030
1000
0000
0020
0000
0000
0030
0001
0000
0000
,
0001
0000
0000
1000
0000
0020
0000
0000
0030
0100
0000
0002
,
0000
0000
0003
1000
0000
0200
0000
0000
0300
0010
0000
0000
,
0010
0000
0000
0001
0000
0200
0000
0000
0300
0010
0000
2001
,
0000
0000
3000
0100
0000
1002
0000
0000
0003
0100
0000
0000
,
2002
0000
0000
0000
,
0000
0000
0000
0000
,
3000
0003
0000
0000
;

//---------------dance-single - ----------------
#NOTEDATA:;
#CHARTNAME:;
#STEPSTYPE:dance-single;
#DESCRIPTION:;
#CHARTSTYLE:;
#DIFFICULTY:Easy;
#METER:6;
#RADARVALUES:0.362791,0.436173,0.280163,0.704925,0.009038,281.000000,250.000000,31.000000,78.000000,0.000000,0.000000,0.000000,0.000000,0.000000,0.362791,0.436173,0.280163,0.704925,0.009038,281.000000,250.000000,31.000000,78.000000,0.000000,0.000000,0.000000,0.000000,0.000000;
#CREDIT:;
#NOTES:
0000
0000
0000
0000
,
0000
0000
0000
0000
,
0000
0000
0000
0000
,
0000
0000
0000
0000
,
2002
0000
0000
0000
,
0000
0000
0000
3003
,
1001
0000
0010
0100
,
0010
0100
0100
1001
,
1000
2000
3010
0020
,
0130
0200
0301
1000
,
0001
0002
0013
0020
,
0130
0200
1300
0001
,
0100
0200
0310
0020
,
1030
2000
3001
1000
,
0100
0200
0310
0020
,
0031
0002
0103
0010
,
1000
1000
0010
0010
,
2000
0100
3100
1000
,
0001
0001
0010
0010
,
0002
0100
0103
0001
,
1000
1000
0100
0100
,
0020
0100
0130
1000
,
0001
0000
0000
0100
0000
0000
0010
0000
0000
0000
0000
2010
,
0000
3100
0100
0010
,
0001
0001
0100
0100
,
0002
0010
0013
0001
,
1000
1000
0100
0100
,
2000
0010
3010
1000
,
0001
0001
0010
0010
,
0200
0010
0310
0001
,
1000
0000
0000
0010
0000
0000
0100
0000
0000
0000
0000
0102
,
0000
1000
1003
0100
,
0220
0000
0000
0000
,
0000
0000
0330
0000
,
2002
0000
3003
0000
,
1000
0010
0100
0001
,
1001
0000
0001
0010
,
1000
0010
0001
0100
,
2001
0000
0010
0010
,
0010
0010
3010
0110
,
2001
3010
0200
0310
,
2000
0001
3001
1001
,
1200
0301
0200
1300
,
0020
1000
1030
1001
,
0021
0130
0020
0031
,
2000
0001
3001
0101
,
0210
1300
0200
0301
,
2001
0100
3100
0011
,
1002
0013
0200
0310
,
0002
1000
1003
1001
,
0201
1300
0200
0301
,
0020
0001
0031
1001
,
1020
0130
0020
1030
,
0002
1000
1003
1100
,
0012
0103
0020
1030
,
2002
3003
1001
0110
,
1001
2000
3100
0200
,
0310
0020
0031
1000
,
0001
0002
0103
0200
,
0310
0020
1030
0001
,
0010
0020
0130
0200
,
1300
2000
3001
1000
,
0010
0020
0130
0200
,
0301
0002
0013
0100
,
1000
0002
0103
0020
,
0130
2000
3100
0001
,
0001
2000
3100
0020
,
0130
0002
0103
1000
,
1000
0020
0130
0020
,
0031
0020
1030
0001
,
0001
0020
0130
0020
,
1030
0020
0031
0100
,
0220
0000
0000
0000
,
0000
0000
0000
0000
,
0300
0030
0000
0000
;

//---------------dance-single - ----------------
#NOTEDATA:;
#CHARTNAME:;
#STEPSTYPE:dance-single;
#DESCRIPTION:;
#CHARTSTYLE:;
#DIFFICULTY:Beginner;
#METER:3;
#RADARVALUES:0.185914,0.267510,0.090375,0.216900,0.000000,144.000000,134.000000,10.000000,24.000000,0.000000,0.000000,0.000000,0.000000,0.000000,0.185914,0.267510,0.090375,0.216900,0.000000,144.000000,134.000000,10.000000,24.000000,0.000000,0.000000,0.000000,0.000000,0.000000;
#CREDIT:;
#NOTES:
0000
0000
0000
0000
,
0000
0000
0000
0000
,
0000
0000
0000
0000
,
0000
0000
0000
0000
,
2002
0000
0000
0000
,
0000
0000
3003
0000
,
1001
0000
0100
0000
,
0100
0000
0000
1001
,
0000
1000
0000
0010
,
0000
1000
0000
0001
,
0001
0001
0000
0010
,
0000
0001
0000
1000
,
1000
1000
0000
0100
,
0000
1000
0000
0001
,
0001
0001
0000
0100
,
0000
0001
0000
1000
,
1000
0000
1000
0000
,
2000
0000
3000
0001
,
0001
0000
0001
0000
,
0002
0000
0003
1000
,
1000
0000
1000
0000
,
2000
0000
3000
0001
,
0001
0000
0010
0000
,
2002
0000
3003
0010
,
0010
0000
0010
0000
,
0020
0000
0030
0100
,
0100
0000
0100
0000
,
0200
0000
0300
0010
,
0010
0000
0010
0000
,
0020
0000
0030
0100
,
0100
0000
0010
0000
,
2002
0000
3003
0000
,
2000
0000
0000
0000
,
3000
0000
0000
0000
,
0002
0000
0000
0000
,
0003
0000
0000
0000
,
1001
0000
0000
0000
,
0100
0000
0000
0000
,
2002
0000
0000
0000
,
3003
0000
0000
1000
,
1000
0000
1000
0000
,
0200
0000
0300
1000
,
1000
0000
0010
0000
,
2000
0000
3000
0001
,
0001
0000
0001
0000
,
0200
0000
0300
0001
,
0001
0000
0010
0000
,
0002
0000
0003
1000
,
1000
0000
1000
0000
,
0020
0000
0030
1000
,
1000
0000
0100
0000
,
2000
0000
3000
0001
,
0001
0000
0001
0000
,
0020
0000
0030
0001
,
0001
0000
0100
0000
,
0100
0000
1001
0000
,
1000
1000
0000
0100
,
0000
1000
0000
0001
,
0001
0001
0000
0100
,
0000
0001
0000
1000
,
1000
1000
0000
0010
,
0000
1000
0000
0001
,
0001
0001
0000
0010
,
0000
0001
0000
1000
,
1000
1000
0000
0010
,
0000
0100
0000
0001
,
0001
0001
0000
0010
,
0000
0100
0000
1000
,
1000
1000
0000
0001
,
0000
0100
0000
0001
,
0001
0001
0000
1001
,
0000
0110
0000
1000
,
2000
0000
0000
0000
,
0000
0000
0000
0000
,
3000
0000
0000
0000
;
