#TITLE:Snow Way Out;
#SUBTITLE:;
#ARTIST:Walter Mair;
#TITLETRANSLIT:;
#SUBTITLETRANSLIT:;
#ARTISTTRANSLIT:;
#GENRE:Waltz;
#CREDIT:;
#BANNER:Snow Way Out.png;
#BACKGROUND:Snow Way Out-bg.png;
#LYRICSPATH:;
#CDTITLE:cdtitle.png;
#MUSIC:Snow Way Out.ogg;
#OFFSET:-0.053800;
#SAMPLESTART:3.170573;
#SAMPLELENGTH:12.467533;
#SELECTABLE:YES;
#BPMS:0.000000=77.000000
;
#STOPS:
;
#BGCHANGES:;
#KEYSOUNDS:;
#ATTACKS:;

//---------------dance-single - ----------------
#NOTES:
     dance-single:
     :
     Challenge:
     13:
     0.635529,0.555556,0.106428,0.000000,1.144104,418.000000,408.000000,10.000000,0.000000,0.000000,0.000000,0.635529,0.555556,0.106428,0.000000,1.144104,418.000000,408.000000,10.000000,0.000000,0.000000,0.000000:
0000
0000
0000
0000
,
1000
0000
0000
0010
1000
0000
0100
0000
0010
0000
0100
0000
1000
0000
0010
0000
0100
0000
0001
0000
1000
0001
1000
0000
,
0001
0000
0000
0010
0001
0000
0100
0000
1000
0000
0100
0000
0001
0000
0000
0001
0010
0000
0001
0000
1000
0010
1000
0000
,
0001
0000
0000
0010
0001
0000
0100
0000
0010
0000
0100
0000
0001
0000
0010
0000
0100
0000
1000
0000
0001
1000
0001
0000
,
1000
0000
0010
0000
1000
0000
0100
0000
0001
0000
0100
0000
1000
0000
0000
0100
1000
0000
0010
0000
0100
0001
0100
0001
,
1000
0000
0000
1000
0100
0000
0010
0000
1000
0000
0010
0000
0100
0000
1000
0000
0001
0000
0100
0000
0010
0100
0010
0000
,
1000
0000
0000
1000
0010
0000
0001
0000
1000
0000
0100
0000
0001
0000
0000
0001
0010
0000
0100
0000
1000
0100
1000
0000
,
0001
0000
0000
0001
0100
0000
0010
0000
0001
0000
0010
0000
0100
0000
0001
0000
1000
0000
0100
0000
0010
0100
0010
0000
,
0001
0000
0010
0000
1000
0000
0001
0000
0100
0000
1000
0000
0001
0000
0000
0001
0100
0000
0010
0000
1000
0100
0010
0001
,
1000
0000
0010
1000
0010
0000
1000
0000
0001
0000
0001
0000
1000
0000
0000
1000
0100
0000
1000
0000
0100
0010
0001
0000
,
0100
0000
0010
1000
0010
0000
1000
0000
0100
0000
0001
0000
0100
0000
0010
0001
0010
0000
0100
0000
1000
0010
0100
0000
,
0001
0000
0010
0001
0010
0000
0001
0000
0100
0000
0100
0000
0010
0000
0000
0010
1000
0000
0001
0000
0100
0010
1000
0000
,
0100
0000
0010
0001
0010
0000
0001
0000
0100
0000
1000
0000
0100
0000
0010
1000
0010
0000
0100
0000
0001
0010
0100
1000
,
0001
0000
0000
1000
0010
1000
0001
0000
1000
0000
1000
0000
0100
0000
0000
0010
0100
0010
0001
0000
0100
0000
0010
0000
,
1000
0000
0000
0001
0010
0001
1000
0000
0001
0000
0001
0000
0100
0000
0000
0010
0100
0000
0010
1000
0100
0010
0100
0010
,
0001
0000
1000
0100
1000
0100
0001
0000
0100
0000
1000
0000
0001
0000
1000
0010
1000
0010
0001
0000
0010
1000
0100
0000
,
0010
0000
0001
0100
0001
0100
1000
0000
0100
0000
0001
0000
0010
0000
1000
0010
1000
0000
0010
0001
0010
0001
0100
0010
,
1000
0000
0000
0010
1000
0000
0100
0000
0010
1000
0010
0000
0100
0000
1000
0010
1000
0000
0100
0000
0010
0001
1000
0000
,
0001
0000
0000
0100
0010
0000
0100
0000
1000
0100
0001
0000
1000
0000
0001
0010
1000
0000
0010
0000
0100
0000
0010
0000
,
0001
0000
0000
0010
0001
0000
0100
0000
0010
0001
0010
0000
0100
0000
0001
0010
0001
0000
0100
0000
0010
1000
0001
0000
,
1000
0000
0000
1000
0100
0000
0001
0000
0100
1000
0010
0000
0001
0000
0000
0001
0010
0000
1000
0000
0010
1000
0100
0010
,
0001
0000
0000
0001
0100
0000
0010
1000
0001
1000
0010
0000
1000
0000
0000
1000
0100
0000
0010
0001
1000
0001
0010
0000
,
0100
0000
0000
0100
1000
0000
0010
0100
0001
0100
0010
0000
0100
0000
0001
0100
0001
0000
0010
0000
0100
1000
0001
0000
,
1000
0000
0000
1000
0010
0000
0100
0001
0010
0001
0100
0000
0001
0000
0000
0001
0010
0000
0100
1000
0010
1000
0100
0000
,
0010
0000
0001
0000
0100
0000
1000
0000
0001
0000
0010
0000
1000
0000
0000
1000
0100
0000
0010
0001
0010
0001
0100
0010
,
1000
0000
0000
1000
0010
0000
1010
0000
0100
0000
0010
0000
0101
0000
0010
0000
0100
0000
1010
0000
1000
0001
1000
0000
,
0001
0000
0000
0001
0010
0000
0011
0000
0100
0000
0010
0000
1100
0000
0000
0100
0010
0000
0001
0000
0100
0010
1000
0000
,
0001
0000
0000
0001
0010
0000
0011
0000
1000
0000
0010
0000
1010
0000
0001
0000
0100
0000
0101
0000
1000
0010
1000
0000
,
1001
0000
0000
1000
0100
0000
0110
0000
0010
0000
0001
0100
0010
0000
0000
0100
0010
0000
1000
0100
0010
0001
0100
0010
,
1000
0000
0000
0000
;

//---------------dance-single - ----------------
#NOTES:
     dance-single:
     :
     Hard:
     10:
     0.480448,0.447531,0.000000,0.191571,0.925926,316.000000,316.000000,0.000000,18.000000,0.000000,0.000000,0.480448,0.447531,0.000000,0.191571,0.925926,316.000000,316.000000,0.000000,18.000000,0.000000,0.000000:
// measure 0
0000
0000
0000
0000
,  // measure 1
1000
0000
0000
0010
1000
0000
0100
0000
1000
0000
0100
0000
0010
0000
0001
0000
1000
0000
0100
0000
0000
0000
0010
0000
,  // measure 2
0001
0000
0000
0001
0100
0000
0010
0000
1000
0000
0100
0000
0010
0000
0000
0001
0100
0000
0010
0000
1000
0000
1000
0000
,  // measure 3
0001
0000
0000
0010
0001
0000
0100
0000
0001
0000
0100
0000
0010
0000
1000
0000
0001
0000
0100
0000
0000
0000
0010
0000
,  // measure 4
1000
0000
0100
0000
0010
0000
0001
0000
0100
0000
0010
0000
1000
0000
0000
0010
1000
0000
0100
0000
0010
0000
0001
0000
,  // measure 5
1000
0000
0000
1000
0100
0000
0010
0000
0100
0000
0001
0000
0100
0000
0010
0000
0100
0000
1000
0000
0000
0000
1000
0000
,  // measure 6
0001
0000
0000
1000
0010
0000
0001
0000
0010
0000
1000
0000
0100
0000
0000
0100
0010
0000
0001
0000
1000
0000
1000
0000
,  // measure 7
0001
0000
0000
0001
0100
0000
0010
0000
0100
0000
1000
0000
0100
0000
0010
0000
0100
0000
0001
0000
0000
0000
0001
0000
,  // measure 8
1000
0000
0001
0000
0010
0000
1000
0000
0010
0000
0001
0000
0100
0000
0000
0010
1000
0000
0100
0000
0010
0000
0001
0000
,  // measure 9
2000
0000
3010
0100
0010
0100
0002
0000
0013
0100
0010
0100
,  // measure 10
1000
0001
0001
0100
1000
1000
0200
0000
0301
0001
0100
0010
,  // measure 11
2000
0000
3010
1000
0100
1000
0200
0000
0310
0001
0100
0001
,  // measure 12
0100
0001
0001
0010
1000
1000
0020
0000
0031
0010
0100
1000
,  // measure 13
0001
0000
0000
0001
0100
0000
0010
0000
1000
0000
0000
0000
0010
0000
0000
0010
0100
0000
0001
0000
0010
0000
0100
0000
,  // measure 14
1000
0000
0000
1000
0100
0000
0010
0000
0001
0000
0000
0000
0010
0000
0000
0010
0100
0000
1000
0000
0001
0000
0100
0000
,  // measure 15
0010
0000
1000
0010
1000
0000
0010
0000
0001
0000
0010
0000
1000
0000
0100
1000
0100
0000
0001
0000
0100
0000
1000
0000
,  // measure 16
0001
0000
0010
0001
0010
0000
1000
0000
0010
0000
0001
0000
1000
0000
0001
0100
0001
0000
0100
0000
1000
0000
0100
0000
,  // measure 17
0001
0000
0000
0100
0001
0000
0010
0000
1000
0000
0010
0000
0100
0000
1000
0000
0010
0000
0100
0000
0010
0000
0100
0000
,  // measure 18
0001
0000
0000
0001
0010
0000
0100
0000
1000
0000
0010
0000
0001
0000
0010
0000
1000
0000
0100
0000
0001
0000
0100
0000
,  // measure 19
1000
0000
0000
0100
1000
0000
0010
0000
0001
0000
0010
0000
0100
0000
0001
0000
0010
0000
0100
0000
0010
0000
0100
0000
,  // measure 20
1000
0000
0000
1000
0010
0000
0001
0000
1000
0000
0100
0000
0001
0000
0000
1000
0010
0000
0100
0000
0001
0000
0001
0000
,  // measure 21
2000
0000
0100
3200
0000
0001
0302
0000
0100
0203
1300
0100
,  // measure 22
2000
0000
0010
3020
0000
0001
0032
0000
0010
0023
1030
0010
,  // measure 23
2000
0000
0010
3002
0000
0010
2003
0000
0100
3002
0000
0100
,  // measure 24
1003
0100
0001
1000
0010
0001
1000
0000
1000
0100
0010
0001
,  // measure 25
1000
0000
0000
1000
0010
0000
0100
0000
1000
0000
0100
0000
0010
0000
1000
0000
0100
0000
0010
0000
0000
0000
0010
0000
,  // measure 26
0001
0000
0000
0001
0010
0000
0100
0000
0001
0000
0100
0000
0010
0000
0000
0010
0001
0000
1000
0000
0001
0000
0001
0000
,  // measure 27
1000
0000
0000
1000
0010
0000
0001
0000
1000
0000
0100
0000
0001
0000
1000
0000
0100
0000
0010
0000
0000
0000
0010
0000
,  // measure 28
0001
0000
0000
0010
1000
0000
0010
0000
0001
0000
0000
0100
1000
0000
0000
0100
0001
0000
0010
0000
0010
0000
0100
0000
,  // measure 29
1000
0000
0000
0000
;

//---------------dance-single - ----------------
#NOTES:
     dance-single:
     :
     Medium:
     7:
     0.287356,0.324074,0.074500,0.276713,0.367178,189.000000,182.000000,7.000000,26.000000,0.000000,0.000000,0.287356,0.324074,0.074500,0.276713,0.367178,189.000000,182.000000,7.000000,26.000000,0.000000,0.000000:
0000
0000
0000
0000
,
1000
0000
1000
0010
0000
0010
1000
0000
1000
0100
0000
0000
,
1000
0000
0100
0001
0000
0100
1000
0000
0000
1000
0000
0000
,
0001
0000
0001
0010
0000
0010
0001
0000
0001
0100
0000
0000
,
0001
0000
0100
1000
0000
0100
0001
0000
0000
0101
0000
0000
,
1000
0000
0001
0010
0000
0010
1000
0000
1000
0010
0000
0000
,
0001
0000
0001
0100
0000
0100
1000
0000
0000
0110
0000
0000
,
0001
0000
1000
0010
0000
0010
0001
0000
0001
0010
0000
0000
,
1000
0000
0100
0001
0000
0100
1000
0000
0000
1100
0000
0000
,
0002
0000
0100
0203
0000
0000
0320
0000
1000
2030
0000
0000
,
3200
0000
0000
0310
0001
0010
0002
0000
0103
0020
0000
0000
,
2030
0000
0100
3200
0000
0000
0320
0000
0001
0032
0000
0000
,
0203
0000
0000
0310
1000
0010
2000
0000
3100
0020
0000
0000
,
0031
0001
0100
0100
,
1000
1000
0100
0110
,
0001
0000
1000
0010
1000
0010
1000
0000
0001
0010
0001
0010
,
0001
0000
1000
0100
1000
0100
1000
0000
0001
0100
0001
0100
,
0001
0000
0000
0010
0001
0000
0001
0100
0000
0110
0000
0010
,
1000
0000
0000
1000
0100
0000
0100
0010
0000
0010
0001
0000
,
1000
0000
0000
0010
1000
0000
1000
0100
0000
0110
0000
0010
,
0001
0000
0000
1000
0100
0010
0001
0000
0000
0100
0000
0010
,
2000
3200
0320
0230
,
2300
3200
0302
0203
,
2300
3020
0032
0023
,
1030
0000
0010
0100
0000
0001
1000
0000
0100
0010
0000
0000
,
0001
0000
1000
0010
0000
0010
0001
0000
0001
0100
0000
0000
,
1000
0000
0010
0001
0000
0010
1000
0000
0000
0110
0000
0000
,
1000
0000
0001
0010
0000
0010
1000
0000
1000
0100
0000
0000
,
0001
0000
0010
1000
0000
0010
0001
0000
0000
0001
0100
0010
,
1000
0000
0000
0000
;

//---------------dance-single - ----------------
#NOTES:
     dance-single:
     :
     Easy:
     2:
     0.158122,0.154321,0.021286,0.042571,0.000000,104.000000,102.000000,2.000000,4.000000,0.000000,0.000000,0.158122,0.154321,0.021286,0.042571,0.000000,104.000000,102.000000,2.000000,4.000000,0.000000,0.000000:
0000
0000
0000
0000
,
1000
0010
1000
0001
,
1000
0010
1000
0000
,
0001
0010
0001
1000
,
0001
0010
0001
0000
,
1000
0100
0010
0001
,
0100
0010
1000
0000
,
0001
0100
0010
1000
,
0100
0010
0001
0000
,
0001
0001
0100
0100
,
0010
0010
1000
1000
,
0100
0100
0010
0010
,
0001
0001
0100
0100
,
0020
0030
0200
0300
,
0002
0003
2000
3000
,
0001
0010
1000
0100
,
0001
0010
1000
0100
,
0001
0001
0010
0100
,
1000
1000
0010
0100
,
0001
0001
0010
0100
,
1000
0001
1001
0000
,
1000
1000
0100
0100
,
0010
0010
0001
0001
,
0100
0100
0010
0010
,
1000
0100
0010
0001
,
0100
0001
0010
1000
,
0010
0001
0100
0000
,
0100
1000
0010
0001
,
0010
1000
0100
0000
,
0110
0000
0000
0000
;

//---------------dance-single - ----------------
#NOTES:
     dance-single:
     :
     Beginner:
     1:
     0.103387,0.123457,0.010643,0.000000,0.000000,68.000000,67.000000,1.000000,0.000000,0.000000,0.000000,0.103387,0.123457,0.010643,0.000000,0.000000,68.000000,67.000000,1.000000,0.000000,0.000000,0.000000:
0000
0000
0000
0000
,
1000
0000
1000
0000
,
0001
0000
0001
0000
,
1000
0000
1000
0000
,
0001
0000
0001
0000
,
0010
0010
0010
0000
,
0100
0100
0100
0000
,
0010
0010
0010
0000
,
0100
0100
0100
0000
,
1000
0000
0010
0000
,
0100
0000
0001
0000
,
1000
0000
0010
0000
,
0100
0000
0001
0000
,
1000
0000
1000
0000
,
0001
0000
0001
0000
,
1000
1000
1000
0000
,
0001
0001
0001
0000
,
1000
0000
1000
0000
,
0100
0000
0100
0000
,
0010
0000
0010
0000
,
0001
0000
1000
0000
,
0001
0000
0100
0000
,
0010
0000
1000
0000
,
0001
0000
0100
0000
,
0010
0000
1000
0000
,
0100
0100
0100
0000
,
0010
0010
0010
0000
,
0100
0100
0100
0000
,
0010
0010
0010
0000
,
1001
0000
0000
0000
;
