#VERSION:0.83;
#TITLE:Sneakman;
#SUBTITLE:;
#ARTIST:長沼英樹;
#TITLETRANSLIT:;
#SUBTITLETRANSLIT:;
#ARTISTTRANSLIT:Hideki Naganuma;
#GENRE:Funky Breaks;
#ORIGIN:;
#CREDIT:;
#BANNER:Sneakman.png;
#BACKGROUND:Sneakman-bg.png;
#PREVIEWVID:;
#JACKET:Sneakman-jacket.png;
#CDIMAGE:;
#DISCIMAGE:;
#LYRICSPATH:;
#CDTITLE:cdtitle.png;
#MUSIC:Sneakman.ogg;
#OFFSET:-0.897500;
#SAMPLESTART:38.058792;
#SAMPLELENGTH:12.387096;
#SELECTABLE:YES;
#BPMS:0.000=155.000;
#STOPS:87.500=1.161,
256.500=1.161,
329.500=1.161;
#DELAYS:;
#WARPS:;
#TIMESIGNATURES:0.000=4=4;
#TICKCOUNTS:0.000=4;
#COMBOS:0.000=1;
#SPEEDS:0.000=1.000=0.000=0;
#SCROLLS:0.000=1.000;
#FAKES:;
#LABELS:0.000=Song Start;
#BGCHANGES:;
#KEYSOUNDS:;
#ATTACKS:
;

//---------------dance-single - ----------------
#NOTEDATA:;
#CHARTNAME:;
#STEPSTYPE:dance-single;
#DESCRIPTION:;
#CHARTSTYLE:;
#DIFFICULTY:Hard;
#METER:12;
#RADARVALUES:0.572855,0.587559,0.524326,0.088618,0.118158,543.000000,472.000000,71.000000,12.000000,0.000000,0.000000,0.000000,0.000000,0.000000,0.572855,0.587559,0.524326,0.088618,0.118158,543.000000,472.000000,71.000000,12.000000,0.000000,0.000000,0.000000,0.000000,0.000000;
#CREDIT:;
#OFFSET:-0.897500;
#BPMS:0.000000=155.000000
;
#STOPS:87.500000=1.161293
,256.500000=1.161282
,329.500000=1.161290
;
#DELAYS:;
#WARPS:;
#TIMESIGNATURES:0.000000=4=4
;
#TICKCOUNTS:0.000000=4
;
#COMBOS:0.000000=1
;
#SPEEDS:0.000000=1.000000=0.000000=0
;
#SCROLLS:0.000000=1.000000
;
#FAKES:;
#LABELS:0.000000=Song Start
;
#NOTES:
0000
0000
0000
0000
,
0000
0000
0000
0000
,
0000
0000
0000
0000
,
0000
0000
0000
0000
,
1000
0000
0010
1000
0000
0010
0000
0011
,
0000
0010
0001
0000
0100
0001
1000
0000
,
0001
0000
0010
0001
0000
0011
0000
1010
,
0000
1000
1000
0000
1000
1010
1001
0000
,
1000
0000
0100
0000
0001
0000
0000
0000
0001
0000
0100
0000
1000
0000
0000
0100
,
0000
0000
1000
0000
0100
0000
0000
0010
0001
0000
0000
0001
1000
0000
0000
0000
,
0001
0000
0100
0000
1000
0000
0000
0000
1000
0000
0100
0000
0001
0000
0000
0100
,
0000
0000
0001
0000
0100
0000
0000
0010
1000
0000
0000
1000
0001
0000
0000
0000
,
0001
0010
1000
0000
0010
0001
0000
0100
,
1000
0000
0100
0001
0100
0001
1000
0100
,
0010
0010
0100
0100
0010
0010
0100
0100
,
2000
3020
0032
0203
,
1300
0000
0000
0011
0000
0000
0000
1100
,
0000
0000
0001
0000
0000
0001
0000
0000
,
1001
0000
0010
0100
0000
1010
0000
0101
,
0000
1000
1000
0010
0001
0001
0010
0000
,
0110
0000
0000
1010
0000
0000
0000
0101
,
0000
0000
1000
0000
0000
1000
0000
1000
,
0000
0000
0001
0000
0000
0010
0001
0000
0100
0000
0000
0010
1000
0000
0100
0000
,
0010
0100
1001
0000
1000
1010
0000
0001
,
0000
0011
0000
1000
0100
0001
0001
0100
,
1000
0000
1001
0000
0001
0101
0000
1010
,
0000
1001
0000
1000
0100
1000
1000
0001
,
0100
0010
1001
0000
0001
0011
0000
1000
,
0000
1010
0000
0001
0100
1000
1000
0100
,
0001
0000
1001
0000
0110
0110
0000
1001
,
0000
1000
0100
0010
0001
0100
0010
1000
,
0001
0000
1000
0000
0100
0002
0000
0103
,
0000
0000
0001
0000
0100
0000
1000
0000
0001
0000
0000
0001
0100
0000
0010
0000
,
1000
0001
0001
0000
0100
2000
0000
3100
,
0000
0000
1000
0000
0100
0000
0001
0000
1000
0000
0000
0001
0010
0000
0001
0000
,
1000
0010
1000
0000
0001
0020
0000
1030
,
0000
0000
1000
0000
0010
0000
0001
0000
0010
0000
0000
0010
0001
0000
0100
0000
,
0010
1000
0001
0000
1000
0020
0000
0031
,
0000
0000
0001
0000
0010
0000
1000
0000
0010
0000
0000
0010
1000
0000
0100
0000
,
0010
0001
0100
0000
0010
1000
0100
0000
,
0010
0000
0001
0000
1000
0000
0010
0000
0100
0000
0001
1000
0000
0001
1000
0000
,
0100
1000
0010
0000
0100
0001
0010
0000
,
0100
0000
1000
0000
0001
0000
0100
0000
0010
0000
1000
0001
0000
1000
0001
0000
,
1000
0100
0001
0000
1000
0010
0001
0000
,
0001
0100
1000
0000
0001
0010
1000
0010
,
1000
0100
0011
0000
1000
0000
1010
0000
,
0001
0000
0000
0000
1000
0001
1000
0000
0001
0000
1000
0000
0100
0000
0010
0000
,
0001
0100
1001
0000
1000
1010
0000
0100
,
0000
0011
0000
0001
0010
0000
0001
0010
,
1000
0010
0011
0000
0001
1001
0000
0101
,
0000
0110
0000
1000
0010
0100
0001
0010
,
0100
1000
1001
0000
0001
0011
0000
0100
,
0000
1010
0000
1000
0010
0000
1000
0010
,
0001
0010
1010
0000
1000
1001
0000
1100
,
0000
0011
0001
1000
0010
0000
1000
1010
,
1001
0000
0011
0000
0100
1010
0000
0100
,
0000
0011
0000
0001
0100
1000
1000
0001
,
0010
1000
1010
0000
0010
0110
0000
1001
,
0000
0011
0000
0001
0010
1000
1000
0010
,
0001
1000
1010
0000
0100
0011
0000
0100
,
0000
1010
0000
1000
0100
0001
0001
1000
,
0010
0001
0011
0000
0010
0110
0000
1001
,
0000
0000
1010
0000
0000
0000
1000
0000
0010
0000
0001
0010
0000
0000
0010
0000
,
1000
0100
0110
0000
0011
1001
0000
1010
,
0000
1001
0000
0000
1000
0100
1000
0000
,
0001
0000
0100
0000
0001
0000
0000
1000
0000
0000
0001
0000
0001
0000
0000
1000
,
0100
0000
0000
0001
0100
0000
0000
0000
1000
0000
0010
0000
1000
0000
0000
0000
,
0001
0000
0010
0000
0001
0000
0000
1000
0000
0000
0001
0000
0001
0000
0000
1000
,
0010
0000
0000
0001
0010
0000
0000
0000
1000
0000
0100
0000
0001
0000
0000
0000
,
0100
1000
0000
0010
0001
0000
0010
1000
,
0010
1000
0010
1000
0100
0010
0001
0100
,
0010
1000
0100
0010
0002
0000
0203
0000
,
2300
0000
0000
0000
3020
0000
0000
0000
0031
0000
0000
0000
1010
0000
0000
0001
,
0100
0001
0010
0001
0000
1000
0100
0000
,
0001
0000
0100
0000
0000
0000
1000
0000
0001
0000
0000
0000
0011
0000
0000
1000
,
0100
1000
0010
1000
0000
0001
0100
0010
,
0100
0000
0010
0000
1000
0000
0100
0000
0010
0000
0000
0000
1100
0000
0000
0001
,
0100
0010
0100
1000
0000
0100
0001
1000
,
0001
0000
0000
0001
0010
0000
0000
0010
0100
0000
0000
0000
0110
0000
0000
1000
,
0100
0010
0100
0001
0000
0100
1000
1000
,
0001
0100
0010
1000
1001
0000
0000
0011
,
0000
0000
0000
1100
0000
0000
0000
0001
,
0001
0100
0010
1000
0000
0000
0000
0000
,
0000
0000
0000
0000
0000
0000
0000
0000
0001
1000
0001
1000
0001
0000
0000
0000
;

//---------------dance-single - ----------------
#NOTEDATA:;
#CHARTNAME:;
#STEPSTYPE:dance-single;
#DESCRIPTION:;
#CHARTSTYLE:;
#DIFFICULTY:Medium;
#METER:9;
#RADARVALUES:0.427267,0.463862,0.428322,0.029539,0.000000,405.000000,347.000000,58.000000,4.000000,0.000000,0.000000,0.000000,0.000000,0.000000,0.427267,0.463862,0.428322,0.029539,0.000000,405.000000,347.000000,58.000000,4.000000,0.000000,0.000000,0.000000,0.000000,0.000000;
#CREDIT:;
#OFFSET:-0.897500;
#BPMS:0.000000=155.000000
;
#STOPS:87.500000=1.161293
,256.500000=1.161282
,329.500000=1.161290
;
#DELAYS:;
#WARPS:;
#TIMESIGNATURES:0.000000=4=4
;
#TICKCOUNTS:0.000000=4
;
#COMBOS:0.000000=1
;
#SPEEDS:0.000000=1.000000=0.000000=0
;
#SCROLLS:0.000000=1.000000
;
#FAKES:;
#LABELS:0.000000=Song Start
;
#NOTES:
// measure 0
0000
0000
0000
0000
,  // measure 1
0000
0000
0000
0000
,  // measure 2
0000
0000
0000
0000
,  // measure 3
0000
0000
0000
0000
,  // measure 4
1000
0000
0010
1000
0000
0010
0000
1001
,  // measure 5
0000
1000
0100
1000
,  // measure 6
0001
0000
0010
0001
0000
0110
0000
1001
,  // measure 7
0000
0010
0010
0000
0000
0010
1001
0000
,  // measure 8
1000
0000
0010
0000
0001
0000
1000
0100
,  // measure 9
0001
0001
0101
1100
,  // measure 10
0001
0000
0010
0000
1000
0000
0001
0100
,  // measure 11
1000
1000
1100
0101
,  // measure 12
1000
0000
0010
0100
0000
0001
1000
0000
,  // measure 13
0100
0010
0100
0000
0100
0000
0100
0000
,  // measure 14
1000
0100
0001
0010
,  // measure 15
1000
1000
1000
1000
,  // measure 16
1010
0000
0000
0100
0000
0000
0000
0001
,  // measure 17
0000
0000
0000
0000
,  // measure 18
1001
0000
0010
0100
0000
0010
0000
0100
,  // measure 19
0000
0000
0000
0000
,  // measure 20
0011
0000
0000
0100
0000
0000
0000
1000
,  // measure 21
0000
0000
0000
0000
,  // measure 22
0000
0001
0000
0000
1000
0000
0000
0001
,  // measure 23
0100
0010
1000
0000
1000
0010
0000
0001
,  // measure 24
0000
0011
0000
0000
0001
0010
1000
0000
,  // measure 25
0010
0000
1001
0000
1000
0100
0000
0110
,  // measure 26
0000
1001
0000
0000
1000
0001
1000
0000
,  // measure 27
0100
0000
0011
0000
0001
0010
0000
1000
,  // measure 28
0000
1010
0000
0000
1000
0010
0001
0000
,  // measure 29
0010
0000
1001
0000
0100
0010
0000
1001
,  // measure 30
0000
0001
0100
0000
1000
0100
0000
0001
,  // measure 31
0001
0000
1000
0000
0100
0020
0000
0031
,  // measure 32
0000
0001
0000
0010
0001
0000
0010
0100
,  // measure 33
1000
0000
0001
0000
0100
0020
0000
1030
,  // measure 34
0000
1000
0000
0010
1000
0000
0010
0100
,  // measure 35
0001
0000
1000
0000
0100
0002
0000
0103
,  // measure 36
0000
0001
0000
0100
1000
0000
1000
0100
,  // measure 37
0010
0000
0001
0000
0100
2000
0000
3100
,  // measure 38
0000
1000
0000
0100
0001
0000
0010
0100
,  // measure 39
1000
0001
0101
0001
,  // measure 40
0101
0000
1000
0010
0100
0000
0001
1000
,  // measure 41
0001
1000
1100
1000
,  // measure 42
1100
0000
0001
0010
0100
0000
1000
0001
,  // measure 43
1000
0001
0101
0100
,  // measure 44
1100
1000
1010
0010
,  // measure 45
0011
1001
0000
0110
,  // measure 46
0000
0000
1000
0100
0010
0001
1000
0000
,  // measure 47
0100
0000
0011
0000
0001
0100
0000
0010
,  // measure 48
0000
0110
0000
1000
0010
0000
1000
0010
,  // measure 49
1000
0000
1010
0000
1000
0100
0000
0110
,  // measure 50
0000
0011
0000
0001
0100
0000
0010
1000
,  // measure 51
0100
0000
0011
0000
1000
0010
0000
0100
,  // measure 52
0000
0110
0000
0001
0100
0000
0001
0100
,  // measure 53
0001
0000
1010
0000
0001
0010
0000
0110
,  // measure 54
0000
1100
0000
1000
1000
0000
0000
0010
,  // measure 55
1001
0000
1010
0000
1000
0010
0000
0001
,  // measure 56
0000
0110
0000
0000
0001
0100
1000
0000
,  // measure 57
0100
0000
1001
0000
1000
0100
0000
0011
,  // measure 58
0000
1001
0000
0000
1000
0010
0100
0000
,  // measure 59
0001
0000
0011
0000
0001
0010
0000
1000
,  // measure 60
0000
0110
0000
0000
1000
0100
0001
0000
,  // measure 61
0100
0000
1001
0000
0001
0100
0000
1010
,  // measure 62
0000
1001
0000
0000
0001
1000
0100
0000
,  // measure 63
0100
0000
0011
0000
0100
0100
0000
1010
,  // measure 64
0000
1001
0000
0000
1000
0000
0100
0000
,  // measure 65
0001
0100
1000
1000
,  // measure 66
0100
1000
0001
0000
1000
0000
0010
0000
,  // measure 67
0001
0010
1000
1000
,  // measure 68
0010
1000
0001
0000
1000
0000
0100
0010
,  // measure 69
0000
0010
0100
0000
1000
0001
1000
0000
,  // measure 70
0001
1000
0001
0100
,  // measure 71
1000
0010
0001
0001
,  // measure 72
0001
0001
0010
1100
,  // measure 73
0000
0010
0100
1000
0000
1000
0010
0000
,  // measure 74
1000
0010
1000
0000
0010
0000
0101
0000
,  // measure 75
0000
0010
0100
0001
0000
0001
0010
0000
,  // measure 76
0001
0010
0100
1001
,  // measure 77
0000
1000
0010
0100
0000
0001
0010
0000
,  // measure 78
0010
0010
0100
1001
,  // measure 79
0000
0001
0100
0010
0000
1000
0100
0000
,  // measure 80
0010
0100
0010
0000
1001
0000
0000
0010
,  // measure 81
0000
0000
0000
0100
0000
0000
0000
0001
,  // measure 82
0010
0100
1000
0001
0000
0000
0000
0000
,  // measure 83
0000
0000
0000
0000
1000
0010
0001
0000
;

//---------------dance-single - ----------------
#NOTEDATA:;
#CHARTNAME:;
#STEPSTYPE:dance-single;
#DESCRIPTION:;
#CHARTSTYLE:;
#DIFFICULTY:Easy;
#METER:5;
#RADARVALUES:0.267965,0.340166,0.280625,0.036924,0.000000,254.000000,216.000000,38.000000,5.000000,0.000000,0.000000,0.000000,0.000000,0.000000,0.267965,0.340166,0.280625,0.036924,0.000000,254.000000,216.000000,38.000000,5.000000,0.000000,0.000000,0.000000,0.000000,0.000000;
#CREDIT:;
#OFFSET:-0.897500;
#BPMS:0.000000=155.000000
;
#STOPS:87.500000=1.161293
,256.500000=1.161282
,329.500000=1.161290
;
#DELAYS:;
#WARPS:;
#TIMESIGNATURES:0.000000=4=4
;
#TICKCOUNTS:0.000000=4
;
#COMBOS:0.000000=1
;
#SPEEDS:0.000000=1.000000=0.000000=0
;
#SCROLLS:0.000000=1.000000
;
#FAKES:;
#LABELS:0.000000=Song Start
;
#NOTES:
// measure 0
0000
0000
0000
0000
,  // measure 1
0000
0000
0000
0000
,  // measure 2
0000
0000
0000
0000
,  // measure 3
0000
0000
0000
0000
,  // measure 4
1000
0000
0010
0000
,  // measure 5
1000
0000
0001
1000
,  // measure 6
0001
0000
0010
0000
,  // measure 7
0001
0000
0000
1001
,  // measure 8
0001
0000
0100
0000
,  // measure 9
0001
0100
0001
0001
,  // measure 10
1000
0000
0100
0000
,  // measure 11
1000
0100
1000
1000
,  // measure 12
0001
0000
1000
0000
,  // measure 13
0001
1000
0001
1000
,  // measure 14
0010
0010
0010
0010
,  // measure 15
1000
0100
0010
0001
,  // measure 16
1001
0000
0000
0010
0000
0000
0000
0010
,  // measure 17
0000
0000
0000
0000
,  // measure 18
1001
0000
0000
0010
0000
0010
0000
0010
,  // measure 19
0000
0000
0000
0000
,  // measure 20
1001
0000
0000
0100
0000
0000
0000
0010
,  // measure 21
0000
0000
0000
0000
,  // measure 22
0000
0000
0000
0000
,  // measure 23
0010
0000
1001
0000
0000
1000
0000
0000
,  // measure 24
0000
0100
0000
0000
0000
0000
0001
0000
,  // measure 25
0000
0000
1001
0000
0000
0001
0000
0100
,  // measure 26
0000
1000
0000
0000
0000
0000
0001
0000
,  // measure 27
0000
0000
1001
0000
0000
1000
0000
0000
,  // measure 28
0000
0010
0000
0000
0000
0000
0001
0000
,  // measure 29
0000
0000
1001
0000
0000
0001
0000
0010
,  // measure 30
0000
1000
0000
0000
0000
0000
0000
0000
,  // measure 31
0000
1000
0100
0020
,  // measure 32
0030
0001
0010
0001
,  // measure 33
0010
0001
0100
0020
,  // measure 34
0030
1000
0010
1000
,  // measure 35
0010
1000
0001
0020
,  // measure 36
0030
0100
1000
0100
,  // measure 37
0010
0001
1000
0020
,  // measure 38
0030
0100
0001
0100
,  // measure 39
0010
1001
0000
1001
,  // measure 40
0000
0010
1000
0100
,  // measure 41
0010
1001
0000
1001
,  // measure 42
0000
0010
0001
0100
,  // measure 43
0010
1001
0000
1001
,  // measure 44
0000
0110
0000
0110
,  // measure 45
1000
0001
0000
1000
,  // measure 46
0000
1000
0100
0010
,  // measure 47
0001
0000
1001
0000
0000
0001
0000
0000
,  // measure 48
0000
0100
0000
0000
0010
0000
0000
0000
,  // measure 49
0010
0000
1001
0000
0000
0001
0000
0100
,  // measure 50
0000
0001
0000
0000
0010
0000
0010
0000
,  // measure 51
0010
0000
1001
0000
0000
1000
0000
0000
,  // measure 52
0000
0100
0000
0000
0010
0000
0000
0000
,  // measure 53
0010
0000
1001
0000
0000
1000
0000
0100
,  // measure 54
0000
1000
0000
0000
0010
0000
0000
0000
,  // measure 55
0110
0000
1001
0000
0000
0001
0000
0000
,  // measure 56
0000
0010
0000
0000
0000
0000
1000
0000
,  // measure 57
0000
0000
1001
0000
0000
1000
0000
0100
,  // measure 58
0000
0001
0000
0000
0000
0000
1000
0000
,  // measure 59
0000
0000
1001
0000
0000
1000
0000
0000
,  // measure 60
0000
0010
0000
0000
0000
0000
0001
0000
,  // measure 61
0000
0000
1001
0000
0000
0001
0000
0100
,  // measure 62
0000
1000
0000
0000
0000
0000
0010
0000
,  // measure 63
1000
0000
1001
0000
0000
1001
0000
1001
,  // measure 64
0000
1001
0000
0000
1000
0000
0000
0000
,  // measure 65
0100
0000
1000
0100
,  // measure 66
0010
0001
1000
0000
,  // measure 67
0010
0000
1000
0010
,  // measure 68
0100
0001
1000
0000
,  // measure 69
0001
0000
1000
0001
,  // measure 70
1000
0001
0010
0010
,  // measure 71
0010
0010
0001
0010
,  // measure 72
0100
1000
0010
1010
,  // measure 73
0000
1010
0000
0010
,  // measure 74
1000
0100
0010
0011
,  // measure 75
0000
0011
0000
0010
,  // measure 76
0001
0100
0010
1001
,  // measure 77
0000
1001
0000
0001
,  // measure 78
1000
0001
0010
1001
,  // measure 79
0000
1001
0000
1000
,  // measure 80
0010
0000
0010
0000
1001
0000
0000
0100
,  // measure 81
0000
0000
0000
0010
0000
0000
0000
0000
,  // measure 82
0100
0000
0000
0000
,  // measure 83
0000
0000
2000
3001
;

//---------------dance-single - ----------------
#NOTEDATA:;
#CHARTNAME:;
#STEPSTYPE:dance-single;
#DESCRIPTION:;
#CHARTSTYLE:;
#DIFFICULTY:Challenge;
#METER:15;
#RADARVALUES:0.747982,0.742179,0.620329,0.029539,0.480017,709.000000,625.000000,84.000000,4.000000,0.000000,0.000000,0.000000,0.000000,0.000000,0.747982,0.742179,0.620329,0.029539,0.480017,709.000000,625.000000,84.000000,4.000000,0.000000,0.000000,0.000000,0.000000,0.000000;
#CREDIT:;
#OFFSET:-0.897500;
#BPMS:0.000000=155.000000
;
#STOPS:87.500000=1.161293
,256.500000=1.161282
,329.500000=1.161290
;
#DELAYS:;
#WARPS:;
#TIMESIGNATURES:0.000000=4=4
;
#TICKCOUNTS:0.000000=4
;
#COMBOS:0.000000=1
;
#SPEEDS:0.000000=1.000000=0.000000=0
;
#SCROLLS:0.000000=1.000000
;
#FAKES:;
#LABELS:0.000000=Song Start
;
#NOTES:
0000
0000
0000
0000
,
0000
0000
0000
0000
,
0000
0000
0000
0000
,
0000
0000
0000
0000
,
1000
0000
0010
1000
0000
0010
1000
0110
,
0000
0001
1000
0000
0001
1000
0100
0010
,
0001
0000
0010
0001
0000
1001
0010
0110
,
0000
1000
0001
0000
1000
0000
0000
0001
1000
0000
1010
0000
1000
0010
0100
0001
,
1000
0000
0100
0000
0001
0100
0000
0000
0001
0000
0100
0000
1000
0100
1000
0010
,
0000
1000
0010
0100
0010
0000
0100
0010
1000
0000
0100
0010
0001
0000
1000
0000
,
0001
0000
0100
0000
1000
0100
0000
0000
1000
0000
0100
0000
0001
0100
0001
0010
,
0000
0001
0010
0100
0010
0000
0100
1000
0010
0000
0100
0001
0010
0000
0100
0000
,
1000
0000
0010
0000
0100
0010
0000
0000
0001
0000
0010
0100
0000
0000
0010
0000
,
1000
0001
0000
0000
1000
0000
0100
0000
0001
0000
0100
0000
1000
0000
0001
0000
,
0100
0000
0100
0000
0010
0000
0010
0000
0100
0000
0100
0000
0010
0000
0100
0001
,
0010
0000
0000
0010
1000
0000
0000
1000
0100
0000
0000
0100
0001
0000
0000
0000
,
0011
0000
0000
0110
0000
0000
0000
1100
,
0000
0000
0001
0000
0000
0001
0000
0000
,
1001
0000
0010
0100
0000
1010
0000
0101
,
0000
0000
1000
0000
0010
0100
0001
0000
0001
0000
0010
0100
1000
0000
0000
0000
,
1010
0000
0000
0110
0000
0000
0000
0101
,
0000
0000
1000
0000
0000
1000
0000
1000
,
0000
0000
1000
0000
0000
0100
0010
0000
0001
0000
0000
0100
0010
0000
1000
0000
,
0010
1000
0100
0010
0001
0000
0000
0000
0010
0000
0011
0000
0000
0000
1000
0000
,
1000
0101
0000
1000
0001
1001
1001
0100
,
0001
0010
0011
0000
0010
1100
0000
1010
,
0000
0000
0101
0000
0000
0000
1000
0000
0100
0000
0010
0001
0100
0000
0010
0000
,
1000
0010
1001
0000
0010
1010
0000
0001
,
0001
1100
0000
0001
1000
1001
1001
0100
,
1000
0010
1010
0000
1001
0011
0000
1001
,
0000
0000
0110
0000
0001
1000
0001
1000
0100
0000
1000
0001
1000
0001
0100
0000
,
0010
1000
0100
0000
0010
0000
0100
0000
0010
0000
2000
0000
0000
0000
3010
0000
,
0000
0000
1000
0000
0010
0100
0010
0000
0001
0000
1000
0000
0001
0100
0001
0000
,
1000
0100
1000
0000
0010
0000
0100
0000
0010
0000
0002
0000
0000
0000
0013
0000
,
0000
0000
0001
0000
0010
0100
0010
0100
0010
0000
1000
0100
0000
0100
0010
0000
,
0001
1000
0001
0100
1000
0002
0000
0013
,
0000
0000
1000
0000
0010
0100
0010
0000
0100
0000
0001
0000
1000
0100
0010
0000
,
0001
0010
0001
0000
1000
0000
0100
0000
0001
0000
2000
0000
0000
0000
3010
0000
,
0000
0000
0001
0000
0010
0100
0010
0100
0010
0000
0100
1000
0010
0000
0100
0000
,
0001
0000
1000
0010
1000
0000
0000
0000
1010
0000
0001
0010
0001
0000
0000
0000
,
0011
0000
1000
0000
0010
0100
0010
0000
0100
0000
0001
0010
0000
0010
0100
0000
,
1000
0000
0001
0100
0001
0000
0000
0000
0101
0000
1000
0100
1000
0000
0000
0000
,
1100
0000
0001
0000
0100
0010
0100
0000
0010
0000
1000
0100
0000
0100
0010
0000
,
0001
0000
1000
0010
1000
0000
0000
0000
1001
0000
0001
0010
0001
0000
0000
0000
,
1001
0000
1000
0000
0001
0100
0001
0000
1000
0000
0001
0000
1000
0100
1000
0000
,
0001
0100
0010
1000
0100
0000
0000
0000
0011
0000
0000
0000
0100
0000
0000
0000
,
1010
0000
0000
0000
1000
0100
0010
0000
0001
0000
0001
0100
0010
0000
1000
0000
,
1000
0100
0010
0001
0100
0000
0000
0010
1000
0000
1010
0000
0000
0000
1000
0000
,
0010
0000
0110
0000
0000
0000
1000
0000
0010
0000
0001
0010
1000
0000
0010
0000
,
1000
0100
0011
0000
0110
0011
0000
1001
,
0010
0000
1010
0000
0000
0000
0001
0000
0100
0010
0100
0000
1000
0000
0100
0010
,
0100
0000
0001
0000
1001
0000
0000
0001
0010
0000
0011
0000
0000
0000
0001
0000
,
0010
0000
0110
0000
0000
0000
0001
0000
0010
0000
1000
0010
0001
0000
0010
0000
,
0001
0100
1010
0000
0110
1010
0000
1001
,
0010
0000
0011
0000
0001
0000
0100
0000
0010
0000
0000
0010
1000
0000
1010
0000
,
0010
1000
0100
0010
0001
0000
0000
0001
0100
0000
1010
0000
0000
0000
1000
0000
,
0100
0000
0011
0000
0000
0000
0001
0000
0100
0000
0110
0000
0010
1000
0100
0000
,
0010
0001
0011
0000
0101
1001
0000
1010
,
0100
0000
0011
0000
0000
0000
0001
0000
0100
0000
1000
0100
1000
0000
0100
0010
,
0100
0001
1000
0000
1010
0000
0000
1000
0100
0000
0011
0000
0000
0000
0001
0000
,
0100
0000
1010
0000
0000
0000
1000
0000
0100
0000
0110
0000
0010
0001
0100
0000
,
0010
1000
1010
0000
1100
1001
0000
0011
,
0100
0000
1010
0000
0000
0000
1000
0000
0100
0000
0001
0100
0000
0100
1000
0000
,
0001
0000
1000
0010
1010
0000
0000
0000
0011
0000
1100
0000
0000
0000
0101
0000
,
0000
0000
1001
0000
1000
0100
0010
0001
1000
0000
0100
0000
1000
0001
0000
0000
,
0001
0000
1000
0000
0010
1000
0010
1000
0000
0001
1000
0010
1000
0000
0010
1000
,
0100
0000
0100
1000
0010
0000
0010
0100
0001
0000
0100
0000
0001
1000
0000
0000
,
1000
0000
0001
0000
0010
0001
0010
0001
0000
1000
0001
0010
0001
0000
0010
0001
,
0100
0000
0100
0001
0010
0000
0010
0100
1000
0000
0100
0000
0010
0100
0000
0000
,
0001
0000
0100
0010
0000
0000
0100
0000
1000
0001
0000
0000
1000
0000
0010
0000
,
1000
0010
1000
0010
1000
0010
0001
1000
,
0100
0000
0001
0000
1000
0000
0010
1000
0100
0000
0000
0100
0001
0000
0000
0001
,
0010
0000
0000
0010
1000
0000
0100
0000
0100
0000
0000
0000
0110
0000
0000
0001
,
0010
0000
0001
0000
0100
0000
0010
0000
1000
0100
0010
0000
0001
0100
0001
0000
,
0100
0000
0010
1000
0010
0000
1000
0000
0001
0000
0000
0000
0110
0000
0000
1000
,
0010
0000
1000
0000
0100
0000
0010
0000
0100
1000
0001
0000
0100
0000
0010
0000
,
0100
0000
0010
0000
1000
0000
0001
0000
0010
0000
0000
0000
1100
0000
0000
1000
,
0100
0000
0001
0000
0100
0000
1000
0000
0001
0100
0010
0000
1000
0000
0100
1000
,
0001
0000
0100
0001
1000
0000
0100
1000
0001
0000
0000
0000
0101
0000
0000
0001
,
0100
0000
1000
0000
0100
0000
0001
0000
0010
0100
1000
0000
0001
0000
1000
0100
,
0010
0001
0100
0010
1010
0000
0000
1001
,
0000
0000
0000
1100
0000
0000
0000
0001
,
0001
0010
0100
1000
0000
0000
0000
0000
,
0000
0000
0000
0000
0000
0000
0000
0000
1000
0100
0010
0100
0001
0000
0000
0000
;

//---------------dance-single - ----------------
#NOTEDATA:;
#CHARTNAME:;
#STEPSTYPE:dance-single;
#DESCRIPTION:;
#CHARTSTYLE:;
#DIFFICULTY:Beginner;
#METER:2;
#RADARVALUES:0.166687,0.254040,0.051694,0.000000,0.000000,158.000000,151.000000,7.000000,0.000000,0.000000,0.000000,0.000000,0.000000,0.000000,0.166687,0.254040,0.051694,0.000000,0.000000,158.000000,151.000000,7.000000,0.000000,0.000000,0.000000,0.000000,0.000000,0.000000;
#CREDIT:;
#OFFSET:-0.897500;
#BPMS:0.000000=155.000000
;
#STOPS:;
#DELAYS:;
#WARPS:;
#TIMESIGNATURES:0.000000=4=4
;
#TICKCOUNTS:0.000000=4
;
#COMBOS:0.000000=1
;
#SPEEDS:0.000000=1.000000=0.000000=0
;
#SCROLLS:0.000000=1.000000
;
#FAKES:;
#LABELS:0.000000=Song Start
;
#NOTES:
// measure 0
0000
0000
0000
0000
,  // measure 1
0000
0000
0000
0000
,  // measure 2
0000
0000
0000
0000
,  // measure 3
0000
0000
0000
0000
,  // measure 4
1000
0000
0001
0000
,  // measure 5
1000
0000
1000
0000
,  // measure 6
0001
0000
1000
0000
,  // measure 7
0001
0000
0000
0000
,  // measure 8
0001
0001
0001
0000
,  // measure 9
0001
0000
0001
0000
,  // measure 10
1000
1000
1000
0000
,  // measure 11
1000
0000
1000
0000
,  // measure 12
0010
0000
0100
0000
,  // measure 13
0010
0000
0100
0000
,  // measure 14
0010
0010
0010
0010
,  // measure 15
0010
0000
0010
0000
,  // measure 16
1001
0000
0000
0000
,  // measure 17
0000
0000
0000
0000
,  // measure 18
1001
0000
0000
0000
,  // measure 19
0000
0000
0000
0000
,  // measure 20
1001
0000
0000
0000
,  // measure 21
0000
0000
0000
0000
,  // measure 22
0000
0000
0000
0000
,  // measure 23
0000
0000
0000
0000
,  // measure 24
1000
0000
0010
0000
,  // measure 25
1000
0000
1000
0000
,  // measure 26
0010
0010
0010
0000
,  // measure 27
1000
0000
1000
0000
,  // measure 28
0001
0000
0010
0000
,  // measure 29
0001
0000
0001
0000
,  // measure 30
0010
0010
0010
0000
,  // measure 31
0001
0000
0000
0000
,  // measure 32
0001
0001
0001
0000
,  // measure 33
0010
0000
0100
0000
,  // measure 34
1000
1000
1000
0000
,  // measure 35
0100
0000
0010
0000
,  // measure 36
0001
0001
0001
0000
,  // measure 37
0100
0000
0010
0000
,  // measure 38
1000
1000
1000
0000
,  // measure 39
0010
0000
0100
0000
,  // measure 40
0001
0000
0001
0000
,  // measure 41
0001
0001
0001
0000
,  // measure 42
1000
0000
1000
0000
,  // measure 43
1000
1000
1000
0000
,  // measure 44
0001
0000
0001
0000
,  // measure 45
1000
0000
1000
0000
,  // measure 46
1001
0000
1001
0000
,  // measure 47
0000
0000
0000
0000
,  // measure 48
0001
0000
0010
0000
,  // measure 49
0100
0000
0000
0000
,  // measure 50
0010
0010
0010
0000
,  // measure 51
0100
0000
0000
0000
,  // measure 52
1000
0000
0010
0000
,  // measure 53
0100
0000
0000
0000
,  // measure 54
0010
0010
0010
0000
,  // measure 55
0100
0000
0000
0000
,  // measure 56
0001
0000
0010
0000
,  // measure 57
1000
0000
0100
0000
,  // measure 58
0001
0001
0001
0000
,  // measure 59
0010
0000
0100
0000
,  // measure 60
1000
0000
0010
0000
,  // measure 61
0001
0000
0100
0000
,  // measure 62
1000
1000
1000
0000
,  // measure 63
0010
0000
0010
0000
,  // measure 64
1001
0000
0000
0000
,  // measure 65
0000
0000
0000
0000
,  // measure 66
1000
0000
1000
0000
,  // measure 67
0001
0000
1000
0000
,  // measure 68
0001
0000
0001
0000
,  // measure 69
1000
0000
0001
0000
,  // measure 70
0010
0000
0100
0000
,  // measure 71
0010
0000
0100
0000
,  // measure 72
0010
0010
0010
0010
,  // measure 73
0010
0000
0010
0000
,  // measure 74
0000
0001
0000
0001
,  // measure 75
0000
0100
0000
0100
,  // measure 76
0000
0010
0000
0010
,  // measure 77
0000
1000
0000
1000
,  // measure 78
0000
0001
0000
0010
,  // measure 79
0000
0100
0000
1000
,  // measure 80
0000
0010
0000
0100
,  // measure 81
0000
0001
0000
0000
,  // measure 82
1001
0000
0000
0000
,  // measure 83
0000
0000
0000
0000
,  // measure 84
0000
0000
0000
0000
,  // measure 85
0000
0000
0000
0000
,  // measure 86
0010
0000
0000
0000
;
