#TITLE:Sick-Hack;
#SUBTITLE:;
#ARTIST:t+pazolite;
#TITLETRANSLIT:;
#SUBTITLETRANSLIT:;
#ARTISTTRANSLIT:;
#GENRE:Sambastep;
#CREDIT:;
#BANNER:Sick-Hack.png;
#BACKGROUND:Sick-Hack-bg.png;
#LYRICSPATH:;
#CDTITLE:cdtitle.png;
#MUSIC:Sick-Hack.ogg;
#OFFSET:-0.050000;
#SAMPLESTART:25.312000;
#SAMPLELENGTH:12.000000;
#SELECTABLE:YES;
#BPMS:0.000000=152.000000
;
#STOPS:
;
#BGCHANGES:;
#KEYSOUNDS:;
#ATTACKS:;

//---------------dance-single - ----------------
#NOTES:
     dance-single:
     :
     Challenge:
     16:
     0.826588,0.902508,0.121448,0.615913,1.071342,667.000000,653.000000,14.000000,71.000000,26.000000,0.000000,0.826588,0.902508,0.121448,0.615913,1.071342,667.000000,653.000000,14.000000,71.000000,26.000000,0.000000:
// measure 0
0000
0000
0000
0000
,  // measure 1
0000
0000
0000
0000
,  // measure 2
0000
0000
0000
0000
,  // measure 3
0000
0000
0000
0000
,  // measure 4
0001
0000
0100
0001
0000
0001
0000
1000
0000
0000
0001
0000
0100
0000
0010
0000
,  // measure 5
1000
0000
0100
1000
0000
1000
0000
0001
0000
0000
1000
0000
0100
0000
0010
0000
,  // measure 6
0001
0000
1000
0010
0000
0010
0000
0100
0000
0000
0001
0000
0010
0000
0100
0000
,  // measure 7
1000
0000
0001
0100
0000
0100
0000
0010
0000
0000
1000
0010
0100
0001
0010
0100
,  // measure 8
1000
0000
0002
0100
0000
0100
0000
1000
0000
0000
1000
0000
0010
0000
0013
0000
,  // measure 9
0001
0000
2000
0100
0000
0100
0000
0001
0000
0000
0001
0000
0010
0000
3010
0000
,  // measure 10
1000
0000
0200
0001
0000
0001
0000
0010
0000
0000
0010
0000
1000
0000
1300
0000
,  // measure 11
0001
0000
0200
1000
0000
1000
0000
0010
0000
0000
0310
0100
0001
1000
0100
0010
,  // measure 12
0001
0000
0100
0001
0000
0M10
0000
0M10
1000
0000
0100
0000
0001
0000
0100
0000
,  // measure 13
1000
0000
0100
1000
0000
0M10
0000
0M10
0001
0000
0100
0000
1000
0000
0100
0000
,  // measure 14
0001
0000
1000
0100
0000
001M
0000
M010
0100
0000
0001
0000
0010
0000
0100
0000
,  // measure 15
1000
0010
0010
0100
0100
0001
2002
0000
0000
3003
0000
0000
,  // measure 16
1000
0000
0010
0001
0000
0010
1000
0200
0000
0000
0010
0001
M000
0000
0010
1000
,  // measure 17
000M
0000
0010
0010
0000
0010
0000
0010
0000
0000
1000
0001
00M0
0000
0310
0000
,  // measure 18
1000
0000
0010
0100
0010
1000
0000
0001
0010
0000
1000
0000
0010
0000
0001
0000
,  // measure 19
1000
0000
0100
0010
0100
0001
0000
0100
1000
0000
0001
0100
0010
1000
0100
0010
,  // measure 20
0001
0000
0010
1000
0000
0010
0001
0200
0000
0000
0010
1000
000M
0000
0010
0001
,  // measure 21
M000
0000
0010
0010
0000
0010
0000
0010
0000
0000
0001
1000
00M0
0000
0310
0000
,  // measure 22
0001
0000
0010
0100
0010
0001
0000
1000
0010
0000
0001
0000
0010
0000
1000
0000
,  // measure 23
0001
0000
0100
1000
0100
0001
0000
2000
0000
0000
3100
0000
0010
0000
0001
0000
,  // measure 24
1000
0000
0010
0001
0000
1000
0100
0002
0000
0000
0010
0100
M000
0000
0100
0010
,  // measure 25
M000
0000
1000
1000
0000
1000
0000
0100
0000
0000
1000
0010
0M00
0000
0013
0000
,  // measure 26
1000
0000
0100
0010
0001
1000
0000
0100
0001
0000
1000
0000
0010
0000
0001
0000
,  // measure 27
0100
0000
1000
0100
0010
1000
0000
0001
1000
0000
0001
0010
0100
1000
0010
0100
,  // measure 28
0001
0000
0010
1000
0000
0001
0100
2000
0000
0000
0010
0100
000M
0000
0100
0010
,  // measure 29
000M
0000
0001
0001
0000
0001
0000
0100
0000
0000
0001
0010
0M00
0000
3010
0000
,  // measure 30
0001
0000
0100
0010
1000
0001
0000
0100
1000
0000
0001
0000
0010
0000
1000
0000
,  // measure 31
0100
0000
0001
0100
0010
0001
0000
1000
0001
0000
0100
0000
0010
0000
1000
0000
,  // measure 32
0100
0000
0000
0000
0100
0000
0010
0000
0100
0010
0100
0000
1000
0000
0001
0000
,  // measure 33
0100
0000
0000
0000
0100
0000
0010
0000
0100
0010
0100
0000
0001
0000
0010
0000
,  // measure 34
0001
0000
0000
0000
0001
0000
0010
0000
0100
1000
0001
0000
0100
0000
0010
0000
,  // measure 35
1000
0000
0000
0000
1000
0000
0010
0000
0100
0001
1000
0000
0100
0000
0010
0000
,  // measure 36
0001
0000
1000
0000
1000
0010
0100
0000
0100
0000
0001
0000
0001
1000
0100
0000
,  // measure 37
0100
0000
0010
0000
0010
0001
1000
0000
1000
0000
0010
0000
0010
0100
0001
0000
,  // measure 38
0001
0000
1000
0100
0010
0000
0100
1000
0010
0000
0100
0001
0010
0000
0100
0010
,  // measure 39
0001
0000
0001
0010
0001
0000
1001
0000
,  // measure 40
0202
0000
0303
0000
1000
0010
0000
0010
1000
0000
0100
0000
0021
0000
0000
0000
,  // measure 41
1030
0000
0010
0001
1000
0000
0001
0000
01M0
0000
01M0
0000
1000
0000
0010
0100
,  // measure 42
0020
0000
0032
0000
0013
1000
0000
1000
0100
0000
0010
0000
0210
0000
0000
0000
,  // measure 43
0301
0000
0100
0010
0000
0010
0001
0100
0010
0000
0100
0000
0001
1000
0001
1000
,  // measure 44
0200
0001
0000
0310
0100
1000
1002
0000
,  // measure 45
0103
0000
1000
0100
0001
0000
1000
0000
0M10
0000
0M10
0000
0001
0000
0010
0100
,  // measure 46
0020
0000
2030
0000
3010
0001
0000
1000
0020
0000
0032
0000
0023
0000
0000
0000
,  // measure 47
1030
0000
0100
0010
0000
0001
0100
0010
1000
0000
0001
0000
1001
0000
0000
0000
,  // measure 48
2200
0000
3300
0000
0001
0010
0000
0010
0001
0000
0100
0000
1020
0000
0000
0000
,  // measure 49
0031
0000
0010
1000
0100
0000
0010
0000
100M
0000
100M
0000
0100
0000
0010
0100
,  // measure 50
0020
0000
0000
0000
0031
1000
0000
0010
0100
0000
0010
0000
0210
0000
0000
0000
,  // measure 51
1300
0000
0100
0010
0000
0010
1000
0100
0010
0000
0100
0000
1000
0001
1000
0001
,  // measure 52
0200
1000
0000
0310
0100
0001
2001
0000
,  // measure 53
3100
0000
0001
0100
1000
0000
0010
0000
M001
0000
M001
0000
0100
0001
0100
0000
,  // measure 54
0001
0000
1000
0100
0010
0000
0001
0100
0010
0000
0100
0001
0010
0000
0100
1000
,  // measure 55
0010
0000
0010
1000
0010
0000
1001
0000
,  // measure 56
1000
0000
0100
0010
0000
1000
0000
1000
0000
0010
0100
1000
0001
0000
1000
0000
,  // measure 57
0010
0000
0100
1000
0000
1000
0000
1000
0200
0320
2030
3002
0023
0030
0200
0310
,  // measure 58
0001
0000
0100
0010
0000
0001
0000
0001
0000
0010
0100
0001
1000
0000
0001
0000
,  // measure 59
0010
0000
0100
0001
0000
0001
0000
0001
0200
2300
3002
0203
2300
3000
2000
3200
,  // measure 60
0301
0000
0010
0100
0000
0001
0000
0001
0000
1000
0010
0100
0010
0000
0001
0000
,  // measure 61
1000
0000
0010
0001
0000
0001
0000
0001
0020
0230
0302
2003
3200
0300
0020
0031
,  // measure 62
1000
0000
0010
0100
0000
1000
0000
1000
0000
0001
0010
0100
0010
1000
0000
1000
,  // measure 63
0200
0000
0000
0010
0000
0010
0310
0000
0012
0003
2000
3200
0302
0003
2000
3020
,  // measure 64
0032
0003
1000
0010
0000
0010
0100
0010
0001
0000
0010
0100
0010
1000
0001
1000
,  // measure 65
0100
0000
0001
0100
0000
0100
0010
0001
2000
3020
0230
2300
3200
0300
0200
0301
,  // measure 66
1000
0000
0001
0010
0000
0010
0100
0010
1000
0000
0010
0100
0010
0001
1000
0001
,  // measure 67
0100
0000
1000
0100
0000
0100
0010
1000
0002
0023
0230
0302
0203
0300
0020
0032
,  // measure 68
1003
0000
0001
0001
0100
0010
0000
0100
1000
0000
0001
0010
1000
0010
0100
0001
,  // measure 69
1000
0000
0001
0001
0010
0100
0000
0010
1000
0000
0001
0100
1000
0100
0010
0001
,  // measure 70
1000
0000
0001
0100
0010
1000
0100
0010
0001
1000
0010
0100
0001
1000
0100
0010
,  // measure 71
0001
0100
0100
1000
0010
0010
0001
0000
0000
1001
0000
0000
;

//---------------dance-single - ----------------
#NOTES:
     dance-single:
     :
     Hard:
     13:
     0.655569,0.622419,0.147472,0.364343,0.516153,529.000000,512.000000,17.000000,42.000000,18.000000,0.000000,0.655569,0.622419,0.147472,0.364343,0.516153,529.000000,512.000000,17.000000,42.000000,18.000000,0.000000:
// measure 0
0000
0000
0000
0000
,  // measure 1
0000
0000
0000
0000
,  // measure 2
0000
0000
0000
0000
,  // measure 3
0000
0000
0000
0000
,  // measure 4
0001
0000
0001
0000
1000
0100
1000
0010
,  // measure 5
1000
0000
1000
0000
0001
0100
0001
0010
,  // measure 6
0001
0000
0001
0000
1000
0010
1000
0100
,  // measure 7
1000
0000
1000
0000
0001
0010
1000
0010
,  // measure 8
0002
0000
0100
0000
0103
1000
0100
0010
,  // measure 9
2000
0000
0100
0000
3100
0001
0100
0010
,  // measure 10
0002
0000
0010
0000
0013
1000
0010
0100
,  // measure 11
2000
0000
0010
0000
3010
0001
1000
0100
,  // measure 12
0002
0000
1000
0000
1003
001M
M010
0001
,  // measure 13
2000
0000
0001
0000
3001
M010
001M
1000
,  // measure 14
0200
0000
0001
0000
1300
010M
M100
0001
,  // measure 15
0100
0010
1000
0010
1000
0100
0020
0000
0000
0030
0000
0000
,  // measure 16
0001
0000
0001
0100
0000
0001
0000
0020
0000
0000
0031
0000
M010
0000
001M
0000
,  // measure 17
2000
0000
0000
0100
0000
0100
0000
0100
0000
0000
3001
0000
1000
0000
1010
0000
,  // measure 18
1000
0000
0100
0010
0000
0100
0000
0001
0000
0000
0100
0000
0010
0000
0001
0000
,  // measure 19
1000
0000
0010
0100
0000
0010
0000
0001
0000
0000
0010
0000
0100
0000
0001
0000
,  // measure 20
1000
0000
1000
0100
0000
1000
0000
0020
0000
0000
1030
0000
001M
0000
M010
0000
,  // measure 21
0002
0000
0000
0100
0000
0100
0000
0100
0000
0000
1003
0000
0001
0000
0011
0000
,  // measure 22
0001
0000
0100
0010
0000
0100
0000
1000
0000
0000
0100
0000
0010
0000
1000
0000
,  // measure 23
0001
0000
0010
0100
0000
0010
0000
0110
0000
0000
0100
0000
1000
0000
0001
0000
,  // measure 24
1000
0000
1000
0100
0000
1000
0000
0020
0000
0000
0031
0000
M010
0000
001M
0000
,  // measure 25
2000
0000
0000
0010
0000
0010
0000
0010
0000
0000
3010
0000
0001
0000
0011
0000
,  // measure 26
0001
0000
0100
1000
0000
0100
0000
0010
0000
0000
1000
0000
0001
0000
0010
0000
,  // measure 27
1000
0000
0001
0100
0000
0010
0000
0001
0000
0000
1000
0000
0010
0000
0100
0000
,  // measure 28
0001
0000
0001
0100
0000
0001
0000
0020
0000
0000
1030
0000
001M
0000
M010
0000
,  // measure 29
0002
0000
0000
0010
0000
0010
0000
0010
0000
0000
0013
0000
1000
0000
1010
0000
,  // measure 30
1000
0000
0100
0001
0000
0100
0000
0010
0000
0000
0001
0000
1000
0000
0010
0000
,  // measure 31
0001
0000
1000
0100
0000
0001
0000
0001
0000
0000
0010
0000
0100
0000
1000
0000
,  // measure 32
0001
0000
0001
0100
0010
0100
0001
0000
,  // measure 33
0001
0000
0001
0010
0001
0100
0001
0000
,  // measure 34
0001
0000
0001
0100
1000
0100
0001
0000
,  // measure 35
0001
0000
0001
0010
1000
0001
0100
0000
,  // measure 36
1000
0100
1000
0100
0001
0100
1000
0100
,  // measure 37
0001
0100
1000
0010
0001
0010
1000
0100
,  // measure 38
0001
0100
0010
0100
0001
0100
0010
0100
,  // measure 39
0100
0000
0100
0010
0100
0000
1001
0000
,  // measure 40
1020
0000
0000
0000
0130
0001
0000
0100
0001
0000
0010
0000
1200
0000
0000
0000
,  // measure 41
0301
0100
0100
1000
0001
0001
1000
0010
,  // measure 42
0002
0000
0023
0000
0130
0001
0000
0001
1000
0000
0001
0000
0021
0000
0000
0000
,  // measure 43
0130
0000
1000
0001
0000
0100
0000
0010
1000
0000
0100
0000
0010
0000
0010
0000
,  // measure 44
0200
0001
0000
0310
0001
0100
1020
0000
,  // measure 45
0031
0010
0010
1000
0100
0100
0010
0001
,  // measure 46
0200
0000
2300
0000
3100
0001
0000
1000
0200
0000
0302
0000
0203
0000
0000
0000
,  // measure 47
0310
0000
0001
0100
0000
0010
1000
0000
0100
0000
0010
0000
0110
0000
0000
0000
,  // measure 48
0021
0000
0000
0000
0130
1000
0000
0001
0100
0000
0010
0000
0210
0000
0000
0000
,  // measure 49
1300
0001
0001
0010
1000
1000
0001
0010
,  // measure 50
2000
0000
0000
0000
3010
0100
0000
0010
0001
0000
1000
0000
1020
0000
0000
0000
,  // measure 51
0130
0000
0001
1000
0000
0100
0000
0010
0001
0000
0100
0000
0010
0000
0010
0000
,  // measure 52
0200
1000
0000
0310
1000
0100
0021
0000
,  // measure 53
1030
0001
0001
0100
1000
1000
0001
0100
,  // measure 54
1000
0100
0010
0100
1000
0100
0010
0100
,  // measure 55
0100
0000
0100
0010
0100
0000
1001
0000
,  // measure 56
1000
0000
0100
0010
0000
0010
0000
0010
0100
0000
0001
0000
0100
0000
1000
0000
,  // measure 57
0010
0000
0001
0010
0000
1000
0000
1000
0200
0000
0010
0000
1000
0000
1300
0000
,  // measure 58
0001
0000
0100
0010
0000
0010
0000
0010
0100
0000
1000
0000
0100
0000
0001
0000
,  // measure 59
0010
0000
1000
0010
0000
0001
0000
0001
0200
0000
0010
0000
1000
0000
0010
0000
,  // measure 60
0301
0000
0010
0100
0000
0100
0000
0100
0001
0000
0100
0000
1000
0000
0010
0000
,  // measure 61
0001
0000
1000
0100
0000
0001
0000
0001
0200
0000
0010
0000
0001
0000
0301
0000
,  // measure 62
1000
0000
0100
0010
0000
0010
0000
0010
1000
0000
0010
0000
0001
0100
0000
0100
,  // measure 63
0020
0000
0000
1000
0000
0000
1030
0000
0002
0000
0010
0000
2003
0000
0100
0000
,  // measure 64
3001
0000
1000
0100
0000
01M0
0000
0100
0001
0000
0010
0000
0100
0000
0100
0000
,  // measure 65
1000
0000
0001
0100
0000
01M0
0000
0100
2000
0000
0010
0000
0001
0000
3001
0000
,  // measure 66
1000
0000
0001
0010
0000
0M10
0000
0010
0100
0000
0001
0000
1000
0000
1000
0000
,  // measure 67
0001
0000
1000
0010
0000
0M10
0000
0010
0200
0000
0010
0000
0001
0000
0010
0000
,  // measure 68
1300
0000
0001
0100
0000
0001
0000
0100
1000
0000
0001
0000
0010
0000
0100
0000
,  // measure 69
0001
0000
1000
0100
0000
1000
0000
0100
0001
0000
1000
0000
0010
0000
0100
0000
,  // measure 70
1000
0000
0010
0001
0000
0010
0000
1000
0100
0000
0001
0000
0100
0000
1000
0000
,  // measure 71
0010
0100
0010
0100
0010
0100
0010
0000
0000
1001
0000
0000
;

//---------------dance-single - ----------------
#NOTES:
     dance-single:
     :
     Medium:
     10:
     0.485791,0.497935,0.138797,0.303619,0.004337,392.000000,376.000000,16.000000,35.000000,22.000000,0.000000,0.485791,0.497935,0.138797,0.303619,0.004337,392.000000,376.000000,16.000000,35.000000,22.000000,0.000000:
// measure 0
0000
0000
0000
0000
,  // measure 1
0000
0000
0000
0000
,  // measure 2
0000
0000
0000
0000
,  // measure 3
0000
0000
0000
0000
,  // measure 4
1000
0000
1000
0000
1000
0100
0010
0000
,  // measure 5
0100
0000
0100
0000
0100
0010
0001
0000
,  // measure 6
0100
0000
0100
0000
0100
0010
1000
0000
,  // measure 7
0001
0000
0001
0000
0100
0001
0010
0000
,  // measure 8
0200
0000
0010
0000
0310
0100
0010
0000
,  // measure 9
0002
0000
1000
0000
1003
0001
1000
0000
,  // measure 10
0020
0000
0100
0000
0130
0010
0100
0000
,  // measure 11
0002
0000
1000
0000
0013
0100
0010
0000
,  // measure 12
0002
0000
M103
0000
010M
1000
0001
0000
,  // measure 13
2000
0000
310M
0000
M100
0001
1000
0000
,  // measure 14
0002
0000
M013
0000
001M
1000
0001
1000
,  // measure 15
0010
0100
0220
0330
,  // measure 16
1000
0000
0010
1000
0200
0000
1300
010M
,  // measure 17
M200
0000
0001
0001
0001
0000
0301
M100
,  // measure 18
010M
0000
1000
0001
0010
0000
0010
0100
,  // measure 19
1000
0000
1000
0010
0100
0001
0010
0000
,  // measure 20
0001
0000
0010
0001
0200
0000
0301
M100
,  // measure 21
020M
0000
1000
1000
1000
0000
1300
010M
,  // measure 22
M100
0000
0001
1000
0010
0000
0010
0100
,  // measure 23
0001
0000
0000
0000
1000
0000
0000
2002
0000
0000
0000
0000
3003
0000
0000
0000
,  // measure 24
0001
0000
0100
0001
0020
0000
0031
M010
,  // measure 25
002M
0000
1000
1000
1000
0000
1030
010M
,  // measure 26
M100
0000
0001
1000
0100
0000
0001
0100
,  // measure 27
1000
0000
0001
0100
0010
1000
0100
0000
,  // measure 28
1000
0000
0100
1000
0020
0000
1030
001M
,  // measure 29
M020
0000
0001
0001
0001
0000
0031
M100
,  // measure 30
010M
0000
1000
0001
0100
0000
1000
0100
,  // measure 31
0001
0000
1000
0100
0010
0001
1000
0010
,  // measure 32
0100
0000
0100
0000
0100
0010
1000
0000
,  // measure 33
0010
0000
0010
0000
0010
1000
0100
0000
,  // measure 34
0010
0000
0010
0000
0100
0010
0001
0000
,  // measure 35
0100
0000
0100
0000
0010
1000
0001
0000
,  // measure 36
1000
0000
0001
0100
0001
0000
1000
0100
,  // measure 37
1000
0000
0001
0100
0001
0000
1000
0100
,  // measure 38
0010
0100
0010
0100
0010
0100
0010
0100
,  // measure 39
0010
0000
0010
0100
0010
0000
1001
0000
,  // measure 40
1020
0000
0130
0010
1000
0010
0200
0000
,  // measure 41
1300
0100
0001
0000
0001
0010
0100
0000
,  // measure 42
0021
0000
0130
0010
0001
0010
0200
0000
,  // measure 43
1300
0000
0010
0000
0100
0001
0010
0000
,  // measure 44
0120
0000
0000
0000
0130
1000
0002
0000
,  // measure 45
1003
0010
0001
0000
0001
0010
0100
0000
,  // measure 46
0102
0013
2100
3010
,  // measure 47
1000
0010
0100
0001
2000
0000
3001
0000
,  // measure 48
0021
0000
0130
0010
1000
0010
0200
0000
,  // measure 49
0301
0100
1000
0000
1000
0010
0100
0000
,  // measure 50
0020
0000
0130
0010
0001
0010
0200
0000
,  // measure 51
0301
0000
0010
0000
0100
1000
0010
0000
,  // measure 52
0120
0000
0000
0000
0130
0001
2000
0000
,  // measure 53
3001
0010
1000
0000
1000
0010
0100
0000
,  // measure 54
0010
0100
0010
0100
0010
0100
0010
0100
,  // measure 55
0010
0000
0010
0100
0010
0000
1001
0000
,  // measure 56
0001
0100
0001
0000
0110
0000
0001
0000
,  // measure 57
1000
0100
1000
0000
0010
1000
0100
0000
,  // measure 58
1000
0010
1000
0000
0110
0000
1000
0000
,  // measure 59
0001
0010
0001
0000
1000
0010
0100
0001
,  // measure 60
1000
0100
1000
0000
1001
0000
1000
0000
,  // measure 61
0001
0100
0001
0000
0010
0001
0100
0000
,  // measure 62
0010
1000
0001
0000
1001
0000
0001
1000
,  // measure 63
0200
0000
0000
0000
1300
0100
0001
0100
,  // measure 64
1000
0000
1000
0000
0010
1000
0100
1000
,  // measure 65
0001
0000
0001
0000
0100
0001
0010
0001
,  // measure 66
1000
0000
1000
0000
0100
1000
0010
1000
,  // measure 67
0001
0000
0001
0000
0010
0001
0100
0001
,  // measure 68
1000
0000
0100
0000
0001
0100
1000
0000
,  // measure 69
0001
0000
0100
0000
1000
0100
0001
0000
,  // measure 70
0001
0010
1000
0000
1000
0010
0001
0000
,  // measure 71
0100
0010
0100
1001
;

//---------------dance-single - ----------------
#NOTES:
     dance-single:
     :
     Easy:
     6:
     0.324687,0.342331,0.138797,0.303619,0.000000,262.000000,246.000000,16.000000,35.000000,0.000000,0.000000,0.324687,0.342331,0.138797,0.303619,0.000000,262.000000,246.000000,16.000000,35.000000,0.000000,0.000000:
// measure 0
0000
0000
0000
0000
,  // measure 1
0000
0000
0000
0000
,  // measure 2
0000
0000
0000
0000
,  // measure 3
0000
0000
0000
0000
,  // measure 4
1000
1000
1000
0010
,  // measure 5
0100
0100
0100
0001
,  // measure 6
0010
0010
0010
0100
,  // measure 7
1000
1000
0010
0100
,  // measure 8
0002
0010
0010
1000
,  // measure 9
2003
0010
0010
0001
,  // measure 10
3002
0100
0100
1000
,  // measure 11
2003
0100
0001
3010
,  // measure 12
1000
0100
0001
0100
,  // measure 13
1000
0010
0001
0010
,  // measure 14
1000
0100
0001
0100
,  // measure 15
1000
0001
2002
3003
,  // measure 16
1000
0010
0200
0001
,  // measure 17
0001
0010
1000
1300
,  // measure 18
0100
0001
0001
0010
,  // measure 19
0100
1000
0010
0100
,  // measure 20
0001
0010
0200
1000
,  // measure 21
1000
0010
0001
0301
,  // measure 22
0100
1000
1000
0010
,  // measure 23
0100
0001
1001
0000
,  // measure 24
1000
0100
0020
0001
,  // measure 25
0100
1000
0100
0031
,  // measure 26
0010
0100
0100
1000
,  // measure 27
0010
0100
1000
0100
,  // measure 28
0001
0100
0020
1000
,  // measure 29
0100
0001
0100
1030
,  // measure 30
0010
0100
0100
0001
,  // measure 31
0010
0100
1000
0001
,  // measure 32
1000
0000
1000
0100
,  // measure 33
0001
0000
0001
0100
,  // measure 34
1000
0000
1000
0010
,  // measure 35
0001
0000
0001
0010
,  // measure 36
1000
0100
1000
0100
,  // measure 37
0001
0100
0001
0100
,  // measure 38
1000
0010
0001
0010
,  // measure 39
1000
1000
1000
1010
,  // measure 40
0022
0033
1000
2200
,  // measure 41
3300
0001
0100
0010
,  // measure 42
2000
3100
0010
0012
,  // measure 43
1003
1000
1000
0000
,  // measure 44
0002
0000
0103
0220
,  // measure 45
0330
1000
0010
0100
,  // measure 46
2002
3003
0220
0330
,  // measure 47
1000
0001
1000
0000
,  // measure 48
2020
3030
0001
0202
,  // measure 49
0303
1000
0100
0001
,  // measure 50
0200
1300
0001
2001
,  // measure 51
3010
0010
0010
0000
,  // measure 52
2000
0000
3100
0220
,  // measure 53
0330
0001
0100
0010
,  // measure 54
1000
0100
0001
0100
,  // measure 55
1000
1000
1000
1010
,  // measure 56
0001
0001
0010
0000
,  // measure 57
0001
0001
0100
0010
,  // measure 58
1000
1000
0010
0000
,  // measure 59
1000
1000
0100
0010
,  // measure 60
0001
0001
0100
0000
,  // measure 61
0010
0010
1000
0001
,  // measure 62
0010
0010
0100
0000
,  // measure 63
0220
0330
0100
1000
,  // measure 64
0001
0100
1000
0100
,  // measure 65
0010
1000
0100
0100
,  // measure 66
1000
0100
0001
0100
,  // measure 67
0010
0001
0100
0100
,  // measure 68
0010
1000
0100
0001
,  // measure 69
0100
1000
0010
0100
,  // measure 70
0001
0010
1000
0010
,  // measure 71
0002
0000
0003
1001
;

//---------------dance-single - ----------------
#NOTES:
     dance-single:
     :
     Beginner:
     3:
     0.194564,0.280089,0.052049,0.086748,0.000000,157.000000,151.000000,6.000000,10.000000,0.000000,0.000000,0.194564,0.280089,0.052049,0.086748,0.000000,157.000000,151.000000,6.000000,10.000000,0.000000,0.000000:
// measure 0
0000
0000
0000
0000
,  // measure 1
0000
0000
0000
0000
,  // measure 2
0000
0000
0000
0000
,  // measure 3
0000
0000
0000
0000
,  // measure 4
1000
0000
1000
0000
,  // measure 5
0001
0000
0001
0000
,  // measure 6
1000
0000
1000
0000
,  // measure 7
0001
0000
0001
0000
,  // measure 8
0010
0000
0010
0000
,  // measure 9
0100
0000
0100
0000
,  // measure 10
0010
0000
0010
0000
,  // measure 11
0100
0000
0100
0000
,  // measure 12
1000
0000
0001
0000
,  // measure 13
1000
0000
0001
0000
,  // measure 14
0100
0000
0010
0000
,  // measure 15
0100
0100
0100
0000
,  // measure 16
0010
0100
0020
0000
,  // measure 17
0000
0000
0000
0030
,  // measure 18
1000
0000
1000
0000
,  // measure 19
0001
0000
0001
0000
,  // measure 20
0010
0100
0020
0000
,  // measure 21
0000
0000
0000
0030
,  // measure 22
0001
0000
0001
0000
,  // measure 23
1000
0000
1000
0000
,  // measure 24
0001
0100
0002
0000
,  // measure 25
0000
0000
0000
0003
,  // measure 26
1000
0000
0010
0000
,  // measure 27
0100
0000
0001
0000
,  // measure 28
1000
0100
2000
0000
,  // measure 29
0000
0000
0000
3000
,  // measure 30
0001
0000
0010
0000
,  // measure 31
0100
0000
1000
0000
,  // measure 32
0001
0000
0001
0000
,  // measure 33
0100
0000
0100
0000
,  // measure 34
0010
0000
0010
0000
,  // measure 35
1000
0000
1000
0000
,  // measure 36
0001
0000
1000
0000
,  // measure 37
0001
0000
1000
0000
,  // measure 38
0001
0001
0001
0001
,  // measure 39
0001
0000
0000
0000
,  // measure 40
1001
0000
0001
0001
,  // measure 41
0000
0010
0010
0000
,  // measure 42
0002
0003
1000
0000
,  // measure 43
0010
0010
0010
0000
,  // measure 44
2000
3000
0001
0001
,  // measure 45
0000
1000
1000
0000
,  // measure 46
1001
0000
1001
0000
,  // measure 47
1000
0001
1000
0000
,  // measure 48
1001
0000
1000
1000
,  // measure 49
0000
0100
0100
0000
,  // measure 50
0010
0000
0001
0000
,  // measure 51
0100
0100
0100
0000
,  // measure 52
0020
0030
1000
1000
,  // measure 53
0000
0001
0001
0000
,  // measure 54
1000
1000
1000
1000
,  // measure 55
1000
0000
0000
0000
,  // measure 56
1000
0000
1000
0000
,  // measure 57
1000
0000
0001
1000
,  // measure 58
0001
0000
0001
0000
,  // measure 59
0001
0000
1000
0001
,  // measure 60
1000
0000
1000
0000
,  // measure 61
1000
0000
0001
1000
,  // measure 62
0001
0000
1000
0000
,  // measure 63
2002
0000
3003
0000
,  // measure 64
0001
0001
0001
0000
,  // measure 65
0100
0100
0100
0000
,  // measure 66
0010
0010
0010
0000
,  // measure 67
1000
1000
1000
0000
,  // measure 68
0100
0010
0100
0000
,  // measure 69
0010
0100
0010
0000
,  // measure 70
0100
0010
0100
0000
,  // measure 71
0020
0000
0030
1001
;
