#TITLE:Scorpion King;
#SUBTITLE:;
#ARTIST:r300k;
#TITLETRANSLIT:;
#SUBTITLETRANSLIT:;
#ARTISTTRANSLIT:;
#GENRE:Egyptian Glitch Hop;
#CREDIT:;
#BANNER:Scorpion King.png;
#BACKGROUND:Scorpion King-bg.png;
#LYRICSPATH:;
#CDTITLE:cdtitle.png;
#MUSIC:Scorpion King.ogg;
#OFFSET:2.083359;
#SAMPLESTART:38.276623;
#SAMPLELENGTH:16.991154;
#LASTBEATHINT:2.029638;
#SELECTABLE:YES;
#BPMS:0.000000=113.000000
;
#STOPS:
;
#BGCHANGES:3.917=Scorpion King.avi=1.000=1=0=0=StretchNoLoop==CrossFade==,
99999=-nosongbg-=1.000=0=0=0 // don't automatically add -songbackground-
;
#KEYSOUNDS:;
#ATTACKS:;

//---------------dance-single - ----------------
#NOTES:
     dance-single:
     :
     Challenge:
     14:
     0.768322,0.789429,0.624789,0.683891,0.869639,637.000000,563.000000,74.000000,81.000000,30.000000,0.000000,0.768322,0.789429,0.624789,0.683891,0.869639,637.000000,563.000000,74.000000,81.000000,30.000000,0.000000:
// measure 0
0000
0000
0000
0000
,  // measure 1
0000
0000
0000
0000
,  // measure 2
0000
0000
0000
0000
0000
0000
0000
0000
0000
0000
0000
0000
0000
0000
0000
0000
2002
0000
0000
0000
0000
0000
0000
0000
3003
M00M
0000
0000
0000
0000
0000
0000
,  // measure 3
1001
1000
0100
0010
1000
0010
0110
0100
,  // measure 4
1100
0000
1000
0000
0010
0000
0100
0000
1100
0000
1000
0100
0010
0000
1010
0000
,  // measure 5
1001
0000
0001
0000
0010
0000
0100
0000
0101
0000
0001
0100
0010
0000
0011
0000
,  // measure 6
1001
0000
0001
0000
0100
0000
0010
0000
0011
0000
0001
0000
0010
1000
0000
0000
,  // measure 7
1010
0000
0010
1000
0001
1000
0010
1000
0100
0010
0000
0010
0100
0000
0010
0000
,  // measure 8
0011
0000
0010
0001
1000
0001
0010
0001
0100
0010
0000
0010
0100
0000
0010
0000
,  // measure 9
1010
0000
1000
0010
0001
0010
1000
0001
1000
0100
0000
0100
0010
0000
0001
0000
,  // measure 10
0011
0000
0001
0010
1000
0010
0001
1000
0001
0000
0100
0000
0210
0000
0000
0000
,  // measure 11
0310
1000
0001
1000
0010
1000
0100
1000
,  // measure 12
0001
0010
0001
1000
0001
0010
0001
0100
,  // measure 13
0001
0010
1000
0010
0001
0100
1000
0100
,  // measure 14
0001
0010
1000
0010
0001
0100
0010
1000
,  // measure 15
1010
1000
1100
1000
0011
0001
0101
0001
,  // measure 16
1100
0010
0101
0010
1100
0011
0101
1010
,  // measure 17
0001
0100
0010
1000
0100
1000
0010
0100
0001
0010
0001
0100
0010
1000
0100
0010
,  // measure 18
0004
0040
0000
0000
0000
0000
0000
0000
0000
0000
0000
0000
0000
0000
0000
0000
0033
0000
0000
0000
0000
0000
0000
0000
M00M
0000
0MM0
0000
0000
0000
0000
0000
,  // measure 19
2002
0000
3003
0000
0001
0001
0100
0000
0001
0001
1000
0100
0020
0000
2030
0000
,  // measure 20
3020
0000
0130
0100
0010
0001
0100
0000
2000
0000
3100
0020
1030
0100
0002
0103
,  // measure 21
0020
0000
0031
0100
0010
0000
0110
0000
2000
3010
0100
0020
0031
0010
0200
0301
,  // measure 22
0020
0100
0130
0000
0010
0001
1000
0000
2010
0000
3100
0010
0022
0000
0033
0000
,  // measure 23
2002
0000
3003
0000
1000
1000
0100
0000
0010
0010
0001
0100
0020
0000
0032
0000
,  // measure 24
0023
0000
0000
0030
0110
0000
0000
0000
0010
0000
0010
0000
1000
0000
0100
0000
0002
0000
0000
0000
0103
0000
0020
0000
0031
0000
0100
0000
2000
0000
3100
0000
,  // measure 25
0020
0000
0130
0010
1000
1000
0100
0000
0002
0103
1000
0020
0031
0010
2000
3100
,  // measure 26
0020
0000
0000
0030
0110
0000
0000
0000
0010
0000
0001
0000
0100
0000
0010
0000
2002
0000
0000
0000
3003
0000
0000
0000
0220
0000
0000
0000
0330
0000
0000
0000
,  // measure 27
1002
0000
0103
0001
1000
0001
0200
0000
2300
0000
3200
0000
0302
0000
0023
0000
,  // measure 28
0130
1000
0100
1000
0001
1000
0001
1000
0010
1000
0010
1000
0100
1000
0010
1000
,  // measure 29
0001
0010
0100
0010
0001
0100
0010
0100
0001
0010
0100
0010
0001
0100
1000
0100
,  // measure 30
0001
0010
0100
0010
0001
0100
0010
0100
0102
0000
0013
0000
2200
0000
3300
0000
,  // measure 31
2001
0000
3100
1000
0001
1000
0200
0000
0302
0000
2003
0000
3020
0000
0032
0000
,  // measure 32
1003
0010
1000
0010
0001
0010
0001
0010
1000
0100
1000
0100
0001
0100
0010
0100
,  // measure 33
1000
0010
0100
0010
1000
0100
0010
0100
1000
0010
0100
0010
1000
0100
0001
0100
,  // measure 34
1000
0010
0100
0010
1000
0100
0010
0100
2100
0000
3010
0000
0102
0000
0013
0000
,  // measure 35
1100
1000
1010
1000
0101
0001
0011
0001
,  // measure 36
1100
0001
0101
1000
1010
1001
0011
1001
,  // measure 37
1000
0100
1000
0100
0001
0100
0001
0100
1000
0010
1000
0010
0001
0010
0001
0010
,  // measure 38
4000
0040
0000
0000
0000
0000
0000
0000
0000
0000
0000
0000
0000
0000
3030
0000
1000
0000
0010
0000
0000
0000
1000
0000
0100
0000
0000
0000
1100
0000
0000
0000
,  // measure 39
0220
0000
0000
0000
0000
0000
0000
0000
0300
0M00
0000
0000
0000
0000
0000
0000
0031
0000
0010
0M00
0010
0000
1000
0000
0100
0000
0001
0000
0100
0000
1000
0000
,  // measure 40
0020
1000
0001
MM00
0000
0001
1000
0M0M
0000
1000
0001
MM30
0200
0000
1300
0001
,  // measure 41
0202
0000
0000
0000
0000
0000
0000
0000
0003
000M
0000
0000
0000
0000
0000
0000
0301
0000
0100
00M0
0100
0000
1000
0000
0001
0000
0010
0000
0100
0000
1000
0000
,  // measure 42
0010
1000
0200
0000
0310
0001
0200
0000
1300
0100
0001
0010
0220
0000
0330
0000
,  // measure 43
0022
0000
0000
0000
0000
0000
0000
0000
0030
00M0
0000
0000
0000
0000
0000
0000
1003
0000
0100
00M0
0100
0000
0001
0000
0010
0000
1000
0000
0010
0000
0001
0000
,  // measure 44
0200
0001
1000
00MM
0000
1000
0001
M0M0
0000
0001
1000
03MM
0010
0001
1000
0010
,  // measure 45
0220
0000
0000
0000
0000
0000
0000
0000
0300
0M00
0000
0000
0000
0000
0000
0000
1030
0000
0100
00M0
0100
0000
0001
0000
1000
0000
0100
0000
0010
0000
0001
0000
,  // measure 46
0100
0001
0020
0000
0130
1000
0020
0000
0130
0001
1000
0100
0020
0000
0030
0000
,  // measure 47
0012
0000
1003
0000
0101
0000
0001
0100
1000
0001
0010
1000
0001
0010
1000
0010
,  // measure 48
0110
0000
0000
0000
0011
0000
0000
0000
1000
0000
0010
0M00
0010
0000
0001
0000
1000
0000
0100
00M0
0100
0000
0001
0000
0020
0000
0000
0000
0031
0000
1000
0000
,  // measure 49
2010
0000
3001
0000
1100
0000
1000
0100
0001
1000
0010
0001
1000
1000
0010
0000
,  // measure 50
0110
0000
1010
0000
1000
0100
0002
0000
0103
0010
0001
0100
1002
0000
0013
0100
,  // measure 51
2001
0000
3001
0000
1010
0000
1000
0010
0100
1000
0100
0010
1000
0100
0010
0001
,  // measure 52
0011
0000
0000
0000
1010
0000
0000
0000
0001
0000
0100
00M0
0100
0000
1000
0000
0001
0000
0010
0M00
0010
0000
1000
0000
0200
0000
0000
0000
1300
0000
0001
0000
,  // measure 53
0102
0000
1003
0000
0011
0000
0001
0010
0100
0001
0100
0010
0001
0100
0010
1000
,  // measure 54
1100
0000
0101
0000
0001
0100
2000
0000
3001
0010
1000
0100
0020
0000
0000
0000
,  // measure 55
0130
0000
0000
0000
;

//---------------dance-single - ----------------
#NOTES:
     dance-single:
     :
     Hard:
     12:
     0.565687,0.603681,0.574130,0.557244,0.274401,469.000000,401.000000,68.000000,66.000000,8.000000,0.000000,0.565687,0.603681,0.574130,0.557244,0.274401,469.000000,401.000000,68.000000,66.000000,8.000000,0.000000:
// measure 0
0000
0000
0000
0000
,  // measure 1
0000
0000
0000
0000
,  // measure 2
0000
0000
2002
3003
,  // measure 3
1000
0100
0010
0100
1000
0100
0011
0001
,  // measure 4
0101
0000
0100
0000
0010
0000
0100
0000
0101
0000
0000
0011
0000
0000
0101
0000
,  // measure 5
1000
0000
0100
0000
0010
0000
0100
0000
1100
0000
0000
1010
0000
0000
1100
0000
,  // measure 6
0001
0100
0010
0100
0001
1000
0200
0000
,  // measure 7
0310
0001
0100
1000
0100
0001
0011
0001
,  // measure 8
1001
0000
1000
0000
0010
0000
0100
0000
1010
0000
0000
0110
0000
0000
1010
0000
,  // measure 9
0001
0000
0010
0000
1000
0000
0010
0000
0011
0000
0000
0110
0000
0000
0011
0000
,  // measure 10
1000
0010
0001
0010
1000
0100
0020
0000
,  // measure 11
0031
0001
0100
0100
,  // measure 12
1000
1000
0010
0010
,  // measure 13
0001
0100
1000
0010
,  // measure 14
0001
0100
1000
0010
,  // measure 15
0001
0100
0001
0100
1000
0100
1000
0100
,  // measure 16
1000
0010
1000
0010
0001
0010
0001
0010
,  // measure 17
0001
0100
1000
0100
0001
0010
1000
0010
,  // measure 18
0002
0000
0000
0000
0010
0000
0013
0000
1100
0000
0000
0000
M00M
0MM0
0000
0000
,  // measure 19
2001
0000
0000
0000
3001
0100
0001
0000
1000
0100
1000
0000
0102
0000
0013
0000
,  // measure 20
1100
0000
1000
0000
0010
1000
0010
0000
0202
0303
0000
2002
3003
0000
0022
0033
,  // measure 21
1001
0000
1000
0010
1000
0000
0001
0000
0022
0033
0000
2002
3003
0000
0202
0303
,  // measure 22
1001
0000
1000
0000
0100
0010
0100
0000
0020
0000
0031
0100
0010
0000
0000
0000
,  // measure 23
1002
0000
0000
0000
1003
0010
1000
0000
0001
0010
0001
0000
2100
0000
3010
0000
,  // measure 24
0101
0000
1000
0000
0010
1000
0100
0000
2200
3300
0000
2002
3003
0000
2020
3030
,  // measure 25
1001
0000
0001
0000
0010
0001
0100
0000
2020
3030
0000
2002
3003
0000
2200
3300
,  // measure 26
1001
0000
0001
0000
0010
0001
1000
0000
2020
0000
3030
0000
0202
0000
0303
0000
,  // measure 27
2001
0000
3100
0010
0001
0100
0010
1000
,  // measure 28
2100
0000
3001
0000
2001
0000
3010
0000
1010
0000
0000
0110
0000
0000
1010
0000
,  // measure 29
1001
0000
0001
0000
0010
0100
0010
0000
0001
0000
0010
0100
0010
0000
0011
0000
,  // measure 30
1001
0000
1000
0000
0010
0100
0010
0000
1000
0000
0100
0000
0110
0000
0000
0000
,  // measure 31
1002
0000
1003
0100
0001
0100
1000
0010
,  // measure 32
0102
0000
0013
0000
2100
0000
3010
0000
0101
0000
0000
0011
0000
0000
1100
0000
,  // measure 33
1001
0000
1000
0000
0010
0100
0010
0000
0001
0000
0010
0100
0010
0000
1010
0000
,  // measure 34
1001
0000
0001
0000
0010
0100
0010
0000
1000
0000
0010
0000
0021
0000
0000
0000
,  // measure 35
0130
0100
1000
1000
0001
0001
0100
0100
,  // measure 36
0010
0010
1000
1000
0001
0001
0010
0010
,  // measure 37
1000
0010
0001
0100
1000
0100
0001
0010
,  // measure 38
0200
0000
0000
0000
0000
0000
0000
0000
0310
0001
0000
1000
0010
0000
0100
0000
,  // measure 39
0220
0000
0000
0000
0300
0M00
0000
0000
1030
0000
0010
0000
0001
0010
0001
0000
,  // measure 40
0010
0000
1000
0000
0100
0000
0001
0000
0100
0000
1000
0000
0020
0000
0130
0002
,  // measure 41
2000
0000
0000
0000
0003
000M
0000
0000
3100
0000
0001
0000
0100
0000
1000
0000
,  // measure 42
0001
0010
0001
0000
1000
0010
1000
0000
0001
0010
0001
0010
0100
0000
0000
0000
,  // measure 43
0220
0000
0000
0000
0300
0M00
0000
0000
0031
0000
0010
0000
1000
0010
1000
0000
,  // measure 44
0010
0000
0001
0000
0100
0000
1000
0000
0100
0000
0001
0000
1000
0100
0010
0002
,  // measure 45
2000
0000
0000
0000
0003
000M
0000
0000
3010
0000
0001
0000
0010
0000
1000
0000
,  // measure 46
0100
0010
0001
0000
0100
0010
1000
0000
0001
1000
0001
1000
0100
0000
0000
0000
,  // measure 47
1002
0000
0000
0000
0103
0000
0010
0000
0100
0001
0010
0000
1000
0000
0010
0000
,  // measure 48
0002
0000
0103
0000
0010
1000
0010
1000
0000
0010
1000
0001
0020
0000
0130
0000
,  // measure 49
1200
0000
0000
0000
0310
0000
0001
0000
0100
0000
0010
0000
1000
0001
1000
0000
,  // measure 50
0200
0000
0310
0000
0100
1000
0010
0000
0100
0001
0100
0001
0010
0000
0000
0000
,  // measure 51
2001
0000
0000
0000
3100
0000
0010
0000
0100
1000
0010
0000
0001
0000
0010
0000
,  // measure 52
2000
0000
3100
0000
0010
0001
0010
0001
0000
0010
0001
1000
0020
0000
0130
0000
,  // measure 53
0201
0000
0000
0000
0310
0000
1000
0000
0100
0000
0001
0000
0100
0010
0100
0000
,  // measure 54
2000
0000
3010
0000
1000
0010
0001
0000
0010
1000
0010
1000
0200
0000
0000
0000
,  // measure 55
0310
0000
0000
0000
;

//---------------dance-single - ----------------
#NOTES:
     dance-single:
     :
     Medium:
     9:
     0.452309,0.557244,0.574130,0.388382,0.059102,375.000000,307.000000,68.000000,46.000000,0.000000,0.000000,0.452309,0.557244,0.574130,0.388382,0.059102,375.000000,307.000000,68.000000,46.000000,0.000000,0.000000:
// measure 0
0000
0000
0000
0000
,  // measure 1
0000
0000
0000
0000
,  // measure 2
0000
0000
2002
3003
,  // measure 3
1100
0000
0001
0000
0001
0000
0100
0010
,  // measure 4
0101
0000
0000
0000
0001
0000
0000
0000
0010
0000
0000
0010
0000
0000
0100
0000
,  // measure 5
0011
0000
0000
0000
1000
0000
0000
0000
0010
0000
0000
0010
0000
0000
0100
0000
,  // measure 6
1010
0000
0001
0000
0010
0100
2000
0000
,  // measure 7
3001
0100
0001
0100
0001
1000
0100
0000
,  // measure 8
0010
0100
0010
0100
1000
0010
1000
0000
,  // measure 9
0010
0100
0010
0100
0001
0010
0001
0000
,  // measure 10
1000
0100
1000
0100
1000
0001
0100
0000
,  // measure 11
0001
0001
0100
0100
,  // measure 12
0010
0010
1000
1000
,  // measure 13
0001
0010
1000
0010
,  // measure 14
0001
0100
1000
0100
,  // measure 15
0101
1001
1100
1001
,  // measure 16
0011
1001
1010
1001
,  // measure 17
0001
0010
0100
1000
0010
0100
0001
1000
,  // measure 18
0200
0000
0010
0310
0220
0000
0330
0000
,  // measure 19
2002
3003
0001
0001
0100
0001
0011
1000
,  // measure 20
1020
0000
0000
0000
0130
0000
0001
0000
0011
0000
0000
1010
0000
0000
0011
0000
,  // measure 21
1001
0000
1000
0000
0010
0000
0100
0000
1010
0000
0000
0011
0000
0000
1010
0000
,  // measure 22
1001
0001
1000
0100
0001
0100
0110
0000
,  // measure 23
2002
3003
1000
1000
0010
1000
1100
0001
,  // measure 24
0201
0000
0310
0000
1000
0000
0100
0000
1100
0000
0000
0101
0000
0000
1100
0000
,  // measure 25
1001
0000
0001
0000
0100
0000
0010
0000
0101
0000
0000
1100
0000
0000
0101
0000
,  // measure 26
1001
1000
0100
0010
0011
0000
1010
0000
,  // measure 27
1001
0000
0001
0100
0010
1000
0100
0010
,  // measure 28
0002
0000
0203
0000
2300
0000
3100
0001
,  // measure 29
2000
0000
0100
0000
0000
0001
0000
0000
0100
0000
0000
0001
0000
0000
3001
0000
,  // measure 30
0002
0000
0100
0000
0000
1003
0000
0000
1001
0000
0000
0000
0110
0000
0000
0000
,  // measure 31
1001
0000
1000
0100
0001
0100
1000
0010
,  // measure 32
0002
0000
0023
0000
2030
0000
3001
1000
,  // measure 33
0200
0000
0010
0000
0000
0001
0000
0000
0010
0000
0000
1000
0000
0000
0310
0000
,  // measure 34
0020
0000
1000
0000
0000
0100
0000
0000
0031
0000
0010
0000
1001
0000
0000
0000
,  // measure 35
0002
0203
0320
2030
,  // measure 36
3200
0302
0203
2300
,  // measure 37
3010
0100
0001
1000
0100
0010
0001
1000
,  // measure 38
0020
0000
0000
0000
0000
0000
0000
0000
0130
0010
0000
0100
0010
0000
0100
0000
,  // measure 39
2002
0000
3003
0000
0001
0010
1000
0010
,  // measure 40
0002
0000
0100
0000
0103
0010
0001
0010
,  // measure 41
0220
0000
0330
0000
0100
0001
1000
0100
,  // measure 42
0011
1000
1010
0001
0010
0001
0110
0000
,  // measure 43
2002
0000
3003
0000
1000
0010
0001
0010
,  // measure 44
2000
0000
0100
0000
3100
0010
1000
0010
,  // measure 45
0220
0000
0330
0000
0100
1000
0001
0100
,  // measure 46
0101
0010
1100
0010
0011
0001
0100
0000
,  // measure 47
2001
0000
3100
0000
0010
0001
1001
0001
,  // measure 48
0100
1000
1100
1000
0100
0001
0010
0000
,  // measure 49
1002
0000
0103
0000
0010
1000
0100
1000
,  // measure 50
1010
0001
0011
1000
0010
0110
1001
0000
,  // measure 51
1002
0000
0013
0000
0100
1000
1001
1000
,  // measure 52
0010
0001
0011
0001
0010
1000
0100
0000
,  // measure 53
2001
0000
3010
0000
0100
0001
0010
0001
,  // measure 54
0101
0010
1010
0100
0001
1000
0200
0000
,  // measure 55
0310
0000
0000
0000
;

//---------------dance-single - ----------------
#NOTES:
     dance-single:
     :
     Easy:
     6:
     0.305158,0.325059,0.253293,0.599460,0.000000,253.000000,223.000000,30.000000,71.000000,0.000000,0.000000,0.305158,0.325059,0.253293,0.599460,0.000000,253.000000,223.000000,30.000000,71.000000,0.000000,0.000000:
// measure 0
0000
0000
0000
0000
,  // measure 1
0000
0000
0000
0000
,  // measure 2
0000
0000
2002
3003
,  // measure 3
2000
3010
0010
2000
,  // measure 4
3002
0013
0200
0320
,  // measure 5
0032
0103
0200
0320
,  // measure 6
2030
3100
0010
0010
,  // measure 7
0002
0103
0100
0020
,  // measure 8
2030
3100
0002
0203
,  // measure 9
2300
3010
0002
0023
,  // measure 10
2030
3100
2002
3003
,  // measure 11
0001
0100
0001
0100
,  // measure 12
0010
1000
0010
1000
,  // measure 13
0001
0010
0001
0010
,  // measure 14
0100
1000
0100
1000
,  // measure 15
0002
0203
0320
2030
,  // measure 16
3200
2300
3020
0230
,  // measure 17
0302
0023
0230
2300
,  // measure 18
3010
0000
0010
0100
0010
0000
0000
0000
,  // measure 19
1001
0001
0001
0011
,  // measure 20
1010
0000
1000
0000
1010
0000
1000
0100
,  // measure 21
1000
0000
0001
0000
0011
0000
0001
0100
,  // measure 22
0001
0000
0100
0000
0020
1000
1030
0000
,  // measure 23
1001
1000
1000
1100
,  // measure 24
0101
0000
0001
0000
0011
0000
0100
1000
,  // measure 25
0100
0000
1000
0000
1010
0000
0100
0001
,  // measure 26
0100
0001
1001
0110
,  // measure 27
1001
2000
3200
0320
,  // measure 28
0032
0000
0203
0000
0320
0000
1030
0001
,  // measure 29
2000
0000
0100
0000
0100
0000
3001
1000
,  // measure 30
0002
0103
1010
0101
,  // measure 31
1001
0002
0023
2030
,  // measure 32
3020
0000
0032
0000
0203
0000
0310
1000
,  // measure 33
0200
0000
1000
0000
1000
0000
0310
0001
,  // measure 34
0020
0031
1001
0110
,  // measure 35
0001
0100
0001
1000
,  // measure 36
0100
1000
0001
0010
,  // measure 37
0200
2300
3002
0203
,  // measure 38
0020
0300
0130
0010
,  // measure 39
2002
3003
0001
0010
,  // measure 40
1000
0001
0100
1000
,  // measure 41
2200
3300
1000
0010
,  // measure 42
0100
0001
0100
0000
0010
0000
1000
0000
,  // measure 43
2002
3003
1000
0100
,  // measure 44
0001
1000
0010
0001
,  // measure 45
0022
0033
0001
0100
,  // measure 46
0010
1000
0010
0000
1000
0000
0100
0000
,  // measure 47
0012
0000
1003
0000
0001
0100
0001
0000
,  // measure 48
0201
0000
0310
0000
0100
0001
0010
0000
,  // measure 49
0021
0000
0130
0000
1000
0100
1000
0000
,  // measure 50
0001
0000
0001
0000
0100
0010
1000
0000
,  // measure 51
2010
0000
3001
0000
1000
0100
1000
0000
,  // measure 52
1200
0000
0310
0000
0100
1000
0010
0000
,  // measure 53
1020
0000
0130
0000
0001
0100
0001
0000
,  // measure 54
1000
0000
1000
0000
0100
0010
0002
0000
,  // measure 55
1003
0000
0000
0000
;

//---------------dance-single - ----------------
#NOTES:
     dance-single:
     :
     Beginner:
     2:
     0.147151,0.185748,0.075988,0.084431,0.000000,122.000000,113.000000,9.000000,10.000000,0.000000,0.000000,0.147151,0.185748,0.075988,0.084431,0.000000,122.000000,113.000000,9.000000,10.000000,0.000000,0.000000:
// measure 0
0000
0000
0000
0000
,  // measure 1
0000
0000
0000
0000
,  // measure 2
0000
0000
0000
0000
,  // measure 3
1000
0000
1000
0000
,  // measure 4
0001
0000
0001
0000
,  // measure 5
1000
0000
1000
0000
,  // measure 6
0001
0000
0001
0000
,  // measure 7
1000
0000
0010
0000
,  // measure 8
0100
0000
0001
0000
,  // measure 9
0010
0000
0100
0000
,  // measure 10
1000
0000
0001
0000
,  // measure 11
0100
0000
0100
0000
,  // measure 12
0100
0000
0100
0000
,  // measure 13
0010
0000
0010
0000
,  // measure 14
0010
0000
0010
0000
,  // measure 15
1000
0000
0001
0000
,  // measure 16
1000
0000
0001
0000
,  // measure 17
0010
0010
0010
0010
,  // measure 18
0020
0000
0030
0000
,  // measure 19
0001
0000
0100
0100
,  // measure 20
0100
0000
0010
0010
,  // measure 21
0010
0000
1000
1000
,  // measure 22
1000
0000
0001
0000
,  // measure 23
1000
0000
0100
0100
,  // measure 24
0100
0000
0010
0010
,  // measure 25
0010
0000
0001
0001
,  // measure 26
0001
0000
1001
0000
,  // measure 27
1000
0000
0010
0000
,  // measure 28
0200
0300
0002
0003
,  // measure 29
2000
0000
0000
3000
,  // measure 30
0002
0000
0003
0000
,  // measure 31
0001
0000
0010
0000
,  // measure 32
0200
0300
2000
3000
,  // measure 33
0002
0000
0000
0003
,  // measure 34
2000
0000
3000
0000
,  // measure 35
0010
0000
0010
0000
,  // measure 36
0010
0000
0010
0000
,  // measure 37
0100
0100
0100
0100
,  // measure 38
0200
0000
0300
0000
,  // measure 39
1001
0000
1000
0000
,  // measure 40
0010
0000
1000
0000
,  // measure 41
1001
0000
1000
0000
,  // measure 42
0100
0000
1000
0000
,  // measure 43
1001
0000
0001
0000
,  // measure 44
0100
0000
0001
0000
,  // measure 45
1001
0000
0001
0000
,  // measure 46
0010
0000
0001
0000
,  // measure 47
1001
0000
1000
1000
,  // measure 48
1000
0000
0010
0000
,  // measure 49
1001
0000
1000
1000
,  // measure 50
1000
0000
0100
0000
,  // measure 51
1001
0000
0001
0001
,  // measure 52
0001
0000
0100
0000
,  // measure 53
1001
0000
0001
0001
,  // measure 54
0001
0000
0010
0000
,  // measure 55
0100
0000
0000
0000
;
