#VERSION:0.83;
#TITLE:Sahara;
#SUBTITLE:;
#ARTIST:Hommarju;
#TITLETRANSLIT:;
#SUBTITLETRANSLIT:;
#ARTISTTRANSLIT:;
#GENRE:Mixstyle;
#ORIGIN:;
#CREDIT:;
#BANNER:Sahara.png;
#BACKGROUND:Sahara-bg.png;
#PREVIEWVID:;
#JACKET:Sahara-jacket.png;
#CDIMAGE:;
#DISCIMAGE:;
#LYRICSPATH:;
#CDTITLE:cdtitle.png;
#MUSIC:Sahara.ogg;
#OFFSET:0.897827;
#SAMPLESTART:14.260067;
#SAMPLELENGTH:10.105263;
#SELECTABLE:YES;
#DISPLAYBPM:95.000000:155.000000;
#BPMS:0.000=95.000,
40.000=100.000,
42.000=110.000,
44.000=115.000,
46.000=120.000,
48.000=125.000,
50.000=130.000,
52.000=135.000,
54.000=140.000,
56.000=145.000,
72.000=72.500,
73.938=145.000,
144.000=140.000,
146.000=135.000,
148.000=130.000,
152.000=125.000,
154.000=120.000,
158.000=125.000,
160.000=130.000,
162.000=135.000,
164.000=140.000,
166.000=145.000,
168.000=150.000,
170.000=155.000;
#STOPS:73.938=1.681,
197.938=1.548;
#DELAYS:;
#WARPS:;
#TIMESIGNATURES:0.000=4=4;
#TICKCOUNTS:0.000=4;
#COMBOS:0.000=1;
#SPEEDS:0.000=1.000=0.000=0;
#SCROLLS:0.000=1.000;
#FAKES:;
#LABELS:0.000=Song Start;
#BGCHANGES:;
#KEYSOUNDS:;
#ATTACKS:
;

//---------------dance-single - ----------------
#NOTEDATA:;
#CHARTNAME:;
#STEPSTYPE:dance-single;
#DESCRIPTION:;
#CHARTSTYLE:;
#DIFFICULTY:Challenge;
#METER:14;
#RADARVALUES:0.651821,0.641559,0.269357,0.236708,0.310169,559.000000,526.000000,33.000000,29.000000,0.000000,0.000000,0.000000,0.000000,0.000000,0.651821,0.641559,0.269357,0.236708,0.310169,559.000000,526.000000,33.000000,29.000000,0.000000,0.000000,0.000000,0.000000,0.000000;
#CREDIT:;
#OFFSET:0.897827;
#BPMS:0.000000=95.000000
,40.000000=100.000000
,42.000000=110.000000
,44.000000=115.000000
,46.000000=120.000000
,48.000000=124.999992
,50.000000=130.000000
,52.000000=135.000000
,54.000000=140.000000
,56.000000=145.000000
,72.000000=72.500000
,73.937500=145.000000
,144.000000=140.000000
,146.000000=135.000000
,148.000000=130.000000
,152.000000=124.999992
,154.000000=120.000000
,158.000000=124.999992
,160.000000=130.000000
,162.000000=135.000000
,164.000000=140.000000
,166.000000=145.000000
,168.000000=150.000000
,170.000000=155.000000
;
#STOPS:73.937500=1.681037
,197.937500=1.548388
;
#DELAYS:;
#WARPS:;
#TIMESIGNATURES:0.000000=4=4
;
#TICKCOUNTS:0.000000=4
;
#COMBOS:0.000000=1
;
#SPEEDS:0.000000=1.000000=0.000000=0
;
#SCROLLS:0.000000=1.000000
;
#FAKES:;
#LABELS:0.000000=Song Start
;
#DISPLAYBPM:95.000000:155.000000;
#NOTES:
// measure 0
0000
0000
0000
0000
,  // measure 1
0000
0000
0000
0000
,  // measure 2
2001
0000
0000
0000
3001
0100
0001
0000
0100
0000
1000
0100
0001
1000
0001
0000
,  // measure 3
1002
0000
0000
0000
1003
0100
1000
0000
0100
0000
0001
0100
1000
0001
1000
0000
,  // measure 4
0001
0000
0001
0000
1000
0010
0100
0000
0010
0000
0001
0010
1000
0001
0100
0010
,  // measure 5
2000
0000
0000
0000
0000
0000
0000
0000
0000
0000
0000
0000
3001
0000
0000
0010
0000
0000
0100
0000
0000
0000
0000
0000
0010
0000
0000
0000
0000
0000
1000
0000
0000
0010
0000
0000
0001
0000
0000
0000
1000
0000
0100
0000
0000
0000
0010
0000
,  // measure 6
0002
0000
0000
0000
0103
0010
0100
0000
1000
0000
0001
0010
1000
0100
0001
0000
,  // measure 7
0102
0000
0000
0000
0103
0010
0100
0000
0001
0000
1000
0010
0001
0100
0010
0000
,  // measure 8
1000
0000
1000
0000
0001
1000
0100
0000
0010
0000
1000
0010
0001
0100
0001
0100
,  // measure 9
2000
0000
0000
0000
3100
0010
0100
0000
1000
0000
0001
0010
1000
0100
0010
0000
,  // measure 10
0002
0000
0010
0000
1000
0000
1003
0001
,  // measure 11
0200
0000
1000
0000
0301
0000
0100
0010
,  // measure 12
2000
0000
0010
0000
0001
0000
3001
1000
,  // measure 13
0200
0000
0001
0000
1300
0000
0100
0010
,  // measure 14
0001
0100
0100
0001
0100
1000
1000
0100
,  // measure 15
1000
0010
0010
1000
0010
0001
0001
0010
,  // measure 16
0001
0100
1000
0100
0001
0010
1000
0010
,  // measure 17
0001
0010
0001
0000
1000
0010
1000
0000
0001
0100
0001
0000
1000
0100
1000
0000
,  // measure 18
0002
0000
0000
0000
0000
0000
0000
0000
0000
0000
0000
0000
0000
0000
0000
0000
0000
0000
0000
0000
0000
0000
0000
0000
0000
0000
0000
0000
0000
0000
0000
0003
0001
0000
0000
0000
0000
0000
0000
0000
0011
0000
0000
0000
0000
0000
0000
0000
0001
0000
0000
0000
0000
0000
0000
0000
1000
0000
0000
0000
0000
0000
0000
0000
,  // measure 19
0001
0101
0001
1000
0001
0011
0001
1000
,  // measure 20
0010
0010
0110
0000
1000
1010
1000
0001
,  // measure 21
1000
1100
1000
0001
1000
1010
1000
0001
,  // measure 22
0010
0010
0110
0000
1000
1100
0010
0001
,  // measure 23
0100
0101
0010
1000
0100
1100
0010
0001
,  // measure 24
0100
0100
0110
0000
0010
1010
0001
1000
,  // measure 25
0100
0000
0011
0000
1000
0000
0001
0000
0100
0000
0010
0100
0000
0010
1000
0100
,  // measure 26
0000
0000
0011
0000
2200
0000
3300
0000
0001
0000
0100
0010
0100
0000
1000
0000
,  // measure 27
0100
0010
0100
0000
0001
0000
1000
0000
0001
0000
0010
0100
0010
0000
1000
0000
,  // measure 28
0010
0100
0010
0000
0001
0000
1000
0000
0001
0000
0100
1000
0100
0000
0001
0000
,  // measure 29
0010
1000
0010
0000
0001
0000
0100
0000
0010
0000
1000
0001
1000
0100
0000
0100
,  // measure 30
0000
0000
1100
0000
0022
0000
0033
0000
1000
0000
0010
0100
1000
0000
0100
0000
,  // measure 31
1000
0100
0010
0000
1000
0000
1000
0000
0001
0000
0010
0100
0001
0000
0100
0000
,  // measure 32
0001
0100
0010
0000
0001
0000
0001
0000
1000
0000
0010
0001
0010
0000
1000
0000
,  // measure 33
0100
0001
0100
0000
1000
0000
0001
0000
0100
0000
0010
1000
0000
0100
0010
0001
,  // measure 34
0000
0101
2020
3030
0002
0000
0010
0000
,  // measure 35
1000
0000
0103
1000
0200
0000
1000
0000
,  // measure 36
0010
0000
0301
0001
2000
0000
0010
0000
,  // measure 37
0001
0000
3100
0001
0200
0000
0001
0000
,  // measure 38
0010
0000
1300
1000
0001
0100
1000
0100
,  // measure 39
0001
0000
1000
1000
0001
0010
1000
0010
,  // measure 40
0001
0000
1000
0001
1000
0010
0001
0010
,  // measure 41
1000
0000
0001
0001
1000
0100
0001
0100
,  // measure 42
1000
0000
1001
0000
1000
0010
0100
1000
,  // measure 43
0100
0010
0110
0000
0001
0010
0100
0001
,  // measure 44
0100
0010
0110
0000
1000
0010
0001
0010
,  // measure 45
0100
0001
1001
0000
0001
0010
1000
0010
,  // measure 46
0100
1000
1001
0000
0001
0100
0100
0001
,  // measure 47
0100
1000
1000
0100
1000
0010
0010
1000
,  // measure 48
0010
0000
0001
0000
0001
0000
0010
0000
0100
1000
0100
0000
1000
0010
1000
0000
,  // measure 49
0001
0000
0000
0010
0000
0000
0001
0000
0000
0000
0000
0000
0100
0000
0000
0001
0000
0000
0100
0000
0000
0000
0000
0000
1000
0000
0000
0000
0000
0000
0010
0000
1000
0000
0010
0000
1000
0000
0000
0000
0000
0000
0010
0000
0000
0000
0000
0000
,  // measure 50
0001
0000
0010
0000
1000
0000
0100
0000
0010
0000
0100
1000
0100
0000
1000
0000
,  // measure 51
0001
0000
0000
0000
0000
0000
0100
0000
0000
0010
0000
0000
1000
0000
0000
0000
0000
0000
0000
0000
0000
0000
0000
0000
0001
0000
0000
0000
0000
0000
1000
0000
0001
0000
1000
0000
0001
0000
0000
0000
0000
0000
0010
0000
0000
0000
0000
0000
,  // measure 52
1000
0010
0001
0100
1000
0100
1000
0100
,  // measure 53
0001
0000
0000
0010
0000
0000
0100
0000
0000
0010
0000
0000
0001
0000
0000
0010
0001
0010
0001
0000
0000
0010
0000
0000
,  // measure 54
1000
0000
0001
0000
0100
0000
1000
0000
0010
0000
0100
0001
0100
0000
0001
0000
,  // measure 55
1000
0000
0000
0000
0000
0000
0100
0000
0000
0010
0000
0000
0001
0000
0000
0000
0000
0000
0000
0000
0000
0000
0000
0000
1000
0000
0000
0000
0000
0000
0001
0000
1000
0000
0001
0000
1000
0000
0000
0000
0000
0000
0010
0000
0000
0000
0000
0000
,  // measure 56
0001
0000
1000
0000
0100
0000
0001
0000
1000
0100
0010
0001
1000
0000
0100
0000
,  // measure 57
0100
0110
2002
3003
0001
0100
1000
0001
,  // measure 58
0010
1000
0002
1000
0013
1000
0010
0001
,  // measure 59
0100
0001
0010
0001
0100
0000
0001
0000
1000
0000
0100
0000
0001
0000
1000
0000
,  // measure 60
0010
0001
2000
0001
3010
0001
0010
1000
,  // measure 61
0100
0011
2200
3300
1000
0010
0001
1000
,  // measure 62
0001
0010
2000
0001
3100
0001
0100
1000
,  // measure 63
0010
1000
0100
1000
0010
0000
1000
0000
0001
0000
0010
0000
1000
0000
0001
0000
,  // measure 64
1000
0000
0010
0000
0002
0000
0100
0000
1003
0010
0100
0001
1000
0000
0010
0000
,  // measure 65
1000
0100
0001
0000
0110
0000
0000
0000
;

//---------------dance-single - ----------------
#NOTEDATA:;
#CHARTNAME:;
#STEPSTYPE:dance-single;
#DESCRIPTION:;
#CHARTSTYLE:;
#DIFFICULTY:Hard;
#METER:12;
#RADARVALUES:0.532884,0.565650,0.138760,0.293844,0.077542,457.000000,440.000000,17.000000,36.000000,0.000000,0.000000,0.000000,0.000000,0.000000,0.532884,0.565650,0.138760,0.293844,0.077542,457.000000,440.000000,17.000000,36.000000,0.000000,0.000000,0.000000,0.000000,0.000000;
#CREDIT:;
#OFFSET:0.897827;
#BPMS:0.000000=95.000000
,40.000000=100.000000
,42.000000=110.000000
,44.000000=115.000000
,46.000000=120.000000
,48.000000=124.999992
,50.000000=130.000000
,52.000000=135.000000
,54.000000=140.000000
,56.000000=145.000000
,72.000000=72.500000
,74.000000=145.000000
,145.000000=140.000000
,147.000000=135.000000
,149.000000=130.000000
,153.000000=124.999992
,155.000000=120.000000
,159.000000=124.999992
,161.000000=130.000000
,163.000000=135.000000
,165.000000=140.000000
,167.000000=145.000000
,169.000000=150.000000
,171.000000=155.000000
;
#STOPS:74.000000=1.241377
,199.000000=1.161296
;
#DELAYS:;
#WARPS:;
#TIMESIGNATURES:0.000000=4=4
;
#TICKCOUNTS:0.000000=4
;
#COMBOS:0.000000=1
;
#SPEEDS:0.000000=1.000000=0.000000=0
;
#SCROLLS:0.000000=1.000000
;
#FAKES:;
#LABELS:0.000000=Song Start
;
#DISPLAYBPM:95.000000:155.000000;
#NOTES:
0000
0000
0000
0000
,
0000
0000
0000
0000
,
2001
0000
3001
0001
0100
1000
0100
0001
,
1002
0000
1003
1000
0100
0001
0100
1000
,
0001
0001
1000
1000
0010
0001
0010
1000
,
2001
0000
3001
0001
0010
1000
0010
0001
,
1002
0000
0000
0000
0103
0001
0100
0000
1000
0000
0100
1000
0100
0000
0001
0000
,
2001
0000
0000
0000
3100
1000
0100
0000
0001
0000
0100
0001
0100
0000
1000
0000
,
0001
0000
0001
0000
0010
0001
0010
0000
1000
0000
0010
1000
0010
0000
0001
0000
,
2000
0000
0000
0000
3010
1000
0010
0000
0001
0000
0010
0001
0010
0000
1000
0000
,
0002
0000
0010
0000
0010
0000
0013
0001
,
2000
0000
0010
0000
0010
0000
3010
1000
,
0200
0000
1000
0000
1000
0000
0310
0001
,
0200
0000
0001
0000
0001
0000
0310
1000
,
0001
0010
0001
0000
0010
1000
0010
0000
,
1000
0100
1000
0000
0100
0001
0100
0000
,
0001
0010
0001
0100
0001
0010
0001
0100
,
0002
0023
2030
3200
,
0302
0000
0000
0000
0003
0000
0001
1000
,
0100
1000
0001
1000
0010
1000
0001
1000
,
0100
1000
0001
0001
0100
0000
1000
0001
,
0100
0001
1000
0001
0010
0001
1000
0001
,
0100
0001
1000
1000
0100
0000
0001
0010
,
0100
0010
0001
0100
1000
0100
0001
0010
,
0100
0010
0001
0001
0100
0000
1000
0010
,
0100
0000
0010
0000
1000
0000
0100
0000
0001
0000
0100
0000
1000
0000
0000
1000
,
0000
1000
0000
0100
0000
0000
0011
0000
2002
0000
3003
0000
0001
0000
0100
0000
,
0001
0100
1000
0100
0001
0000
1000
0100
,
1000
0100
0001
0100
1000
0000
0001
0010
,
0001
0000
0010
0000
1000
0000
0010
0000
0001
0000
0000
0000
1000
0000
0010
0001
,
0000
0010
0000
1000
0000
0000
1010
0000
2002
0000
3003
0000
1000
0000
0100
0000
,
0010
1000
0010
0100
1000
0000
0001
0100
,
0010
0001
0010
0100
0001
0000
1000
0100
,
0001
0000
1000
0000
0010
0000
0001
0000
1000
0000
0000
0000
0001
0000
0100
1000
,
0000
0100
0000
0001
0000
0000
0110
0000
2002
0000
3003
0000
0002
0000
0000
0000
,
0010
0000
1000
0000
0013
0001
2000
0000
,
0010
0000
0001
0000
3010
1000
0200
0000
,
0001
0000
1000
0000
0310
0001
0200
0000
,
1000
0000
0001
0000
0310
1000
0001
0100
,
0001
0100
0010
0000
0100
0001
1000
0100
,
1000
0100
0010
0000
0100
1000
0001
0100
,
1000
0100
0001
0000
0100
0001
1000
0100
,
0001
0100
1000
0000
1001
0000
1000
0010
,
1000
0010
0100
1000
0100
0000
0001
0100
,
0001
0100
0010
0001
0010
0000
1000
0100
,
1000
0100
0010
1000
0010
0000
0001
0010
,
0001
0010
0100
0001
0100
0000
1000
0100
,
1000
0000
0010
1000
0010
0000
0001
0010
,
0001
0000
0100
0001
0100
0000
1000
0010
,
0100
0001
0010
0100
1000
0001
0100
0000
,
1000
0010
1000
0010
0001
0010
0001
0010
,
1000
0001
0100
1000
0100
0001
0010
0000
,
0001
0010
0001
0010
1000
0010
1000
0010
,
0001
1000
0100
0001
1000
0010
0001
0000
,
1000
0010
1000
0010
0001
0010
0001
0010
,
0100
0001
0010
1000
0010
0100
1000
0000
,
0001
0010
1000
0010
0001
0100
1000
0100
,
0002
0000
0203
0000
0310
1010
2002
3003
,
1000
0100
1000
0100
0001
0100
0002
0000
,
1003
0000
0010
0000
0001
0000
0100
0000
0010
0100
0010
0000
2000
0000
0000
0000
,
3001
0100
0001
0100
1000
0100
2000
0000
,
3001
0010
1000
0100
0010
0011
2002
3003
,
0001
0100
1000
0100
0001
0010
2000
0000
,
3001
0000
0100
0000
1000
0000
0010
0000
0100
0010
0100
0000
0002
0000
0000
0000
,
1003
0010
0001
0010
1000
0100
0001
0100
,
1000
0010
0100
0001
0010
0100
0010
0000
,
0110
0000
0000
0000
;

//---------------dance-single - ----------------
#NOTEDATA:;
#CHARTNAME:;
#STEPSTYPE:dance-single;
#DESCRIPTION:;
#CHARTSTYLE:;
#DIFFICULTY:Medium;
#METER:8;
#RADARVALUES:0.369637,0.377100,0.138760,0.179571,0.000000,317.000000,300.000000,17.000000,22.000000,0.000000,0.000000,0.000000,0.000000,0.000000,0.369637,0.377100,0.138760,0.179571,0.000000,317.000000,300.000000,17.000000,22.000000,0.000000,0.000000,0.000000,0.000000,0.000000;
#CREDIT:;
#OFFSET:0.897827;
#BPMS:0.000000=95.000000
,40.000000=100.000000
,42.000000=110.000000
,44.000000=115.000000
,46.000000=120.000000
,48.000000=124.999992
,50.000000=130.000000
,52.000000=135.000000
,54.000000=140.000000
,56.000000=145.000000
,72.000000=72.500000
,74.000000=145.000000
,145.000000=140.000000
,147.000000=135.000000
,149.000000=130.000000
,153.000000=124.999992
,155.000000=120.000000
,159.000000=124.999992
,161.000000=130.000000
,163.000000=135.000000
,165.000000=140.000000
,167.000000=145.000000
,169.000000=150.000000
,171.000000=155.000000
;
#STOPS:74.000000=1.241377
,199.000000=1.161296
;
#DELAYS:;
#WARPS:;
#TIMESIGNATURES:0.000000=4=4
;
#TICKCOUNTS:0.000000=4
;
#COMBOS:0.000000=1
;
#SPEEDS:0.000000=1.000000=0.000000=0
;
#SCROLLS:0.000000=1.000000
;
#FAKES:;
#LABELS:0.000000=Song Start
;
#DISPLAYBPM:95.000000:155.000000;
#NOTES:
0000
0000
0000
0000
,
0000
0000
0000
0000
,
2001
0000
3010
0000
1000
0001
1000
0000
,
1002
0000
0013
0000
0001
1000
0001
0000
,
1002
0000
0103
0000
0010
1000
0010
0000
,
2001
0000
3100
0000
0010
0001
0010
0000
,
1002
0000
0103
0000
1000
0100
0001
0000
,
2001
0000
3100
0000
0001
0100
1000
0000
,
1002
0000
0013
0000
1000
0100
0001
0000
,
2001
0000
3010
0000
0001
0100
1000
0000
,
0002
0100
0100
0100
,
2003
0100
0100
0100
,
3002
0010
0010
0010
,
2003
0010
0010
0010
,
3001
0100
0001
1000
,
0100
1000
0001
0100
,
0001
0001
1000
1000
,
0100
0010
0001
0000
0100
0010
1000
0000
,
0020
0000
0030
1000
,
0010
0100
0001
1000
,
0010
0000
0100
0001
0100
0000
0001
0000
,
0010
0100
1000
0001
,
0010
0000
0100
1000
0100
0000
1000
0000
,
0010
0001
0010
1000
,
0100
0000
0010
0100
0010
0000
0001
0000
,
0010
1000
0010
0002
,
0000
0000
0000
1000
1003
0000
0001
0000
,
0100
0000
0001
0100
0001
0000
0100
0000
,
1000
0000
0100
1000
0100
0000
1000
0000
,
0010
0000
1000
0010
1000
0000
0010
0000
,
0001
0000
0100
0010
0010
0000
1000
0000
,
0100
0000
1000
0100
0001
0000
0100
0000
,
0001
0000
0100
0001
0010
0000
0001
0000
,
0010
0000
0001
0010
1000
0000
0010
0000
,
1000
0000
0100
0010
0010
0000
0002
0000
,
0100
0100
0100
2003
,
0100
0100
0100
3002
,
0010
0010
0010
2003
,
0010
0000
0010
0000
0010
0000
3001
0100
,
0001
0000
0100
0000
0010
0000
1000
0100
,
1000
0000
0100
0000
0010
0000
0100
1000
,
0010
0000
0100
0000
0010
0000
0100
0001
,
0010
0100
0010
0001
,
0001
0000
0001
0100
1000
0000
1000
0000
,
1000
0000
1000
0100
0001
0000
0001
0000
,
0001
0000
0001
0010
1000
0000
1000
0000
,
1000
0000
1000
0010
0001
0000
1000
0000
,
1010
0001
0011
1000
,
1100
0000
0001
0000
0101
0000
1000
0010
,
0100
0000
0001
0010
0100
0000
0010
0000
,
0001
0000
0010
0000
0001
0010
1000
0000
,
0010
0000
0001
0000
0100
0010
1000
0000
,
0001
0000
0100
0000
1000
0100
0001
0000
,
0101
1100
0101
1100
,
1000
0000
0010
0000
1000
0010
0001
0000
,
0010
0000
1000
0000
0100
0010
0001
0000
,
1000
0000
0100
0000
0001
0100
1000
0000
,
0020
0000
0230
0000
0320
0100
0130
0000
,
0001
0000
0010
0000
0100
0001
0100
0000
,
1000
0000
0010
0000
0100
1000
0100
0000
,
0001
0000
0001
0000
0001
1000
0100
0000
,
1000
0001
0100
0000
0010
1000
1000
0000
,
0001
0000
0100
0000
0010
0001
0010
0000
,
1000
0000
0100
0000
0010
1000
0010
0000
,
0001
0000
0001
0000
0010
0001
0100
0000
,
0010
1000
0100
0000
0020
0000
0030
0000
,
0110
0000
0000
0000
;

//---------------dance-single - ----------------
#NOTEDATA:;
#CHARTNAME:;
#STEPSTYPE:dance-single;
#DESCRIPTION:;
#CHARTSTYLE:;
#DIFFICULTY:Easy;
#METER:5;
#RADARVALUES:0.249534,0.323228,0.114273,0.155084,0.000000,214.000000,200.000000,14.000000,19.000000,0.000000,0.000000,0.000000,0.000000,0.000000,0.249534,0.323228,0.114273,0.155084,0.000000,214.000000,200.000000,14.000000,19.000000,0.000000,0.000000,0.000000,0.000000,0.000000;
#CREDIT:;
#OFFSET:0.897827;
#BPMS:0.000000=95.000000
,40.000000=100.000000
,42.000000=110.000000
,44.000000=115.000000
,46.000000=120.000000
,48.000000=124.999992
,50.000000=130.000000
,52.000000=135.000000
,54.000000=140.000000
,56.000000=145.000000
,72.000000=72.500000
,74.000000=145.000000
,145.000000=140.000000
,147.000000=135.000000
,149.000000=130.000000
,153.000000=124.999992
,155.000000=120.000000
,159.000000=124.999992
,161.000000=130.000000
,163.000000=135.000000
,165.000000=140.000000
,167.000000=145.000000
,169.000000=150.000000
,171.000000=155.000000
;
#STOPS:74.000000=1.241377
,199.000000=1.161296
;
#DELAYS:;
#WARPS:;
#TIMESIGNATURES:0.000000=4=4
;
#TICKCOUNTS:0.000000=4
;
#COMBOS:0.000000=1
;
#SPEEDS:0.000000=1.000000=0.000000=0
;
#SCROLLS:0.000000=1.000000
;
#FAKES:;
#LABELS:0.000000=Song Start
;
#DISPLAYBPM:95.000000:155.000000;
#NOTES:
0000
0000
0000
0000
,
0000
0000
0000
0000
,
2000
3010
1000
1000
,
0002
0013
0001
0001
,
0200
0310
1000
1000
,
0200
0310
0001
0001
,
1002
0103
0001
0010
,
2001
3100
1000
0010
,
0201
0310
1000
0100
,
1200
0310
0001
0100
,
0002
0000
1003
0000
,
2000
0000
3001
0000
,
0002
0000
1003
0000
,
2000
0000
3001
0000
,
1000
0001
1000
0001
,
0100
0010
0100
0010
,
1000
0100
0010
0001
,
0100
0010
1000
0100
,
0020
0000
0030
0001
,
0000
0001
0000
0001
,
0000
0001
0001
1000
,
0000
1000
0000
1000
,
0000
1000
1000
0001
,
0000
0010
0000
0100
,
0000
1000
1000
0001
,
0000
0100
0000
0020
,
0000
0030
1001
0001
,
0100
1000
0000
1000
,
0100
0001
0000
0001
,
0100
1000
0000
1000
,
0100
0001
1001
0001
,
0010
1000
0000
1000
,
0010
0001
0000
0001
,
0010
1000
0000
1000
,
0010
0001
1001
0002
,
0000
1003
0000
2000
,
0000
3001
0000
0002
,
0000
1003
0000
2000
,
0000
3001
0000
0001
,
0100
0001
0000
1000
,
0100
1000
0000
0001
,
0010
0001
0000
1000
,
0010
1000
0000
0001
,
0010
0011
0000
0001
,
0100
0101
0000
1000
,
0100
1100
0000
1000
,
0010
1010
0000
0001
,
0001
1000
1000
0001
,
0001
1000
1000
0001
,
0010
0100
1000
0002
,
0003
0001
0100
0010
,
0000
0001
0010
0100
,
0000
0001
0010
0100
,
0001
0100
0010
0001
,
0000
1000
0100
0010
,
0000
1000
0010
0100
,
0000
1000
0010
0100
,
0001
1000
0001
1001
,
0000
1000
0100
0001
,
0000
0001
0010
1000
,
0000
0001
0100
0010
,
1000
0100
0010
0011
,
0000
0001
0100
1000
,
0000
1000
0010
0001
,
0000
1000
0010
0100
,
0001
1000
0100
0010
,
0110
0000
0000
0000
;

//---------------dance-single - ----------------
#NOTEDATA:;
#CHARTNAME:;
#STEPSTYPE:dance-single;
#DESCRIPTION:;
#CHARTSTYLE:;
#DIFFICULTY:Beginner;
#METER:2;
#RADARVALUES:0.148088,0.194264,0.008162,0.081623,0.000000,127.000000,126.000000,1.000000,10.000000,0.000000,0.000000,0.000000,0.000000,0.000000,0.148088,0.194264,0.008162,0.081623,0.000000,127.000000,126.000000,1.000000,10.000000,0.000000,0.000000,0.000000,0.000000,0.000000;
#CREDIT:;
#OFFSET:0.897827;
#BPMS:0.000000=95.000000
,40.000000=100.000000
,42.000000=110.000000
,44.000000=115.000000
,46.000000=120.000000
,48.000000=124.999992
,50.000000=130.000000
,52.000000=135.000000
,54.000000=140.000000
,56.000000=145.000000
,150.000000=140.000000
,152.000000=135.000000
,154.000000=130.000000
,158.000000=124.999992
,160.000000=120.000000
,164.000000=124.999992
,166.000000=130.000000
,168.000000=135.000000
,170.000000=140.000000
,172.000000=145.000000
,174.000000=150.000000
,176.000000=155.000000
;
#STOPS:;
#DELAYS:;
#WARPS:;
#TIMESIGNATURES:0.000000=4=4
;
#TICKCOUNTS:0.000000=4
;
#COMBOS:0.000000=1
;
#SPEEDS:0.000000=1.000000=0.000000=0
;
#SCROLLS:0.000000=1.631578
,40.000000=1.550000
,42.000000=1.409090
,44.000000=1.347826
,46.000000=1.291666
,48.000000=1.240000
,50.000000=1.192307
,52.000000=1.148148
,54.000000=1.107142
,56.000000=1.068965
,150.000000=1.107142
,152.000000=1.148148
,154.000000=1.192307
,158.000000=1.240000
,160.000000=1.291666
,164.000000=1.240000
,166.000000=1.192307
,168.000000=1.148148
,170.000000=1.107142
,172.000000=1.068965
,174.000000=1.033333
,176.000000=1.000000
;
#FAKES:;
#LABELS:0.000000=Song Start
;
#DISPLAYBPM:95.000000:155.000000;
#NOTES:
0000
0000
0000
0000
,
0000
0000
0000
0000
,
1000
0000
1000
0000
,
0001
0000
0001
0000
,
1000
1000
1000
0000
,
0001
0000
0001
0000
,
0010
0000
0010
0000
,
0100
0000
0100
0000
,
0010
0010
0010
0000
,
0100
0000
0100
0000
,
2000
0000
3000
0000
,
0020
0000
0030
0000
,
0200
0000
0300
0000
,
0002
0000
0003
0000
,
0010
0000
0010
0000
,
0010
0000
0010
0000
,
0001
0000
1000
0000
,
0010
0000
0100
0000
,
0002
0000
0000
0000
,
0003
0000
0000
0000
,
0001
0000
0001
0000
,
0001
0000
0001
0000
,
1000
0000
1000
0000
,
1000
0000
1000
0000
,
0100
0000
0100
0000
,
0100
0000
0100
0000
,
0010
0000
0010
0000
,
0020
0000
0030
0000
,
0001
0000
0010
0000
,
0001
0000
0010
0000
,
0001
0000
0010
0000
,
0001
0000
0001
0000
,
1000
0000
0010
0000
,
1000
0000
0010
0000
,
1000
0000
0010
0000
,
1000
0000
1000
0000
,
0002
0000
0003
0000
,
0020
0000
0030
0000
,
0200
0000
0300
0000
,
2000
0000
3000
0000
,
0001
0000
0001
0000
,
1000
0000
1000
0000
,
0001
0000
0001
0000
,
1000
0000
1000
0000
,
0100
0000
0100
0000
,
0100
0000
0100
0000
,
0010
0000
0010
0000
,
0010
0000
0010
0000
,
0100
0000
0100
0000
,
0010
0000
0010
0000
,
0001
0000
1000
0000
,
0010
0000
0000
0000
,
1000
0000
1000
0000
,
0010
0000
0010
0000
,
0100
0000
0100
0000
,
0001
0001
0001
0000
,
0001
0000
0001
0000
,
0010
0000
0010
0000
,
0100
0000
0100
0000
,
1000
1000
1000
0000
,
1000
0000
0010
0000
,
1000
0000
0001
0000
,
1000
0000
0100
0000
,
1000
1000
1000
0000
,
0001
0000
0010
0000
,
0001
0000
1000
0000
,
0001
0000
0100
0000
,
0001
0001
0001
0000
,
1001
0000
0000
0000
;
