#VERSION:0.83;
#TITLE:SNOBBISM;
#SUBTITLE:(feat. z'5);
#ARTIST:Neru;
#TITLETRANSLIT:;
#SUBTITLETRANSLIT:;
#ARTISTTRANSLIT:;
#GENRE:Snobbish Vocaloid;
#ORIGIN:;
#CREDIT:;
#BANNER:SNOBBISM (feat. z'5).png;
#BACKGROUND:SNOBBISM (feat. z'5)-bg.png;
#PREVIEWVID:;
#JACKET:SNOBBISM (feat. z'5)-jacket.png;
#CDIMAGE:;
#DISCIMAGE:;
#LYRICSPATH:;
#CDTITLE:cdtitle.png;
#MUSIC:SNOBBISM (feat. z’5).ogg;
#OFFSET:3.557396;
#SAMPLESTART:62.835621;
#SAMPLELENGTH:15.737705;
#SELECTABLE:YES;
#BPMS:0.000=122.000;
#STOPS:36.000=1.967,
82.000=0.492,
126.500=1.475;
#DELAYS:;
#WARPS:;
#TIMESIGNATURES:0.000=4=4;
#TICKCOUNTS:0.000=4;
#COMBOS:0.000=1;
#SPEEDS:0.000=1.000=0.000=0;
#SCROLLS:0.000=1.000;
#FAKES:;
#LABELS:0.000=Song Start;
#BGCHANGES:3.438=SNOBBISM (feat. z'5).avi=1.000=1=0=0=StretchNoLoop==CrossFade==,
99999=-nosongbg-=1.000=0=0=0 // don't automatically add -songbackground-
;
#KEYSOUNDS:;
#ATTACKS:
;

//---------------dance-single - ----------------
#NOTEDATA:;
#CHARTNAME:;
#STEPSTYPE:dance-single;
#DESCRIPTION:;
#CHARTSTYLE:;
#DIFFICULTY:Challenge;
#METER:15;
#RADARVALUES:0.668770,0.758253,0.402936,0.652024,0.604404,639.000000,584.000000,55.000000,89.000000,0.000000,0.000000,0.000000,0.000000,0.000000,0.668770,0.758253,0.402936,0.652024,0.604404,639.000000,584.000000,55.000000,89.000000,0.000000,0.000000,0.000000,0.000000,0.000000;
#CREDIT:;
#NOTES:
0000
0000
0000
0000
,
0000
0000
0000
0000
,
0000
0000
0000
0000
,
0000
0000
0000
0000
,
0000
0000
0000
0000
,
0000
0000
0000
0000
,
0000
0000
0000
0000
0000
0001
0100
0001
,
0020
0000
0000
0000
0000
0000
0130
0000
0000
1000
0000
0000
0010
0000
0000
1000
0000
0001
0000
0000
0001
1000
0000
0000
,
0020
0000
0000
0000
0000
0000
0130
0000
0000
0001
0000
0000
0010
0000
0000
0001
0000
1000
0000
0000
1000
0001
0000
0000
,
0110
0000
0000
0000
0000
0000
0000
0000
0000
0000
0000
0000
0000
0000
0000
1000
0000
0000
0100
0000
0100
0010
0000
0000
,
0011
0000
0000
0000
0000
0000
0001
0000
0010
0001
0000
0001
1000
0000
0000
0010
1000
0001
1000
0000
0100
0000
0000
0000
,
1100
0000
0000
0000
0000
0000
1000
0000
0010
1000
0000
1000
0001
0000
0000
0010
0001
1000
0001
0000
0100
0000
0000
0000
,
0101
0000
0000
0000
0000
0000
0001
0000
1000
0010
0000
0010
1000
0000
0000
0001
0010
0001
1000
0000
0001
0000
0000
0000
,
1000
0000
0000
1100
0000
0000
0001
0000
0101
0000
0000
0000
0210
0000
0000
0000
0000
0000
0301
0000
1000
0001
0000
0000
,
0020
0000
0000
0130
,
0010
0000
0001
0010
0000
0000
0001
0000
1000
0001
0000
2000
0000
0000
3001
0100
0000
0001
0100
0000
0010
0100
0000
0000
,
1000
0000
0000
0100
0000
0002
0000
0000
0000
0103
0000
0000
0001
0000
0000
1000
0000
0100
1000
0000
0100
1000
0000
0000
,
0010
0000
0000
0010
0000
0000
1000
0000
0001
1000
0000
0002
0000
0000
1003
0100
0000
1000
0100
0000
0010
0100
0000
0000
,
0001
0000
0000
1000
0000
0020
0000
0000
0000
0031
0000
0000
0100
0000
0000
1000
0000
0000
0100
0000
0000
0001
0000
0001
,
0010
0000
0000
0100
0000
0000
0010
0000
0100
0010
0000
0002
0000
0000
0000
1003
0000
0000
0010
0000
0000
0001
0000
0000
,
1000
0000
0000
0100
0000
0000
0001
0000
1000
0100
0000
0000
0110
0000
0000
0010
0000
0000
1001
0000
0000
0100
0000
0000
,
0100
0000
0000
0100
0000
0000
1001
0000
1000
0100
0000
0000
1001
0000
0001
0100
0000
0000
2001
0000
0000
0000
0000
0000
,
3100
1000
0001
0100
0010
1000
2010
0000
,
3001
0000
0000
1000
0000
0000
0100
0000
0100
0010
0000
0010
0100
0000
0100
0010
0000
0000
0001
0000
0000
1000
0000
0020
,
0000
0000
0000
1030
0000
0000
0001
0000
0000
1000
0000
0000
0100
0000
0000
0001
0000
0000
0100
0000
1000
0001
0000
1000
,
0001
0000
1000
0010
0000
0000
0001
0000
0000
0010
0000
2000
0000
0000
3001
1000
0000
0000
0100
0000
0000
0001
0000
0200
,
0000
0000
0000
1300
0000
0000
0100
0000
0000
0010
0000
0000
0001
0000
0001
0100
0000
0100
0010
0000
0000
1000
0000
0002
,
0000
0000
1003
0100
0000
0100
0010
0000
0000
0100
0000
0000
1000
0000
0000
0100
0000
0010
0001
0000
0001
1000
0000
1000
,
0010
0000
0000
0100
0000
0100
0001
0000
0000
1000
0000
0000
0001
0000
0000
0010
0000
0000
0001
0000
0000
1000
0000
0010
,
0000
0000
1000
0020
0000
0000
0130
0000
0000
0001
0000
0000
0001
0000
0000
0010
0000
0000
0001
0000
0000
0010
0000
0000
,
0100
0001
1000
0010
0001
0100
0210
0000
,
0010
0000
0010
0010
0010
0310
0010
0000
,
2010
0000
0000
0000
0010
0000
0000
3000
2001
0000
0000
0000
0001
0000
0000
3000
2100
0000
0000
0000
0100
0000
0000
3000
1100
0000
0000
0000
0021
0000
0000
0000
,
0100
0000
0000
0030
1020
0000
0000
0000
0100
0000
0000
0030
0012
0000
0000
0000
1000
0000
0000
0003
0102
0000
0000
0000
1000
0000
0000
0003
0002
0000
0000
0000
,
0023
0230
0302
2003
3002
0203
0320
0032
,
2003
0000
0000
3010
0000
0010
1000
0000
0000
0001
0000
0001
1000
0000
1000
0100
0000
0000
2100
0000
0000
3100
0000
0000
,
0012
0000
0000
0000
0010
0000
0000
0003
1002
0000
0000
0000
1000
0000
0000
0003
0102
0000
0000
0000
0100
0000
0000
0003
0101
0000
0000
0000
1020
0000
0000
0000
,
0100
0000
0000
0030
0021
0000
0000
0000
0100
0000
0000
0030
2010
0000
0000
0000
0001
0000
0000
3000
2100
0000
0000
0000
0001
0000
0000
3000
2000
0000
0000
0000
,
3020
0000
0000
0230
0000
0000
2300
0000
0000
3002
0000
0000
1003
0000
1000
0100
0000
0100
0020
0000
0000
1030
0000
0000
,
1010
0001
0011
1000
1100
0001
0011
0010
,
0001
0100
1001
1000
0010
1000
1001
0001
,
0010
0000
0000
1000
0000
1000
0010
0000
0000
0001
0000
0000
0100
0000
0000
0010
0000
0000
1010
0000
0000
0002
0000
0000
,
0203
0000
0000
0310
0000
0010
0002
0000
0000
2003
0000
0000
3002
0000
0000
0013
0000
0010
2000
0000
0000
3200
0000
0000
,
0302
0000
0000
0103
0000
0100
0010
0000
0000
0100
0000
0100
1000
0000
1000
0001
0000
0000
1000
0000
0010
0100
0000
0010
,
0100
0000
0010
1000
0000
0000
1100
0000
0000
0010
0000
0000
0001
0000
0000
0100
0000
0000
0101
0000
0000
1000
0000
1000
,
0100
0000
0000
0010
0000
0010
0001
0000
0001
0100
0000
0010
1000
0000
0000
0100
0000
0000
1100
0000
0000
0020
0000
0000
,
0032
0000
0000
0000
0000
0000
0000
0000
0000
0000
0000
0000
0000
0000
0000
0000
0000
0000
0000
0000
0000
0000
0000
0000
0103
0000
0000
0000
0000
0000
0000
0000
0000
0000
0000
0000
0000
0000
0000
0000
0100
0000
0000
0000
0000
0000
0000
0000
2000
0000
0000
0000
0000
0000
0000
0000
0000
0000
0000
0000
0000
0000
0000
0000
0000
0000
0000
0000
0000
0000
0000
0000
3002
0000
0000
0000
0000
0000
0000
0000
0000
0000
0000
0000
0000
0000
0000
0000
0000
0000
0000
0000
0000
0000
0000
0000
2003
0000
0000
0000
0000
0000
0000
0000
0000
0000
0000
0000
0000
0000
0000
0000
0000
0000
0000
0000
0000
0000
0000
0000
3200
0000
0000
0000
0000
0000
0000
0000
0000
0000
0000
0000
0000
0000
0000
0000
0000
0000
0000
0000
0000
0000
0000
0000
0302
0000
0000
0000
0000
0000
0000
0000
0000
0000
0000
0000
0000
0000
0000
0000
0000
0000
0003
0000
0000
0000
0000
0000
0002
0000
0000
0000
0000
0000
0000
0000
0000
0000
0000
0000
0000
0000
0000
0000
0000
0000
0000
0000
0000
0000
0000
0000
,
1003
0000
0000
0000
0000
0000
0000
0000
0000
0000
0000
0000
0000
0000
0000
0000
0000
0000
0000
0000
0000
0000
0000
0000
0020
0000
0000
0000
0000
0000
0000
0000
0000
0000
0000
0000
0000
0000
0000
0000
0000
0000
0000
0000
0000
0000
0000
0000
2030
0000
0000
0000
0000
0000
0000
0000
0000
0000
0000
0000
0000
0000
0000
0000
0000
0000
0000
0000
0000
0000
0000
0000
3200
0000
0000
0000
0000
0000
0000
0000
0000
0000
0000
0000
0000
0000
0000
0000
0000
0000
0000
0000
0000
0000
0000
0000
0302
0000
0000
0000
0000
0000
0000
0000
0000
0000
0000
0000
0000
0000
0000
0000
0000
0000
0000
0000
0000
0000
0000
0000
1003
0000
0000
0000
0000
0000
0000
0000
0000
0000
0000
0000
0000
0000
0000
0000
0001
0000
0000
0000
0000
0000
0000
0000
0200
0000
0000
0000
0000
0000
0000
0000
0000
0000
0000
0000
0000
0000
0000
0000
0000
0000
0000
0000
0000
0000
0000
0000
2300
0000
0000
0000
0000
0000
0000
0000
0000
0000
0000
0000
0000
0000
0000
0000
0000
0000
3000
0000
0000
0000
0000
0000
,
1100
0001
0010
0001
0101
1000
0010
1000
,
0002
0000
0000
0000
0000
2000
0000
0000
0000
0000
0000
0000
0000
0000
0000
0000
0000
0000
3003
0000
0000
0000
0000
0000
,
0000
0000
0000
0000
0000
0000
0000
0000
0000
0000
0000
0000
0000
0000
0000
0000
0000
0000
1000
0000
0001
0100
0000
0001
,
1000
0000
0001
1000
0000
0100
1000
0000
0000
0001
0000
0000
0100
0000
0000
0001
0000
0010
0002
0000
0000
2000
0000
0000
,
0000
0000
0000
3003
,
1200
0000
0000
0000
1000
0000
0000
0300
0210
0000
0000
0000
0010
0000
0000
0300
0201
0000
0000
0000
0001
0000
0000
0300
0210
0000
0000
0300
0201
0000
0000
0000
,
0010
0000
0000
0000
0000
0000
0000
0000
0000
0000
0000
0000
0000
0000
0000
0000
0000
0000
0300
0000
0000
0000
0000
0000
1100
0000
0000
0000
0000
0000
0000
0000
0000
0000
0000
0000
0000
0000
0000
0000
1000
0000
0000
0000
0000
0000
0000
0000
0100
0000
0000
0000
0000
0000
0000
0000
0000
0000
0000
0000
0000
0000
0000
0000
1000
0000
0000
0000
0000
0000
0000
0000
0001
0000
0000
0000
0000
0000
0000
0000
0000
0000
0000
0000
0000
0000
0000
0000
1000
0000
0000
0000
0000
0000
0000
0000
0010
0000
0000
0000
0000
0000
0000
0000
0000
0000
0000
0000
0000
0000
0000
0000
0010
0000
0000
0000
0000
0000
0000
0000
1000
0000
0000
0000
0000
0000
0000
0000
0000
0000
0000
0000
0000
0000
0000
0000
1000
0000
0000
0000
0000
0000
0000
0000
0010
0000
0000
0000
0000
0000
0000
0000
0000
0000
0000
0000
0000
0000
0000
0000
0010
0000
0000
0000
0000
0000
0000
0000
1000
0000
0000
0000
0000
0000
0000
0000
0000
0000
0000
0000
0000
0000
0000
0000
0001
0000
0000
0000
0000
0000
0000
0000
,
0010
0000
0000
0001
0000
0001
1000
0000
0000
0001
0000
0001
0100
0000
0000
0010
0000
0100
1000
0000
0000
1000
0000
0100
,
0001
0000
0000
0001
0000
0010
0001
0000
0001
1000
0000
0010
1000
0000
0001
0000
0000
0001
0010
0000
0000
0001
0000
0000
,
0201
0000
0000
0000
0001
0000
0000
0300
0210
0000
0000
0000
0010
0000
0000
0300
1200
0000
0000
0000
1000
0000
0000
0300
0210
0000
0000
0300
1200
0000
0000
0000
,
0010
0000
0000
0000
0000
0000
0000
0000
0000
0000
0000
0000
0000
0000
0000
0000
0000
0000
0300
0000
0000
0000
0000
0000
0101
0000
0000
0000
0000
0000
0000
0000
0000
0000
0000
0000
0000
0000
0000
0000
0001
0000
0000
0000
0000
0000
0000
0000
0100
0000
0000
0000
0000
0000
0000
0000
0000
0000
0000
0000
0000
0000
0000
0000
0001
0000
0000
0000
0000
0000
0000
0000
1000
0000
0000
0000
0000
0000
0000
0000
0000
0000
0000
0000
0000
0000
0000
0000
0001
0000
0000
0000
0000
0000
0000
0000
0010
0000
0000
0000
0000
0000
0000
0000
0000
0000
0000
0000
0000
0000
0000
0000
0010
0000
0000
0000
0000
0000
0000
0000
0001
0000
0000
0000
0000
0000
0000
0000
0000
0000
0000
0000
0000
0000
0000
0000
0001
0000
0000
0000
0000
0000
0000
0000
0010
0000
0000
0000
0000
0000
0000
0000
0000
0000
0000
0000
0000
0000
0000
0000
0010
0000
0000
0000
0000
0000
0000
0000
0001
0000
0000
0000
0000
0000
0000
0000
0000
0000
0000
0000
0000
0000
0000
0000
1000
0000
0000
0000
0000
0000
0000
0000
,
0010
0000
0000
0100
0000
0001
0010
0000
0000
1000
0000
0010
0001
0000
0000
0000
0000
1000
0010
0000
0010
0100
0000
0100
,
0001
0000
1000
0000
0000
0002
0000
0000
0010
0000
0000
0000
1000
0000
0000
0000
0000
0100
0003
0000
0000
0001
0000
0000
,
0000
0000
0000
0100
0000
0000
0000
0000
0001
0000
0000
0000
0010
0000
0000
0000
0000
0001
0010
0000
0010
0100
0000
0100
,
1000
0000
0001
0000
0000
2000
0000
0000
0010
0000
0000
0000
0001
0000
0000
0000
0000
0100
3000
0000
0000
1000
0000
0000
,
0010
0000
0000
0010
0000
0000
0010
0100
0010
0100
0000
0010
1000
0000
0000
0001
0000
0010
0000
0000
0010
0100
0000
0010
,
0001
0000
0000
1000
0000
0001
0100
0000
0001
1000
0000
0001
0010
0000
0010
0100
0000
0100
0001
0000
0001
0100
0000
0100
,
0010
0000
0000
0010
0000
0000
0001
1000
0001
1000
0000
0010
0100
0000
0010
0001
0000
0020
0000
0000
0130
0001
0000
0001
,
1000
0000
0000
0001
0000
1000
0100
0000
1000
0001
0000
1000
0010
0000
0010
0100
0000
0100
1000
0000
1000
0100
0000
0100
,
0010
0000
0000
0010
0000
0000
1000
0001
1000
0001
0000
0000
1000
0000
1000
0100
0000
0100
0010
0000
0010
0001
0000
0001
,
0100
0000
0000
0010
0000
0000
0000
0000
1000
0000
0000
0000
0001
0000
0000
0000
0000
0020
0000
0000
0000
0230
0000
0000
,
0300
0000
0000
0000
;

//---------------dance-single - ----------------
#NOTEDATA:;
#CHARTNAME:;
#STEPSTYPE:dance-single;
#DESCRIPTION:;
#CHARTSTYLE:;
#DIFFICULTY:Hard;
#METER:10;
#RADARVALUES:0.403983,0.454952,0.212457,0.366306,0.047620,386.000000,357.000000,29.000000,50.000000,0.000000,0.000000,0.000000,0.000000,0.000000,0.403983,0.454952,0.212457,0.366306,0.047620,386.000000,357.000000,29.000000,50.000000,0.000000,0.000000,0.000000,0.000000,0.000000;
#CREDIT:;
#OFFSET:3.557396;
#BPMS:0.000000=122.000000
;
#STOPS:36.000000=1.967214
,82.000000=0.491800
,83.000000=0.491804
,126.000000=0.983606
;
#DELAYS:;
#WARPS:;
#TIMESIGNATURES:0.000000=4=4
;
#TICKCOUNTS:0.000000=4
;
#COMBOS:0.000000=1
;
#SPEEDS:0.000000=1.000000=0.000000=0
;
#SCROLLS:0.000000=1.000000
;
#FAKES:;
#LABELS:0.000000=Song Start
;
#NOTES:
// measure 0
0000
0000
0000
0000
,  // measure 1
0000
0000
0000
0000
,  // measure 2
0000
0000
0000
0000
,  // measure 3
0000
0000
0000
0000
,  // measure 4
0000
0000
0000
0000
,  // measure 5
0000
0000
0000
0000
,  // measure 6
0000
0000
0000
0000
0000
0001
0010
0001
,  // measure 7
0020
0000
0000
0000
0000
0000
0030
0000
0000
0001
0000
0000
0010
0000
0000
0000
0000
0100
0000
0000
0000
1000
0000
0000
,  // measure 8
0020
0000
0000
0000
0000
0000
0030
0000
0000
1000
0000
0000
0010
0000
0000
0000
0000
0100
0000
0000
0000
0001
0000
0000
,  // measure 9
1001
0000
0000
0000
0000
1000
0100
0010
,  // measure 10
0011
0000
0001
0010
1000
0010
0001
0000
,  // measure 11
0110
0000
1000
0010
0001
0010
1000
0000
,  // measure 12
0110
0000
1000
0100
0001
0100
1000
0000
,  // measure 13
0001
0000
0000
0011
0000
0000
0000
0000
1001
0000
0000
0000
1010
0000
0000
0000
0000
0000
0001
0000
0000
1000
0000
0000
,  // measure 14
0200
0000
0000
1300
,  // measure 15
0010
1000
0010
1000
0001
1000
0100
0001
,  // measure 16
0100
0000
0000
0000
0000
0200
0000
0000
0000
0000
0000
0000
1300
0000
0000
0000
0000
0000
0001
0000
0000
0000
0000
0000
,  // measure 17
0010
0001
0010
0001
1000
0001
0100
1000
,  // measure 18
0100
0000
0000
0000
0000
0200
0000
0000
0000
0000
0000
0000
0301
0000
0000
0000
0000
0000
1000
0000
0000
0000
0000
0000
,  // measure 19
0010
1000
0100
1000
0010
0100
0001
0010
,  // measure 20
0001
0100
0010
1000
1001
0000
0110
0000
,  // measure 21
1001
0110
2001
0100
,  // measure 22
3100
1000
0001
0100
0110
0000
0100
0001
,  // measure 23
1000
0001
1000
0001
0010
0001
2000
0000
,  // measure 24
3001
0000
1000
0010
1000
0100
0010
0100
,  // measure 25
0001
0100
0001
0100
0010
0100
2000
0000
,  // measure 26
3010
0100
0001
0000
1000
0010
1000
0001
,  // measure 27
1000
0100
1000
0000
0001
0010
0001
1000
,  // measure 28
0001
0000
0000
0100
0000
0000
0001
0000
0000
0000
0000
0000
0010
0000
0000
0000
0000
0010
0000
0000
0000
0020
0000
0000
,  // measure 29
0000
0130
1000
0010
0000
0010
0000
0100
,  // measure 30
0010
0100
0001
1000
0200
0000
0010
0000
,  // measure 31
0010
0010
0010
0010
0300
0000
0100
0000
,  // measure 32
2001
0000
3020
0000
0032
0000
1003
0002
,  // measure 33
0000
0023
0000
2030
0000
3002
0000
1003
,  // measure 34
0001
0010
1000
0001
1000
0100
0001
1000
,  // measure 35
0001
0020
0001
0000
0130
0000
1100
0000
,  // measure 36
1002
0000
0023
0000
2030
0000
3001
2000
,  // measure 37
0000
3020
0000
0032
0000
2003
0000
3001
,  // measure 38
1000
0010
0001
1000
0001
0100
1000
0001
,  // measure 39
1001
1010
0011
1001
,  // measure 40
0001
0001
0011
0000
1000
1000
1010
0000
,  // measure 41
0001
0010
0100
0001
0100
0010
0001
0000
,  // measure 42
1000
0001
0100
1000
0001
1000
0010
0001
,  // measure 43
1000
0020
1000
0000
0130
0000
0100
0001
,  // measure 44
1000
1000
1010
0000
0001
0001
0011
0000
,  // measure 45
1000
0010
0100
1000
0100
0010
1000
0000
,  // measure 46
0001
0010
1000
0001
1000
0100
0001
1000
,  // measure 47
0000
1000
0010
0001
1000
0001
0100
1000
,  // measure 48
2002
3003
0110
0001
,  // measure 49
2000
0000
0000
0000
0000
0002
0000
0000
0000
0000
0000
0000
0000
0000
0000
0000
0000
0000
3003
0000
0000
0000
0000
0000
,  // measure 50
0000
0000
0000
0000
0000
0000
1000
0100
,  // measure 51
0010
0010
0001
0100
0010
0010
2000
0002
,  // measure 52
0000
0000
0000
3003
,  // measure 53
1020
0000
0032
0000
2003
0000
3002
2003
,  // measure 54
0000
3200
0001
0000
0001
0010
0301
0000
,  // measure 55
1000
0100
0001
0100
1000
0000
0001
0001
,  // measure 56
1000
0010
0001
0010
1000
0001
0010
0000
,  // measure 57
0021
0000
2030
0000
3002
0000
2003
3002
,  // measure 58
0000
0203
1000
0000
1000
0010
1300
0000
,  // measure 59
0001
0100
1000
0100
1001
0000
1000
0100
,  // measure 60
0020
0000
0000
0000
0000
0200
0000
0000
0000
0000
0000
0000
0000
0000
0000
0000
0000
0000
0330
0000
0000
0000
0000
0000
,  // measure 61
0000
0000
0000
0100
0000
0000
0000
0000
0100
0000
0000
0000
0100
0000
0000
0000
0000
0000
1000
0000
0000
0001
0000
0000
,  // measure 62
0200
0000
0000
0000
0000
0020
0000
0000
0000
0000
0000
0000
0000
0000
0000
0000
0000
0000
0330
0000
0000
0000
0000
0000
,  // measure 63
0010
0000
0000
0010
0000
0000
0100
0000
0000
0010
0000
0000
1000
0000
0000
0000
0000
0001
0000
0000
0000
1000
0000
0000
,  // measure 64
0001
0010
0001
0100
1000
0100
0010
1000
,  // measure 65
0100
0100
0001
1000
0010
0100
0010
0001
,  // measure 66
1000
0010
1000
0100
0001
0100
0010
0001
,  // measure 67
0100
0100
1000
0001
0010
1000
0001
0010
,  // measure 68
0100
0000
0000
0010
0000
0000
0000
0000
0001
0000
0000
0000
1000
0000
0000
0000
0000
0020
0000
0000
0000
0230
0000
0000
,  // measure 69
0300
0000
0000
0000
;

//---------------dance-single - ----------------
#NOTEDATA:;
#CHARTNAME:;
#STEPSTYPE:dance-single;
#DESCRIPTION:;
#CHARTSTYLE:;
#DIFFICULTY:Medium;
#METER:7;
#RADARVALUES:0.298278,0.398541,0.212457,0.315023,0.000000,285.000000,256.000000,29.000000,43.000000,0.000000,0.000000,0.000000,0.000000,0.000000,0.298278,0.398541,0.212457,0.315023,0.000000,285.000000,256.000000,29.000000,43.000000,0.000000,0.000000,0.000000,0.000000,0.000000;
#CREDIT:;
#OFFSET:3.557396;
#BPMS:0.000000=122.000000
;
#STOPS:36.000000=1.967214
,82.000000=0.491800
,83.000000=0.491804
,126.000000=0.983606
;
#DELAYS:;
#WARPS:;
#TIMESIGNATURES:0.000000=4=4
;
#TICKCOUNTS:0.000000=4
;
#COMBOS:0.000000=1
;
#SPEEDS:0.000000=1.000000=0.000000=0
;
#SCROLLS:0.000000=1.000000
;
#FAKES:;
#LABELS:0.000000=Song Start
;
#NOTES:
0000
0000
0000
0000
,
0000
0000
0000
0000
,
0000
0000
0000
0000
,
0000
0000
0000
0000
,
0000
0000
0000
0000
,
0000
0000
0000
0000
,
0000
0000
0000
0000
,
0001
0010
0001
0010
,
0001
0100
0001
0100
,
1001
0000
0000
0100
,
1001
0000
0000
1000
0010
1000
0010
0000
,
1001
0000
0000
0001
0010
0001
0010
0000
,
1001
0000
0000
1000
0001
1000
0001
0000
,
1000
0010
0100
0000
0001
0000
0010
0000
,
0200
0000
0000
0310
,
0001
0001
0100
0100
,
0010
1000
0002
0000
0003
0000
0001
0000
,
1000
1000
0100
0100
,
0010
0001
2000
0000
3000
0000
0001
0000
,
0010
0010
1000
1000
,
0010
0000
0001
0100
0010
0000
1001
0000
,
1001
0110
2002
3003
,
0000
1000
0001
1000
0001
0000
0100
0000
,
0001
0000
1000
0000
0100
0010
0200
0000
,
0300
0100
1000
0010
,
0001
0000
0010
0000
1000
0001
2000
0000
,
3000
0000
0001
0000
0010
0100
0010
0000
,
0100
0000
1000
0000
0010
0100
0010
0000
,
0100
0001
1000
1000
,
0001
0001
1000
0001
,
1000
0001
1000
0001
2000
0000
0100
0000
,
0100
0100
3000
0100
,
0011
0000
1010
0000
0011
0000
0001
0100
,
0000
0101
0000
1100
0000
0101
0000
0001
,
0020
2030
3200
0302
,
0013
0200
1000
0000
0310
0000
0001
0000
,
1010
0000
0011
0000
1010
0000
1000
0100
,
0000
1100
0000
0101
0000
1100
0000
1000
,
0020
0032
0203
1300
,
1100
1010
0101
0011
,
0001
0010
0001
0000
1000
0010
1000
0000
,
0001
0010
0100
1000
0001
0000
1000
0000
,
0020
0032
0203
2300
,
3001
0200
0010
0000
0301
0000
0001
0000
,
1000
0010
1000
0000
0001
0010
0001
0000
,
1000
0010
0100
0001
1000
0000
0100
0000
,
0020
0032
0203
2300
,
3001
2000
3200
0301
,
0220
0330
1001
0010
,
2000
0002
0000
3003
,
0000
0100
0000
0100
,
0000
0100
0000
0100
,
0000
0100
0000
0100
,
2001
0000
3020
0000
0230
0000
0301
0020
,
0000
0230
1000
0000
0010
0000
1300
0000
,
0001
0010
0001
0000
1000
0000
1000
0000
,
0001
0100
0001
0000
1000
0100
1000
0000
,
1002
0000
0023
0000
0230
0000
1300
0020
,
0000
0230
0001
0000
0010
0000
0301
0000
,
0010
0100
0010
0000
1001
0000
0100
0010
,
0200
0000
0000
0300
,
0000
0000
0000
0000
0000
0000
0100
0010
,
0200
0000
0000
0300
,
1000
0001
1000
0001
,
1000
0000
0010
0000
1000
0100
0010
0000
,
0001
0000
0010
0000
0001
0100
0010
0000
,
0100
0000
0001
0000
1000
0100
0010
0000
,
0100
0000
1000
0000
0001
0100
0010
1000
,
0100
0000
0000
0000
;

//---------------dance-single - ----------------
#NOTEDATA:;
#CHARTNAME:;
#STEPSTYPE:dance-single;
#DESCRIPTION:;
#CHARTSTYLE:;
#DIFFICULTY:Easy;
#METER:4;
#RADARVALUES:0.204085,0.323814,0.080587,0.212457,0.000000,195.000000,184.000000,11.000000,29.000000,0.000000,0.000000,0.000000,0.000000,0.000000,0.204085,0.323814,0.080587,0.212457,0.000000,195.000000,184.000000,11.000000,29.000000,0.000000,0.000000,0.000000,0.000000,0.000000;
#CREDIT:;
#OFFSET:3.557396;
#BPMS:0.000000=122.000000
;
#STOPS:36.000000=1.967214
,82.000000=0.491800
,83.000000=0.491804
,126.000000=0.983606
;
#DELAYS:;
#WARPS:;
#TIMESIGNATURES:0.000000=4=4
;
#TICKCOUNTS:0.000000=4
;
#COMBOS:0.000000=1
;
#SPEEDS:0.000000=1.000000=0.000000=0
;
#SCROLLS:0.000000=1.000000
;
#FAKES:;
#LABELS:0.000000=Song Start
;
#NOTES:
0000
0000
0000
0000
,
0000
0000
0000
0000
,
0000
0000
0000
0000
,
0000
0000
0000
0000
,
0000
0000
0000
0000
,
0000
0000
0000
0000
,
0000
0000
0000
0000
,
0010
0000
0010
0001
,
0100
0000
0010
1000
,
0100
0000
0000
0100
,
1001
0000
1000
0010
,
1001
0000
0001
0010
,
1001
0000
0001
0100
,
0010
1000
0100
0000
,
0020
0000
0000
0030
,
0001
0010
0001
0010
,
0001
0200
0300
0010
,
1000
0010
1000
0010
,
1000
0200
0300
0010
,
0001
1000
0001
1000
,
0010
0100
0010
1001
,
1001
0110
2002
3003
,
0000
0001
0002
0003
,
0100
0001
1000
0200
,
0300
0100
1000
0010
,
1000
0010
0100
0002
,
0003
1000
0010
1000
,
0200
0300
0010
0001
,
0200
0300
0010
0010
,
0020
0030
0010
0000
,
0010
0100
0020
0100
,
0100
0100
0030
0000
,
1000
0010
1000
0001
,
0010
0001
1000
0000
,
0001
0100
1000
0100
,
0002
0000
1003
1000
,
0001
0010
0001
1000
,
0010
1000
0001
0000
,
1000
0100
0001
0100
,
2000
0010
3010
0010
,
1010
0000
0101
0000
,
0001
1000
0100
0000
,
1000
0010
0001
0010
,
2000
0000
3001
0001
,
0011
0000
1100
0000
,
1000
0001
0100
0000
,
0001
0010
0100
1000
,
0000
1000
0010
0100
,
0002
0000
1003
0001
,
0020
0000
0000
0030
,
0000
0100
0000
0100
,
0000
0100
0000
0100
,
0000
0100
0000
0100
,
0020
0032
2003
3020
,
0200
0030
0301
0000
,
1000
0100
0010
0000
,
0010
0001
0100
0000
,
0020
2030
3002
0023
,
0200
0030
1300
0000
,
0001
0100
1000
0010
,
0002
0000
0000
0003
,
0000
0000
0000
0001
,
2000
0000
0000
3000
,
0010
0010
0010
0000
,
1000
0010
1000
0010
,
1000
0100
1000
0100
,
0010
0001
0010
0001
,
0100
0001
0100
0001
,
1000
0000
0000
0000
;

//---------------dance-single - ----------------
#NOTEDATA:;
#CHARTNAME:;
#STEPSTYPE:dance-single;
#DESCRIPTION:;
#CHARTSTYLE:;
#DIFFICULTY:Beginner;
#METER:1;
#RADARVALUES:0.081634,0.179490,0.036631,0.036631,0.000000,78.000000,73.000000,5.000000,5.000000,0.000000,0.000000,0.000000,0.000000,0.000000,0.081634,0.179490,0.036631,0.036631,0.000000,78.000000,73.000000,5.000000,5.000000,0.000000,0.000000,0.000000,0.000000,0.000000;
#CREDIT:;
#OFFSET:3.557396;
#BPMS:0.000000=122.000000
;
#STOPS:;
#DELAYS:;
#WARPS:;
#TIMESIGNATURES:0.000000=4=4
;
#TICKCOUNTS:0.000000=4
;
#COMBOS:0.000000=1
;
#SPEEDS:0.000000=1.000000=0.000000=0
;
#SCROLLS:0.000000=1.000000
;
#FAKES:;
#LABELS:0.000000=Song Start
;
#NOTES:
0000
0000
0000
0000
,
0000
0000
0000
0000
,
0000
0000
0000
0000
,
0000
0000
0000
0000
,
0000
0000
0000
0000
,
0000
0000
0000
0000
,
0000
0000
0000
0000
,
1000
0000
0000
0000
,
0001
0000
0000
0000
,
1001
0000
0000
0000
,
0000
0000
0000
0000
,
1000
0000
0000
0000
,
0010
0000
0000
0000
,
0100
0000
0000
0000
,
0001
0000
0000
0000
,
0020
0000
0030
0000
,
0001
0000
0001
0000
,
0001
0000
0000
0000
,
1000
0000
1000
0000
,
1000
0000
0000
0000
,
0010
0000
0010
0000
,
0010
0000
0000
0000
,
1001
0000
1001
0000
,
1001
0000
0000
0000
,
1000
0000
0000
0000
,
0100
0000
0000
0000
,
0001
0000
0000
0000
,
0010
0000
0000
0000
,
0001
0000
0000
0000
,
0100
0000
0000
0000
,
1000
0000
0000
0000
,
0010
0000
0000
0000
,
0020
0000
0000
0000
,
0030
0000
0000
0000
,
1000
0000
0000
0000
,
0100
0000
0000
0000
,
0010
0000
0010
0000
,
0010
0000
0000
0000
,
0001
0000
0000
0000
,
0100
0000
0000
0000
,
0010
0000
0010
0000
,
0010
0000
0000
0000
,
1000
0000
1000
0000
,
1000
0000
0000
0000
,
0001
0000
0001
0000
,
0001
0000
0000
0000
,
1000
0000
1000
0000
,
1000
0000
0000
0000
,
0001
0000
0000
0000
,
0010
0000
0000
0000
,
0110
0000
0000
0000
,
2000
0000
0000
0000
,
3000
0000
0000
0000
,
0000
0000
0000
0000
,
0000
0000
0000
0000
,
1000
0000
1000
0000
,
1000
0000
0000
0000
,
0010
0000
0000
0000
,
0100
0000
0000
0000
,
0001
0000
0001
0000
,
0001
0000
0000
0000
,
0010
0000
0100
0000
,
0020
0000
0000
0030
,
0000
0000
0000
0000
,
0020
0000
0000
0030
,
0000
0000
0000
0000
,
0001
0000
0001
0000
,
1000
0000
1000
0000
,
0001
0000
0001
0000
,
1000
0000
1000
0000
,
0001
0000
0000
0000
;
