#VERSION:0.83;
#TITLE:SNOBBISM (Neru Remix);
#SUBTITLE:;
#ARTIST:Neru;
#TITLETRANSLIT:;
#SUBTITLETRANSLIT:;
#ARTISTTRANSLIT:;
#GENRE:Snobbish Vocaloid;
#ORIGIN:;
#CREDIT:;
#BANNER:SNOBBISM (Neru Remix).png;
#BACKGROUND:SNOBBISM (Neru Remix)-bg.png;
#PREVIEWVID:;
#JACKET:SNOBBISM (Neru Remix)-jacket.png;
#CDIMAGE:;
#DISCIMAGE:;
#LYRICSPATH:;
#CDTITLE:cdtitle.png;
#MUSIC:SNOBBISM (Neru Remix).ogg;
#OFFSET:-0.368190;
#SAMPLESTART:60.859997;
#SAMPLELENGTH:15.737694;
#SELECTABLE:YES;
#DISPLAYBPM:122.000000:244.000000;
#BPMS:0.000=122.000,
30.000=244.000,
135.000=122.000,
173.500=244.000;
#STOPS:30.000=0.738,
173.500=0.615,
306.000=0.738,
391.000=0.738;
#DELAYS:;
#WARPS:;
#TIMESIGNATURES:0.000=4=4;
#TICKCOUNTS:0.000=4;
#COMBOS:0.000=1;
#SPEEDS:0.000=1.000=0.000=0;
#SCROLLS:0.000=1.000;
#FAKES:;
#LABELS:0.000=Song Start;
#BGCHANGES:;
#KEYSOUNDS:;
#ATTACKS:
;

//---------------dance-single - ----------------
#NOTEDATA:;
#CHARTNAME:;
#STEPSTYPE:dance-single;
#DESCRIPTION:;
#CHARTSTYLE:;
#DIFFICULTY:Challenge;
#METER:16;
#RADARVALUES:0.820315,1.327055,0.531412,0.398559,0.985327,778.000000,706.000000,72.000000,54.000000,0.000000,0.000000,0.000000,0.000000,0.000000,0.820315,1.327055,0.531412,0.398559,0.985327,778.000000,706.000000,72.000000,54.000000,0.000000,0.000000,0.000000,0.000000,0.000000;
#CREDIT:;
#OFFSET:-0.368190;
#BPMS:0.000000=122.000000
,30.000000=244.000000
,135.000000=122.000000
,173.500000=244.000000
;
#STOPS:30.000000=0.737704
,173.500000=0.614756
,306.000000=0.737712
,391.000000=0.737704
;
#DELAYS:;
#WARPS:;
#TIMESIGNATURES:0.000000=4=4
;
#TICKCOUNTS:0.000000=4
;
#COMBOS:0.000000=1
;
#SPEEDS:0.000000=1.000000=0.000000=0
;
#SCROLLS:0.000000=1.000000
;
#FAKES:;
#LABELS:0.000000=Song Start
;
#DISPLAYBPM:122.000000:244.000000;
#NOTES:
0000
0000
0000
0000
,
0000
0000
0000
0000
,
0000
0000
0000
0000
,
0000
0000
0000
0000
,
0000
0000
0000
0000
0000
0001
0100
0001
,
0020
0000
0000
0000
0000
0000
0130
0000
0000
1000
0000
0000
0010
0000
0000
1000
0000
0001
0000
0000
0001
1000
0000
0000
,
0020
0000
0000
0000
0000
0000
0130
0000
0000
0001
0000
0000
0010
0000
0000
0001
0000
1000
0000
0000
1000
0001
0000
0000
,
0220
0000
0000
0000
0000
0000
0000
0000
0000
0330
0000
0000
1001
0000
0000
0000
0000
0000
1000
0000
0000
0000
0010
0000
,
0000
0000
0010
0001
0000
0000
0001
0000
0100
0000
0000
0100
,
1000
0000
0000
0001
0100
0010
1000
0100
0010
0002
0000
0000
,
0013
0000
0000
0001
0000
0010
0001
0000
0001
0100
0000
0000
,
0010
1000
0001
1000
0000
1000
0100
0000
0000
2000
0000
0000
,
3010
0000
0000
1000
0000
0010
1000
0000
1000
0100
0000
0000
,
0010
0001
1000
0001
0000
0001
0100
0000
0000
0002
0000
0000
,
1003
0000
0000
0001
0000
0010
0100
0000
0010
0100
0000
0000
,
1000
0100
0010
0001
0000
0100
0010
0000
0000
1000
0000
0001
,
0000
0000
1000
0001
0000
0000
1001
0000
0000
1000
0100
1000
,
0100
1000
0100
0010
0001
1000
0010
1000
0001
0010
0000
0000
,
0011
0000
0000
0000
0000
0000
0011
0000
0000
0000
0000
0010
,
0001
0000
0000
0000
0000
0000
0011
0000
1000
0001
0000
0001
,
0100
0000
0000
0000
0000
0000
0101
0000
0000
0000
0000
0100
,
0001
0000
1000
0100
0000
0100
1000
0000
0000
0010
0000
0000
,
1010
0000
0000
0000
0000
0000
1010
0000
0000
0000
0000
0010
,
1000
0000
0000
0000
0000
0000
1010
0000
0001
1000
0000
1000
,
0100
0000
1100
0011
,
1000
0100
0010
0001
0100
0010
1000
0100
0010
0001
0000
0000
,
1001
0000
0000
0010
0000
0001
1000
0000
0000
0010
0000
1000
,
0001
0000
0000
0010
0000
0001
1000
0000
0000
0010
0000
0000
,
0110
0000
0000
0010
0000
1000
0100
0000
0000
0010
0000
0001
,
0100
0000
0000
0010
0000
1000
0100
0000
0000
0010
0000
0000
,
0110
0000
0000
0001
0000
0010
0001
0000
0000
1000
0000
0010
,
1000
0000
0000
0001
0000
0010
0001
0000
0000
0100
0000
0000
,
0110
0000
0000
0010
0000
0100
0001
0000
0000
1000
0000
0100
,
0010
0000
0000
0100
0010
0001
1000
0000
0000
1001
0000
0000
,
1000
0000
0000
0001
0000
0000
0100
0000
0100
0010
0000
0010
0100
0000
0100
0010
0000
0000
1000
0000
0000
0001
0000
0020
,
0000
0000
0000
0130
0000
0000
0100
0000
0000
0011
0000
0001
1000
0000
0000
1010
0000
0000
0100
0000
0001
1000
0000
0001
,
1000
0000
0001
0010
0000
0000
1000
0000
0000
0010
0000
0002
0000
0000
1003
0001
0000
0000
0100
0000
0000
1000
0000
0200
,
0000
0000
0000
0301
0000
0000
0100
0010
0100
0001
1000
0001
1000
0000
0000
0100
0000
0000
0010
0000
0000
0001
0000
2000
,
0000
0000
3001
0100
0000
0100
0010
0000
0000
0100
0000
0000
0001
0000
0000
0100
0000
0010
1000
0000
1000
0001
0000
0001
,
0010
0000
0000
0100
0000
0100
1000
0000
0000
0001
0000
0000
1000
0000
0000
0010
0000
0000
0001
0000
0000
0010
0000
0001
,
0000
0000
0010
2000
0000
0000
0100
0000
0000
3001
0000
0000
0010
0000
0000
1000
0000
0000
0010
0000
0000
1000
0000
0010
,
0001
0000
0000
1001
0000
0000
0100
0000
1001
0000
0000
0001
0100
0000
0000
0001
0100
0010
1000
0000
0001
0010
0000
0010
,
0001
0000
0100
0001
0000
1000
0100
0000
1000
0010
0000
0010
1000
0000
0100
0010
0000
0000
0022
0000
0000
0033
0000
2020
,
0000
0000
0000
0000
3030
0000
0110
0000
0000
0000
0000
0000
1001
0000
0000
0000
0000
0000
1001
0000
0000
0000
0000
0000
2010
0000
0000
0000
0000
0000
0000
0000
0000
0000
0000
0000
0100
0000
0000
0000
0000
0000
0000
0000
0000
3000
0000
0000
,
2001
0000
0000
0000
0100
0000
0000
3000
2010
0000
0000
0000
0100
0000
0000
3000
,
1100
0000
0000
0000
0021
0000
0000
0000
0100
0000
0000
0030
1020
0000
0000
0000
,
0100
0000
0000
0030
0010
0000
0001
0000
0000
0000
1001
0000
0000
0000
0000
0000
0001
0000
0100
0000
0000
0000
0000
0000
,
0001
0000
0001
2000
0000
0000
3200
0000
0000
0302
0000
0000
,
0013
0000
0010
1000
0000
0000
1000
0000
1000
0100
0000
0000
,
0100
0000
0100
0001
0000
0000
0110
0000
0010
0001
0000
0001
,
0100
0000
1000
0000
0000
1000
0100
0000
0001
0000
0000
1001
,
0000
0000
0000
0000
0000
0000
0000
0000
1000
0000
0000
0000
0100
0000
0000
0000
0000
0000
0000
0000
0000
0000
0000
0000
0012
0000
0000
0000
0000
0000
0000
0000
0000
0000
0000
0000
0100
0000
0000
0000
0000
0000
0000
0000
0000
0003
0000
0000
,
1002
0000
0000
0000
0100
0000
0000
0003
0012
0000
0000
0000
0100
0000
0000
0003
,
0101
0000
0000
0000
1020
0000
0000
0000
0100
0000
0000
0030
0021
0000
0000
0000
,
0100
0000
0000
0030
0010
0000
1000
0000
0000
0000
1001
0000
0000
0000
0000
0000
1000
0000
0100
0000
0000
0000
0000
0000
,
1000
0000
1000
0002
0000
0000
0203
0000
0000
2300
0000
0000
,
3010
0000
0010
0001
0000
0000
0001
0000
0001
0100
0000
0000
,
0100
0000
0100
1000
0000
0000
0110
0000
0000
0000
0000
0010
,
1000
0000
0000
0000
0000
0001
1000
0000
0000
0000
0000
0100
,
1000
0000
0000
1001
0000
0000
0001
0010
0100
1000
0010
0100
,
0001
0101
1000
1100
,
0001
0000
0000
0101
0000
0000
1000
0000
0100
0010
0000
0100
,
0001
0000
0100
1000
0000
1000
0010
0000
0010
0001
0000
0000
,
0010
0000
0010
2000
0000
0000
3200
0000
0000
0302
0000
1003
,
0020
0000
0000
0032
0000
0000
0203
0000
0000
2300
0000
3001
,
0010
0000
0010
1000
0000
0000
1001
0000
0010
1000
0000
1000
,
0100
0000
0001
0000
0000
0001
0100
0000
1000
0000
0000
1001
,
0000
0000
0001
0100
0000
0010
1000
0000
1000
0100
0000
0000
,
0010
0011
1000
1010
,
0001
0000
0000
0011
0000
1000
0001
0000
0100
0010
0000
0100
,
1000
0000
0100
0001
0000
0001
0010
0000
0010
1000
0000
0000
,
0010
0000
0010
0001
0000
0000
0011
0000
0000
1001
0000
0000
,
0101
1010
1001
1100
,
0011
1001
0100
1010
,
0011
1001
0101
1100
,
1000
0100
0010
0001
0100
0010
2000
0000
0000
0000
0000
0000
,
0000
0000
3001
0011
,
1100
0000
0000
0000
0000
0000
1100
0000
0000
0000
0000
1000
,
0100
0000
0000
0000
0000
0000
0100
0000
0000
1001
0000
0001
,
0100
0000
0000
0000
0000
0000
0101
0000
0000
0000
0000
0001
,
0100
0000
0001
1000
0000
0001
0100
0000
0001
1000
0000
1000
,
0100
0000
0100
0010
0000
0000
0001
0000
0000
0100
0000
0000
,
1000
0000
0001
0010
0000
0000
1000
0000
1000
0100
0000
0000
,
0000
0000
0100
0001
0000
0000
0000
0000
0001
0010
0000
0000
,
0000
0000
0010
1000
0000
0010
1000
0100
0010
0002
0000
0000
,
0013
0000
0000
0200
0000
0310
0100
0000
0000
0020
0000
1030
,
0010
0000
0000
2000
0000
3010
0002
0000
0000
0103
0000
1000
,
0200
0000
1300
0100
0000
0100
0001
0000
1000
0010
0000
0100
,
0010
0000
1000
0010
0000
0100
0010
0000
1000
0001
0000
0000
,
0001
0000
0010
1000
0000
0000
1000
0000
0010
0001
0000
0000
,
0001
0000
0100
1000
0000
0000
1000
0000
0100
0001
0000
0000
,
0001
0000
0010
0100
0000
0100
1000
0000
0010
0100
0000
0001
,
0000
0000
0011
0000
0000
0010
0100
0000
0000
2000
0000
0000
,
3010
0000
0000
0200
0000
0310
0100
0000
0000
0020
0000
0031
,
0010
0000
0000
0002
0000
0013
2000
0000
0000
3100
0000
0001
,
0200
0000
0301
0100
0000
0100
1000
0000
0001
0010
0000
0100
,
0010
0000
0001
0010
0000
0100
0010
0000
0001
2000
0000
0000
,
0000
0010
3001
1001
,
0001
0000
0100
0001
0000
0000
1000
0000
0100
1000
0000
1000
,
0001
0000
0000
0100
0000
0010
0000
0000
0010
1000
0000
0000
,
0001
0000
0010
0001
0000
0000
1000
0000
0010
1000
0000
1000
,
0001
0000
0000
0010
0000
0100
1000
0000
1000
0010
0000
0010
,
0100
0000
0001
1000
0000
0000
0100
0000
1000
0001
0000
0001
,
1000
0000
0000
0010
0000
0100
0000
0000
0100
0001
0000
0000
,
0010
0000
0000
0010
0000
0000
0100
0010
0100
0010
0000
0100
,
1000
0000
1000
0010
0000
1000
0010
0100
0010
0100
0001
1000
,
0100
0000
0010
0100
0000
0100
0010
0000
0010
0001
0000
0001
,
0100
0000
0010
1000
0000
0100
0010
0000
0001
0100
0000
0010
,
1000
0000
0000
1000
0000
0000
0010
1000
0100
0010
0000
0100
,
0001
0000
0001
0100
0000
0100
0001
0000
0100
1000
0000
0001
,
0100
0000
0010
0100
0000
0100
0010
0000
0010
1000
0000
1000
,
0100
0000
0010
0001
0000
0100
0010
0000
1000
0100
0000
0010
,
0001
0000
0000
0001
0000
0000
0010
0001
0100
0010
0000
0100
,
1000
0000
1000
0100
0000
1000
0100
0010
0100
0001
0000
1000
,
0100
0000
0000
0010
0000
0000
0001
0000
1000
0000
0000
0001
,
0010
0000
0000
0001
0000
1000
0000
0000
0001
0200
0000
0000
,
0300
0000
0000
0000
;

//---------------dance-single - ----------------
#NOTEDATA:;
#CHARTNAME:;
#STEPSTYPE:dance-single;
#DESCRIPTION:;
#CHARTSTYLE:;
#DIFFICULTY:Hard;
#METER:12;
#RADARVALUES:0.575697,0.898973,0.494509,0.302610,0.254635,546.000000,479.000000,67.000000,41.000000,0.000000,0.000000,0.000000,0.000000,0.000000,0.575697,0.898973,0.494509,0.302610,0.254635,546.000000,479.000000,67.000000,41.000000,0.000000,0.000000,0.000000,0.000000,0.000000;
#CREDIT:;
#OFFSET:-0.368190;
#BPMS:0.000000=122.000000
,30.000000=244.000000
,135.000000=122.000000
,173.500000=244.000000
;
#STOPS:30.000000=0.737705
,173.500000=0.614752
,306.000000=0.737712
,391.000000=0.737704
;
#DELAYS:;
#WARPS:;
#TIMESIGNATURES:0.000000=4=4
;
#TICKCOUNTS:0.000000=4
;
#COMBOS:0.000000=1
;
#SPEEDS:0.000000=1.000000=0.000000=0
;
#SCROLLS:0.000000=1.000000
;
#FAKES:;
#LABELS:0.000000=Song Start
;
#DISPLAYBPM:122.000000:244.000000;
#NOTES:
0000
0000
0000
0000
,
0000
0000
0000
0000
,
0000
0000
0000
0000
,
0000
0000
0000
0000
,
0000
0000
0000
0000
0000
0001
0010
0001
,
0020
0000
0000
0000
0000
0000
0030
0000
0000
0001
0000
0000
0010
0000
0000
0000
0000
0100
0000
0000
0000
1000
0000
0000
,
0020
0000
0000
0000
0000
0000
0030
0000
0000
1000
0000
0000
0010
0000
0000
0000
0000
0100
0000
0000
0000
0001
0000
0000
,
2002
0000
0000
0000
0000
0000
0000
0000
0000
3003
0000
0000
0110
0000
0000
0000
0000
0000
1000
0000
0000
0000
0100
0000
,
0000
0000
1000
0100
0000
0000
0010
0000
0001
0000
0000
0010
,
0001
0100
0010
1010
,
0000
0000
0000
0001
0000
0001
0010
0000
0000
1000
0000
0000
,
0010
0000
0010
0001
0000
0000
0000
0000
0000
0110
0000
0000
,
0000
0000
0000
1000
0000
1000
0010
0000
0000
0001
0000
0000
,
0010
0000
0010
1000
0000
0000
0000
0000
0000
0110
0000
0000
,
0000
0000
0000
1000
0000
1000
0100
0000
0000
0001
0000
0000
,
0100
0000
0100
1000
0000
0000
0000
0000
0000
0001
0000
0100
,
0000
0000
0001
0100
0000
0000
0010
0000
0000
1000
0000
0000
,
0100
0020
0000
0031
,
0011
0000
0000
0000
0000
0000
0011
0000
0000
0000
0000
0010
,
0001
0000
1001
0001
,
0100
0000
0020
0000
0000
0000
0130
0000
0000
0000
0000
0000
,
1001
0010
0001
0100
,
1010
0000
0000
0000
0000
0000
1010
0000
0000
0000
0000
0010
,
1000
0000
1001
1000
,
0100
0000
0020
0000
0000
0000
0130
0000
0000
0110
0000
0000
,
0000
0100
1000
0010
,
1000
0000
0000
0010
0000
1000
0010
0000
0000
1000
0000
0000
,
0010
0001
0010
1000
,
0100
0000
0000
1000
0000
0100
1000
0000
0000
0100
0000
0000
,
0001
0100
1000
0001
,
0100
0000
0000
0010
0000
0000
1000
0000
0010
1000
0000
0000
,
0100
0000
0000
0010
0000
0001
0010
0000
0000
0001
0000
0000
,
1000
0001
1000
0001
,
0100
0010
1000
1001
,
0101
0000
1001
0000
0011
1000
1001
0000
,
0101
0000
1000
0010
0100
0001
1001
0000
,
1100
0000
1001
0000
1010
0001
1001
0000
,
1100
0000
0010
0001
0100
0010
1010
0000
,
0110
0001
1001
0000
0110
1000
1001
0000
,
0110
0001
1001
0000
1000
0100
0110
0000
,
0011
0000
0000
0000
0000
0000
1001
0000
0000
0000
0000
0000
1010
0000
0000
0000
0000
0000
0110
0000
0000
0000
0000
0010
,
0100
0000
0000
0010
0000
0000
0100
0000
0001
0000
0000
1000
0100
0000
0000
0010
0000
0000
0100
0000
0000
0100
0000
0000
,
1000
0000
0000
0001
0000
0000
0100
0000
0000
0100
0000
0000
0001
0000
0000
1000
0000
0000
1100
0000
0000
0000
0000
0110
,
0000
0011
1001
1001
2000
0000
0010
0000
,
3020
0001
0032
1000
,
2003
3200
0301
1002
,
0013
0012
1003
1002
,
0103
0001
0100
0010
,
0001
1000
0001
0010
,
1000
0100
0010
0002
,
0100
0000
0000
0103
0000
0000
0010
0000
1000
0000
0000
1100
,
0000
0000
0100
0010
0000
0000
0002
0000
0000
0010
0000
0000
,
0023
1000
2030
0001
,
3002
0203
1300
2001
,
3010
2010
3001
2001
,
3100
1000
0100
0010
,
1000
0001
1000
0010
,
0001
0000
0000
0100
0000
0000
0110
0000
0000
0000
0000
1000
,
0010
0000
0000
0000
0000
1000
0001
0000
0000
0000
0000
1000
,
0100
0000
0000
0010
0000
0000
0002
0000
0000
0000
0003
0000
,
0011
0100
1000
1000
,
0010
0000
0000
0100
0000
0000
0001
0000
0000
0010
0000
0001
,
0010
1000
0010
0001
,
1000
0001
0100
1000
,
0100
0000
0000
0001
0000
0000
0010
0000
0000
1000
0000
0010
,
0001
0100
0010
2000
,
0100
0000
0000
3100
0000
0000
0010
0000
0001
0000
0000
0101
,
0000
0000
0100
0010
0000
0000
1000
0000
0000
1000
0000
0000
,
0010
0100
0001
0001
,
0010
0000
0000
0100
0000
0000
1000
0000
0000
0010
0000
1000
,
0010
0001
0010
1000
,
0001
1000
1100
0010
,
0100
0100
0011
0100
,
1000
1000
1010
0100
,
0010
0010
0101
0010
,
1000
0001
2001
0000
,
0000
0000
3001
1000
,
1100
0000
0000
0000
0000
0000
1100
0000
0000
0000
0000
0100
,
1000
0000
1100
0010
,
0101
0000
0000
0000
0000
0000
0101
0000
0000
0000
0000
0100
,
0001
0000
0000
1000
0000
0000
0100
0000
0000
0010
0000
0100
,
0010
0001
1000
0010
,
0100
0000
0010
0100
0000
0000
0001
0000
0000
1001
0000
0000
,
0000
0000
0001
1000
0000
0000
0000
0000
1000
0001
0000
0000
,
0000
0000
0001
1000
0000
0000
0001
0000
0000
2000
0000
0000
,
0010
3002
0010
2003
,
0010
3002
0203
1000
,
0320
1000
0130
0001
,
0001
0000
0000
0100
0000
0000
0001
0000
1000
0010
0000
0000
,
1000
0100
0010
0110
,
0000
0000
0001
0010
0000
0000
0100
0000
0000
1000
0000
0000
,
0010
0000
0000
0001
0000
0000
0010
0000
0000
1000
0000
0010
,
0000
0000
1001
0000
0000
0001
0010
0000
0000
0002
0000
0000
,
0010
2003
0010
3002
,
0010
2003
3200
0001
,
0320
0001
0130
1000
,
1000
0000
0000
0100
0000
0000
1000
0000
0001
0200
0000
0000
,
0000
0010
0310
1001
,
1000
0100
0001
0100
,
1000
0000
0000
0100
0000
0010
0000
0000
0100
0010
0000
0000
,
0001
0100
1000
0100
,
0001
0000
0000
0100
0000
0010
0000
0000
0100
0010
0000
0000
,
1000
0010
0001
0010
,
1000
0000
0000
0100
0000
0010
0000
0000
0100
0010
0000
0000
,
0001
0010
1000
0001
,
0100
1000
1001
0000
,
0001
0000
0000
0100
0000
0000
0010
0000
0100
0010
0000
0000
,
1000
0000
0000
0100
0000
0000
0010
0000
0100
0010
0000
0000
,
1000
0000
0000
1000
0000
0000
0010
0000
0100
1000
0000
0000
,
0001
0000
0000
0100
0000
0010
0000
0000
1000
0001
0000
0000
,
1000
0000
0000
0100
0000
0000
0010
0000
0100
0010
0000
0000
,
0001
0000
0000
0100
0000
0000
0010
0000
0100
0010
0000
0000
,
0001
0000
0000
0001
0000
0000
0010
0000
0100
0001
0000
0000
,
1000
0000
0000
0100
0000
0010
0000
0000
0010
0001
0000
0000
,
0100
0000
0000
0010
0000
0000
0000
0000
1000
0000
0000
0000
,
0001
0000
0000
0000
0000
0010
0000
0000
0000
0200
0000
0000
,
0300
0000
0000
0000
;

//---------------dance-single - ----------------
#NOTEDATA:;
#CHARTNAME:;
#STEPSTYPE:dance-single;
#DESCRIPTION:;
#CHARTSTYLE:;
#DIFFICULTY:Medium;
#METER:9;
#RADARVALUES:0.397505,0.636588,0.236183,0.221422,0.000000,377.000000,345.000000,32.000000,30.000000,0.000000,0.000000,0.000000,0.000000,0.000000,0.397505,0.636588,0.236183,0.221422,0.000000,377.000000,345.000000,32.000000,30.000000,0.000000,0.000000,0.000000,0.000000,0.000000;
#CREDIT:;
#OFFSET:-0.368190;
#BPMS:0.000000=122.000000
,30.000000=244.000000
,136.000000=122.000000
,176.000000=244.000000
;
#STOPS:30.000000=0.491803
,308.000000=0.491801
,394.000000=0.491809
;
#DELAYS:;
#WARPS:;
#TIMESIGNATURES:0.000000=4=4
;
#TICKCOUNTS:0.000000=4
;
#COMBOS:0.000000=1
;
#SPEEDS:0.000000=1.000000=0.000000=0
;
#SCROLLS:0.000000=1.000000
;
#FAKES:;
#LABELS:0.000000=Song Start
;
#DISPLAYBPM:122.000000:244.000000;
#NOTES:
// measure 0
0000
0000
0000
0000
,  // measure 1
0000
0000
0000
0000
,  // measure 2
0000
0000
0000
0000
,  // measure 3
0000
0000
0000
0000
,  // measure 4
0000
0000
0000
0000
,  // measure 5
0001
0010
0001
0010
,  // measure 6
0001
0100
0001
0100
,  // measure 7
2002
0000
0000
3003
0110
0000
0000
0000
,  // measure 8
2002
0000
0000
0000
0000
0000
3000
0000
0000
0000
0003
0000
,  // measure 9
0000
1000
0100
0010
,  // measure 10
0001
0000
0010
0001
,  // measure 11
1000
0001
0100
0000
,  // measure 12
1001
0000
0010
1000
,  // measure 13
0001
1000
0100
0000
,  // measure 14
1001
0000
0010
0001
,  // measure 15
0100
0010
1000
0000
,  // measure 16
0100
0010
0001
0000
,  // measure 17
0022
0000
0033
0000
,  // measure 18
1000
0001
0000
0001
,  // measure 19
0000
0001
0000
0001
,  // measure 20
0100
1000
0000
1000
,  // measure 21
0000
1000
0100
1000
,  // measure 22
0100
0001
0000
0001
,  // measure 23
0000
0001
0000
0001
,  // measure 24
0010
1000
0000
1000
,  // measure 25
0010
0001
0010
0000
,  // measure 26
0001
0001
1000
0000
,  // measure 27
1000
1000
0001
0000
,  // measure 28
0001
0100
0010
1000
,  // measure 29
0001
0000
0010
0001
,  // measure 30
1000
1000
0100
1000
,  // measure 31
0001
0001
0100
0001
,  // measure 32
2002
0000
0000
3003
,  // measure 33
0000
1000
0001
1000
,  // measure 34
0100
0000
0100
0000
0100
0000
0100
1000
,  // measure 35
0010
0000
0010
0000
0100
0010
1000
0001
,  // measure 36
0100
0000
0100
0000
0100
0000
0100
0001
,  // measure 37
0010
0000
0010
0000
0100
1000
0001
0000
,  // measure 38
1000
0010
1000
0010
0100
0000
0100
0000
,  // measure 39
0001
0010
0001
0010
0100
0000
0100
0000
,  // measure 40
1000
0010
1000
0000
0001
0010
0001
0000
,  // measure 41
1000
0000
0001
0000
1000
0010
0100
0001
,  // measure 42
1000
1000
0100
0000
0001
0001
0100
0000
,  // measure 43
1000
0000
0001
0000
1001
1001
0000
0000
,  // measure 44
0002
0000
0023
0000
,  // measure 45
2030
0000
3001
0100
,  // measure 46
0000
0101
0000
0110
,  // measure 47
0000
1100
0000
1000
,  // measure 48
0010
0100
0010
0100
,  // measure 49
0001
1000
0001
1000
,  // measure 50
0100
0020
0001
0000
,  // measure 51
0130
0000
1001
0000
,  // measure 52
2000
0000
3020
0000
,  // measure 53
0032
0000
1003
0100
,  // measure 54
0000
1100
0000
0110
,  // measure 55
0000
0101
0000
0001
,  // measure 56
0010
0100
0010
0100
,  // measure 57
1000
0001
1000
0001
,  // measure 58
1001
0000
1010
0000
,  // measure 59
1001
0000
0011
0000
,  // measure 60
0001
0001
0010
0000
,  // measure 61
1000
1000
0100
0000
,  // measure 62
0001
0010
0100
1000
,  // measure 63
0001
1000
0001
0000
,  // measure 64
1000
0010
1000
0010
,  // measure 65
0100
0001
0010
0100
,  // measure 66
1000
0002
0010
0000
,  // measure 67
0103
0000
1001
0000
,  // measure 68
1000
1000
0010
0000
,  // measure 69
0001
0001
0100
0000
,  // measure 70
1000
0010
0100
0001
,  // measure 71
1000
0001
1000
0000
,  // measure 72
0001
0100
0001
0100
,  // measure 73
1000
0100
1000
0000
,  // measure 74
1000
0010
1000
0010
,  // measure 75
0001
0010
0001
0000
,  // measure 76
0220
0000
0000
0330
,  // measure 77
1001
0000
1000
0100
,  // measure 78
0000
0100
0000
0100
,  // measure 79
0000
0100
0001
0100
,  // measure 80
0000
0100
0000
0100
,  // measure 81
1000
0001
0100
0010
,  // measure 82
0100
0010
1000
0001
,  // measure 83
0100
0010
0110
0000
,  // measure 84
1010
0000
0011
0000
,  // measure 85
0110
0000
2001
0000
,  // measure 86
3020
0000
0230
0000
,  // measure 87
0301
0020
0000
0230
,  // measure 88
1000
0000
1000
0010
,  // measure 89
1300
0000
0001
0010
,  // measure 90
0001
0010
0100
0000
,  // measure 91
1000
0000
0010
1000
,  // measure 92
0010
1000
0010
0100
,  // measure 93
0001
0000
1002
0000
,  // measure 94
0023
0000
0230
0000
,  // measure 95
1300
0020
0000
0230
,  // measure 96
0001
0000
0001
0010
,  // measure 97
0301
0000
2002
0000
,  // measure 98
0000
3003
0110
0000
,  // measure 99
1000
0100
1000
0000
,  // measure 100
0001
0100
0001
0000
,  // measure 101
1000
0100
1000
0000
,  // measure 102
0001
0100
0001
0000
,  // measure 103
1000
0010
1000
0000
,  // measure 104
0001
0010
0001
0000
,  // measure 105
0100
0000
0100
0000
,  // measure 106
0010
1000
0001
0000
,  // measure 107
1000
0100
0010
0100
,  // measure 108
1000
0100
0010
0000
,  // measure 109
0001
0001
0001
0000
,  // measure 110
0010
0001
0100
0000
,  // measure 111
0001
0100
0010
0100
,  // measure 112
0001
0100
0010
0000
,  // measure 113
1000
1000
1000
0000
,  // measure 114
0010
1000
0100
0010
,  // measure 115
0110
0000
0000
0000
;

//---------------dance-single - ----------------
#NOTEDATA:;
#CHARTNAME:;
#STEPSTYPE:dance-single;
#DESCRIPTION:;
#CHARTSTYLE:;
#DIFFICULTY:Easy;
#METER:6;
#RADARVALUES:0.273087,0.513699,0.154995,0.221422,0.000000,259.000000,238.000000,21.000000,30.000000,0.000000,0.000000,0.000000,0.000000,0.000000,0.273087,0.513699,0.154995,0.221422,0.000000,259.000000,238.000000,21.000000,30.000000,0.000000,0.000000,0.000000,0.000000,0.000000;
#CREDIT:;
#OFFSET:-0.368190;
#BPMS:0.000000=122.000000
,30.000000=244.000000
,136.000000=122.000000
,174.000000=244.000000
;
#STOPS:30.000000=0.491803
,174.000000=0.491801
;
#DELAYS:;
#WARPS:;
#TIMESIGNATURES:0.000000=4=4
;
#TICKCOUNTS:0.000000=4
;
#COMBOS:0.000000=1
;
#SPEEDS:0.000000=1.000000=0.000000=0
;
#SCROLLS:0.000000=1.000000
;
#FAKES:;
#LABELS:0.000000=Song Start
;
#DISPLAYBPM:122.000000:244.000000;
#NOTES:
0000
0000
0000
0000
,
0000
0000
0000
0000
,
0000
0000
0000
0000
,
0000
0000
0000
0000
,
0000
0000
0000
0000
,
0010
0000
0010
0001
,
0100
0000
0010
1000
,
0200
0000
0310
0000
,
0100
0000
0010
0000
,
0100
0000
1000
0000
,
1001
0000
0000
0000
,
1000
0010
1000
0000
,
1001
0000
0000
0000
,
0001
0010
0001
0000
,
1001
0000
0000
0000
,
1000
0010
1000
0000
,
0001
0000
0010
0000
,
2002
0000
3003
0000
,
0001
0000
0001
0000
,
0001
0000
0001
0000
,
0010
0001
0020
0000
,
0030
0000
0001
0000
,
1000
0000
1000
0000
,
1000
0000
1000
0000
,
0010
1000
0020
0000
,
0130
0000
0001
0000
,
1000
0000
0100
0000
,
0001
0000
0010
0000
,
0001
0000
0100
0000
,
1000
0000
0010
0000
,
1000
0000
1000
0000
,
0001
0000
1000
0001
,
2000
0000
3000
0000
,
0001
0000
1000
0000
,
0200
0300
0100
1000
,
0001
0200
0300
0100
,
0001
0010
0001
0010
,
0100
2000
3000
0001
,
0001
0100
2000
3000
,
1000
0100
0002
0003
,
0010
0100
0010
0100
,
0010
0010
0100
0010
,
0002
1003
2000
3001
,
1001
0110
1001
0000
,
1000
0000
0010
0000
,
1000
0000
0010
1000
,
0000
0100
0000
0010
,
0000
0110
0000
0000
,
1000
0000
0100
0000
,
0010
0000
0001
0000
,
0100
0001
0100
0000
,
1001
0000
0000
0000
,
0001
0000
0010
0000
,
0001
0000
0010
0001
,
0000
0100
0000
0010
,
0000
0110
0000
0000
,
0001
0000
0100
0000
,
0010
0000
1000
0000
,
1001
0000
1001
0000
,
0110
0000
0110
0000
,
0001
0000
0010
0000
,
1000
0000
0010
0000
,
0001
1000
0001
0000
,
0100
0000
0100
0000
,
0010
0000
1000
0000
,
0001
0000
0010
0000
,
0100
1000
0100
0000
,
1001
0000
0000
0000
,
1000
0000
0010
0000
,
0001
0000
0010
0000
,
1000
0001
1000
0000
,
0100
0000
0100
0000
,
1000
0000
0010
0000
,
0001
0000
0100
0000
,
0001
0000
0010
0000
,
1000
0000
0100
0000
,
2002
0000
3003
0000
,
0110
0000
0000
0000
,
2002
0000
0000
0000
,
0000
3003
0000
0100
,
1001
0000
0000
0000
,
0000
0000
1000
0000
,
0001
0000
1000
0000
,
0001
0000
0100
0010
,
0100
0000
0100
0000
,
1001
0000
1001
0000
,
0002
0000
0023
0000
,
2030
0000
3020
0032
,
0000
0023
0000
0000
,
0001
0000
0031
0000
,
1000
0000
0010
0000
,
1000
0000
1000
0000
,
0001
0000
0010
0000
,
0001
0000
0001
0000
,
2000
0000
3020
0000
,
0032
0000
0023
2030
,
0000
3020
0000
0000
,
1000
0000
1030
0000
,
0002
0000
0000
0000
,
1003
0000
0000
0000
,
1000
0001
1000
0000
,
0100
0000
0100
0000
,
1000
0000
0001
0000
,
0100
0000
0100
0000
,
0001
1000
0001
0000
,
0100
0000
0100
0000
,
0010
0000
1000
0000
,
0001
0000
0100
0000
,
0010
0000
0010
0000
,
1000
0000
0100
0000
,
0010
0100
0010
0000
,
0001
0000
1000
0000
,
0100
0000
0100
0000
,
0010
0000
0001
0000
,
0100
0010
0100
0000
,
0010
0000
1000
0000
,
0001
0000
0000
0000
;

//---------------dance-single - ----------------
#NOTEDATA:;
#CHARTNAME:;
#STEPSTYPE:dance-single;
#DESCRIPTION:;
#CHARTSTYLE:;
#DIFFICULTY:Beginner;
#METER:2;
#RADARVALUES:0.149723,0.247254,0.044284,0.125472,0.000000,142.000000,136.000000,6.000000,17.000000,0.000000,0.000000,0.000000,0.000000,0.000000,0.149723,0.247254,0.044284,0.125472,0.000000,142.000000,136.000000,6.000000,17.000000,0.000000,0.000000,0.000000,0.000000,0.000000;
#CREDIT:;
#OFFSET:-0.368190;
#BPMS:0.000000=244.000000
;
#STOPS:;
#DELAYS:;
#WARPS:;
#TIMESIGNATURES:0.000000=4=4
;
#TICKCOUNTS:0.000000=4
;
#COMBOS:0.000000=1
;
#SPEEDS:0.000000=1.000000=0.000000=0
;
#SCROLLS:0.000000=1.000000
;
#FAKES:;
#LABELS:0.000000=Song Start
;
#DISPLAYBPM:122.000000:244.000000;
#NOTES:
0000
0000
0000
0000
,
0000
0000
0000
0000
,
0000
0000
0000
0000
,
0000
0000
0000
0000
,
0000
0000
0000
0000
,
0000
0000
0000
0000
,
0000
0000
0000
0000
,
0000
0000
0000
0000
,
0000
0000
0000
0000
,
0000
0000
0000
0000
,
1000
0000
0000
0000
,
0000
0000
0000
0000
,
0001
0000
0000
0000
,
0000
0000
0000
0000
,
2002
0000
0000
0000
,
3003
0000
0000
0000
,
0000
0000
0000
0000
,
0000
0000
1000
0000
,
1000
0000
0000
0000
,
0010
0000
0010
0000
,
0010
0000
0000
0000
,
0100
0000
0100
0000
,
0100
0000
0000
0000
,
0001
0000
0001
0000
,
0001
0000
0000
0000
,
1000
0000
0000
0000
,
0100
0000
0000
0000
,
0100
0000
0000
0000
,
0100
0000
0000
0000
,
0000
0000
0000
0000
,
0010
0000
0000
0000
,
0010
0000
0000
0000
,
0010
0000
0000
0000
,
0001
0000
0000
0000
,
1000
0000
1000
0000
,
1000
0000
0000
0000
,
0001
0000
0001
0000
,
0001
0000
0000
0000
,
0100
0000
0100
0000
,
0100
0000
0000
0000
,
0020
0000
0000
0000
,
0030
0000
0000
0000
,
1000
0000
0000
0000
,
1000
0000
0000
0000
,
0100
0000
0000
0000
,
0100
0000
0000
0000
,
0001
0000
0000
0000
,
0001
0000
0000
0000
,
0010
0000
0000
0000
,
0010
0000
0000
0000
,
0001
0000
0000
0000
,
0001
0000
0000
0000
,
0100
0000
0000
0000
,
0100
0000
0000
0000
,
1000
0000
0000
0000
,
1000
0000
0000
0000
,
0010
0000
0000
0000
,
0100
0000
0000
0000
,
0001
0000
0000
0000
,
1000
0000
0000
0000
,
2002
0000
0000
0000
,
3003
0000
0000
0000
,
1000
0000
1000
0000
,
1000
0000
0000
0000
,
0100
0000
0000
0000
,
0010
0000
0000
0000
,
0001
0000
0001
0000
,
0001
0000
0001
0000
,
0002
0000
0000
0000
,
0003
0000
0000
0000
,
0001
0000
0001
0000
,
0001
0000
0000
0000
,
0100
0000
0000
0000
,
0010
0000
0000
0000
,
1000
0000
1000
0000
,
1000
0000
1000
0000
,
1000
0000
0000
0000
,
0001
0000
0000
0000
,
0010
0000
0000
0000
,
0010
0000
0000
0000
,
0010
0000
0010
0000
,
0010
0000
0000
0000
,
0100
0000
0100
0000
,
0100
0000
0100
0000
,
0200
0000
0000
0000
,
0300
0000
0000
0000
,
1000
0000
0000
0000
,
0001
0000
0000
0000
,
1000
0000
1000
0000
,
1000
0000
0000
0000
,
0001
0000
0001
0000
,
0001
0000
0000
0000
,
1000
0000
1000
0000
,
1000
0000
0000
0000
,
2002
0000
0000
0000
,
3003
0000
0000
0000
,
0010
0000
0000
0000
,
0000
0000
0000
0000
,
0010
0000
0000
0000
,
0000
0000
0000
0000
,
1000
0000
0000
0000
,
0001
0000
0000
0000
,
1001
0000
0000
0000
,
1001
0000
0000
0000
,
2000
0000
3000
0000
,
0200
0000
0300
0000
,
2000
0000
3000
0000
,
1000
0000
0000
0000
,
0010
0000
0010
0000
,
0010
0000
0000
0000
,
1000
0000
1000
0000
,
1000
0000
0000
0000
,
0002
0000
0003
0000
,
0200
0000
0300
0000
,
0002
0000
0003
0000
,
0001
0000
0000
0000
,
2002
0000
0000
0000
,
3003
0000
0000
0000
,
0001
0000
0000
0000
,
1000
0000
0000
0000
,
0001
0000
0000
0000
,
1000
0000
0000
0000
,
0100
0000
0000
0000
,
0010
0000
0000
0000
,
0100
0000
0000
0000
,
0010
0000
0000
0000
,
0001
0000
0001
0000
,
0001
0000
0000
0000
,
0100
0000
0100
0000
,
0100
0000
0000
0000
,
0010
0000
0010
0000
,
0010
0000
0000
0000
,
1000
0000
1000
0000
,
1000
0000
0000
0000
,
0100
0000
0000
0000
;
