#VERSION:0.83;
#TITLE:龍と少女とデコヒーレンス;
#SUBTITLE:;
#ARTIST:黒猫ダンジョン;
#TITLETRANSLIT:Ryuu to shoujo to decoherence;
#SUBTITLETRANSLIT:;
#ARTISTTRANSLIT:Kuroneko Dungeon;
#GENRE:Epic Techno;
#ORIGIN:;
#CREDIT:;
#BANNER:Ryuu to shoujo to decoherence.png;
#BACKGROUND:Ryuu to shoujo to decoherence-bg.png;
#PREVIEWVID:;
#JACKET:Ryuu to shoujo to decoherence-jacket.png;
#CDIMAGE:;
#DISCIMAGE:;
#LYRICSPATH:;
#CDTITLE:cdtitle.png;
#MUSIC:Ryuu to shoujo to decoherence.ogg;
#OFFSET:1.307655;
#SAMPLESTART:93.238800;
#SAMPLELENGTH:11.636368;
#SELECTABLE:YES;
#BPMS:0.000=165.000,
132.000=82.500,
148.000=165.000,
180.000=41.250,
188.000=82.500,
204.000=165.000,
268.000=41.250;
#STOPS:;
#DELAYS:;
#WARPS:;
#TIMESIGNATURES:0.000=4=4;
#TICKCOUNTS:0.000=4;
#COMBOS:0.000=1;
#SPEEDS:0.000=1.000=0.000=0;
#SCROLLS:0.000=1.000;
#FAKES:;
#LABELS:0.000=Song Start;
#BGCHANGES:0.688=Ryuu to shoujo to decoherence.avi=1.000=1=0=0=StretchNoLoop==CrossFade==,
99999=-nosongbg-=1.000=0=0=0 // don't automatically add -songbackground-
;
#KEYSOUNDS:;
#ATTACKS:
;

//---------------dance-single - ----------------
#NOTEDATA:;
#CHARTNAME:;
#STEPSTYPE:dance-single;
#DESCRIPTION:;
#CHARTSTYLE:;
#DIFFICULTY:Challenge;
#METER:15;
#RADARVALUES:0.632344,0.818473,0.148590,0.164231,0.641281,566.000000,547.000000,19.000000,21.000000,4.000000,0.000000,0.000000,0.000000,0.000000,0.632344,0.818473,0.148590,0.164231,0.641281,566.000000,547.000000,19.000000,21.000000,4.000000,0.000000,0.000000,0.000000,0.000000;
#CREDIT:;
#OFFSET:1.307655;
#BPMS:0.000000=165.000000
,132.000000=82.500000
,148.000000=165.000000
,180.000000=41.250000
,188.000000=82.500000
,204.000000=165.000000
,268.000000=41.250000
;
#STOPS:;
#DELAYS:;
#WARPS:;
#TIMESIGNATURES:0.000000=4=4
;
#TICKCOUNTS:0.000000=4
;
#COMBOS:0.000000=1
;
#SPEEDS:0.000000=1.000000=0.000000=0
;
#SCROLLS:0.000000=1.000000
,200.000000=1.500000
,204.000000=1.000000
;
#FAKES:;
#LABELS:0.000000=Song Start
;
#NOTES:
// measure 0
0000
0000
0000
0000
,  // measure 1
0000
0000
0000
0000
,  // measure 2
0000
0000
0000
0000
,  // measure 3
0000
0000
0000
0000
,  // measure 4
0000
0000
0000
0000
,  // measure 5
1000
0010
1000
0000
0001
0000
1000
0000
0001
0010
0001
0000
1000
0000
0001
0000
,  // measure 6
0100
0001
0100
0000
0001
0000
1000
0000
0100
1000
0100
0000
1000
0000
0001
0000
,  // measure 7
0100
0010
0100
0000
0010
0000
1000
0000
0100
0010
0100
0000
0010
0000
0001
0000
,  // measure 8
1000
0010
1000
0000
0010
0000
0100
0000
0001
0010
0001
0000
0010
0000
0100
0000
,  // measure 9
2100
0001
0000
0001
,  // measure 10
0000
0001
0000
0001
,  // measure 11
0000
0001
0000
0001
,  // measure 12
0000
0001
0000
3001
,  // measure 13
0102
1000
0000
1003
,  // measure 14
2100
0001
0000
3001
,  // measure 15
0102
1003
2100
3001
,  // measure 16
1000
0000
0001
0000
1000
0000
0001
0000
1000
0001
1000
0001
1000
0000
0000
0000
,  // measure 17
0001
0000
0010
0001
1000
0000
0001
0100
0001
0100
0000
0001
1000
0000
0001
0000
,  // measure 18
0010
0000
0100
0010
0001
0000
1000
0010
1000
0010
0000
1000
0001
0000
1000
0000
,  // measure 19
0100
0000
0010
0001
0100
0000
0010
1000
0010
1000
0000
0001
1000
0000
0100
0000
,  // measure 20
0010
0000
0100
1000
0010
0000
0100
0001
0100
0001
0000
1000
0001
0000
0010
0000
,  // measure 21
0100
0000
1000
0010
0100
0000
0001
0010
0001
0010
0000
0001
1000
0000
0001
0000
,  // measure 22
0100
0000
0010
1000
0001
0000
1000
0100
1000
0100
0000
1000
0001
0000
0100
0000
,  // measure 23
0010
0000
0100
0001
0010
0000
0100
1000
0100
1000
0000
0001
0100
0000
0010
0000
,  // measure 24
1000
0000
0100
1000
0010
0000
0100
0001
0100
0001
0000
1000
0100
0000
0010
0000
,  // measure 25
0001
0000
0100
0000
0010
0000
0100
0001
0000
0001
0100
0010
1000
0000
0001
0000
,  // measure 26
1000
0000
0100
0000
0010
0000
0100
1000
0000
1000
0100
0010
0001
0000
1000
0000
,  // measure 27
0010
0000
0100
0000
0010
0000
1000
0100
0000
0100
0010
0001
1000
0000
0001
0000
,  // measure 28
0010
0000
0100
0000
0010
0000
0001
0100
0000
0100
0010
1000
0001
0000
0100
0000
,  // measure 29
1000
0000
0100
0000
0001
0000
0010
0100
0000
0100
1000
0010
1000
0000
0100
0000
,  // measure 30
0001
0000
0100
0000
1000
0000
0010
0100
0000
0100
0001
0010
0001
0000
1000
0000
,  // measure 31
0010
0000
0001
0000
0010
0000
1000
0001
0000
0001
1000
0100
0010
0000
0001
0000
,  // measure 32
0010
0000
1000
0000
0010
0000
0001
1000
0000
1000
0001
0100
0010
0000
1000
0000
,  // measure 33
2001
0010
0000
0010
0000
0010
0000
0010
,  // measure 34
3002
0010
0000
0010
0000
0010
0000
0010
,  // measure 35
2003
0100
0000
0100
0000
0100
0000
0100
,  // measure 36
3002
0100
0000
0100
0000
0100
0000
0103
,  // measure 37
0101
0000
0100
0000
0001
0000
1000
0000
0001
0010
0001
0000
1000
0000
0001
0000
,  // measure 38
0100
0001
0100
0000
0001
0000
1000
0000
0001
0010
0001
0000
1000
0000
0010
0000
,  // measure 39
1000
0100
1000
0000
0001
0000
1000
0000
0010
1000
0010
0000
1000
0000
0001
0000
,  // measure 40
1000
0100
1000
0000
0001
0000
1000
0000
0010
1000
0010
0000
1000
0000
0001
0000
,  // measure 41
0010
0100
0010
0000
0100
0000
1000
0000
0100
0010
0100
0000
0010
0000
0001
0000
,  // measure 42
0100
0010
0100
0000
0010
0000
1000
0000
0010
0100
0010
0000
0100
0000
0001
0000
,  // measure 43
1000
0100
1000
0000
0100
0000
1000
0000
0001
0100
0001
0000
0100
0000
0001
0000
,  // measure 44
1000
0010
1000
0000
0010
0000
1000
0000
0001
0010
0001
0000
0010
0000
0001
0000
,  // measure 45
2001
0000
3200
0000
,  // measure 46
0320
0000
0000
0000
0000
0000
0000
0000
0032
0000
0000
0000
0000
0000
0000
0003
,  // measure 47
0201
0000
0010
0301
,  // measure 48
1200
0000
0010
1300
,  // measure 49
2001
0000
0100
3010
,  // measure 50
1002
0100
0100
0100
1000
1000
0010
0013
,  // measure 51
0011
0000
0000
0000
0001
0010
0001
0010
0001
1000
0001
1000
0001
0100
0010
1000
,  // measure 52
0002
0100
0103
0101
,  // measure 53
1100
0000
0000
0000
1000
0010
1000
0010
1000
0001
1000
0001
1000
0100
0010
0001
,  // measure 54
2000
0100
3100
1100
,  // measure 55
0101
0000
0000
0000
0001
0100
0001
0100
0001
1000
0001
1000
0001
0010
0100
1000
,  // measure 56
0002
0010
0013
1100
,  // measure 57
0101
0000
0000
0000
1000
0100
1000
0100
1000
0001
1000
0001
1000
0010
0100
0001
,  // measure 58
1000
0100
1000
0100
0010
0100
0010
0100
0010
0001
0010
0001
1000
0100
0010
0001
,  // measure 59
1000
0000
0000
0000
0001
0100
0001
0100
0010
1000
0010
1000
0001
0100
0010
1000
,  // measure 60
0001
0000
0001
0010
0001
0000
0001
0010
0001
1000
0001
1000
0001
0100
0001
1000
,  // measure 61
0100
0000
0000
0000
1000
0100
1000
0100
0010
0001
0010
0001
1000
0100
0010
0001
,  // measure 62
1000
0000
1000
0010
1000
0000
1000
0010
1000
0001
1000
0001
1000
0100
1000
0001
,  // measure 63
0100
0000
0000
0000
0001
1000
0001
1000
0100
0010
0100
0010
0001
0100
0010
1000
,  // measure 64
0001
0000
0001
1000
0001
0000
0001
1000
0100
0010
0100
0010
0001
1000
0100
1000
,  // measure 65
0001
0000
0000
0000
1000
0001
1000
0001
0100
0010
0100
0010
1000
0001
0010
0100
,  // measure 66
0010
0001
0010
0001
1000
0010
1000
0010
0100
0001
0100
0001
1000
0001
0100
0001
,  // measure 67
0020
0000
0000
0000
0000
0000
0000
0000
0000
0000
0000
0000
0000
0000
0000
0000
0000
0000
0000
0000
0000
0000
0000
0000
MM3M
00M0
0000
0000
0000
0000
0000
0000
0000
0000
0000
0000
0000
0000
0000
0000
0000
0000
0000
0000
0000
0000
0000
0000
;

//---------------dance-single - ----------------
#NOTEDATA:;
#CHARTNAME:;
#STEPSTYPE:dance-single;
#DESCRIPTION:;
#CHARTSTYLE:;
#DIFFICULTY:Hard;
#METER:12;
#RADARVALUES:0.441300,0.527884,0.351923,0.179872,0.117308,395.000000,350.000000,45.000000,23.000000,0.000000,0.000000,0.000000,0.000000,0.000000,0.441300,0.527884,0.351923,0.179872,0.117308,395.000000,350.000000,45.000000,23.000000,0.000000,0.000000,0.000000,0.000000,0.000000;
#CREDIT:;
#OFFSET:1.307655;
#BPMS:0.000000=165.000000
,132.000000=82.500000
,148.000000=165.000000
,180.000000=41.250000
,188.000000=82.500000
,204.000000=165.000000
,268.000000=41.250000
;
#STOPS:;
#DELAYS:;
#WARPS:;
#TIMESIGNATURES:0.000000=4=4
;
#TICKCOUNTS:0.000000=4
;
#COMBOS:0.000000=1
;
#SPEEDS:0.000000=1.000000=0.000000=0
;
#SCROLLS:0.000000=1.000000
,200.000000=1.500000
,204.000000=1.000000
;
#FAKES:;
#LABELS:0.000000=Song Start
;
#NOTES:
0000
0000
0000
0000
,
0000
0000
0000
0000
,
0000
0000
0000
0000
,
0000
0000
0000
0000
,
0000
0000
0000
0000
,
0010
0001
0100
0000
0001
0100
1000
0000
,
1000
0100
0001
0000
0100
0001
0010
0000
,
0100
1000
0010
0000
1000
0010
0001
0000
,
0001
0010
1000
0000
0010
1000
0100
0000
,
1002
0010
0000
0010
,
0000
0010
0000
0010
,
0000
0010
0000
0010
,
0000
0010
0000
0013
,
2001
0010
0000
3010
,
1002
0010
0000
0013
,
2001
3010
1002
0013
,
0001
1000
0001
1000
0002
0000
1003
0000
,
0001
0000
0010
0000
0110
0000
0000
0000
0010
0001
0000
0001
1000
0000
0000
0000
,
1000
0000
0010
0000
0110
0000
0000
0000
0010
1000
0000
1000
0001
0000
0000
0000
,
1000
0000
0100
0000
0110
0000
0000
0000
0100
1000
0000
1000
0001
0000
0000
0000
,
0001
0000
0100
0000
0110
0000
0000
0000
0100
0001
0000
0001
1000
0000
0000
0000
,
0001
0000
0010
0000
1100
0000
0000
0000
1000
0100
0000
1000
0001
0000
0000
0000
,
1000
0000
0010
0000
0101
0000
0000
0000
0001
0100
0000
0001
1000
0000
0000
0000
,
1000
0000
0100
0000
0011
0000
0000
0000
0010
0001
0000
0100
0001
0000
0000
0000
,
0001
0000
0100
0000
1010
0000
0000
0000
0010
1000
0000
0100
1000
0000
0000
0000
,
0001
0000
0100
0000
0010
0000
0100
0001
0000
0000
0001
0000
0101
0000
0000
0000
,
1000
0000
0010
0000
0100
0000
0010
1000
0000
0000
1000
0000
1010
0000
0000
0000
,
0001
0000
0010
0000
0100
0000
0010
0001
0000
0000
0001
0000
0011
0000
0000
0000
,
1000
0000
0100
0000
0010
0000
0100
1000
0000
0000
1000
0000
1100
0000
0000
0000
,
0001
0000
0100
0000
1000
0000
0100
0001
0000
0000
0001
0000
0101
0000
0000
0000
,
1000
0000
0100
0000
0001
0000
0100
1000
0000
0000
1000
0000
1100
0000
0000
0000
,
0001
0000
0010
0000
1000
0000
0010
0001
0000
0000
0001
0000
0011
0000
0000
0000
,
1000
0000
0010
0000
0001
0000
0010
1000
0000
0000
1000
0000
1010
0000
0000
0000
,
0002
0010
0000
0010
0000
0010
0000
0010
,
2003
0010
0000
0010
0000
0010
0000
0010
,
3002
0100
0000
0100
0000
0100
0000
0100
,
2003
0100
0000
0100
0000
0100
0000
0100
,
3001
1000
0000
1100
0000
0001
0000
0101
,
0000
0010
0000
1000
0000
0100
0000
0001
,
0000
0010
0000
1100
0000
0010
0000
0101
,
0000
1000
0000
0100
0000
0001
0000
0010
,
0000
1000
0000
1100
0000
0001
0000
0101
,
0000
0010
0000
1000
0000
0100
0000
0001
,
0000
0010
0000
1100
0000
0010
0000
0101
,
0000
1000
0000
0100
0000
0001
0000
0010
,
2000
0000
3200
0000
,
0320
0000
0000
0000
0000
0000
0000
0000
0032
0000
0000
0000
0000
0000
0000
0003
,
0201
0000
0010
0301
,
1200
0000
0010
1300
,
1002
0000
0100
0013
,
2001
0100
0100
0100
0001
0001
0010
3010
,
1010
0000
1000
0010
0001
1000
0100
0010
,
2000
0010
3010
1010
,
0011
0000
0001
0010
1000
0001
0100
0010
,
0002
0010
0013
0011
,
1010
0000
0001
0100
1000
0001
0010
0100
,
0002
0100
0103
0101
,
1100
0000
1000
0100
0001
1000
0010
0100
,
1000
0001
0100
0010
0001
1000
0100
0001
,
1001
0000
0001
0010
1000
0001
0100
0010
,
0001
0000
0010
0001
0010
0000
0001
0010
0001
0000
1000
0000
0010
0000
0100
0000
,
0101
0000
1000
0010
0001
1000
0100
0010
,
1000
0000
0010
1000
0010
0000
1000
0010
1000
0000
0001
0000
0010
0000
0100
0000
,
1100
0000
1000
0100
0001
1000
0010
0100
,
1000
0000
0001
1000
0001
0000
1000
0001
1000
0000
0010
0000
0100
0000
0001
0000
,
1001
0000
0001
0100
1000
0001
0010
0100
,
0001
1000
0100
0010
1000
0001
0100
1000
,
2200
0000
3300
0000
;

//---------------dance-single - ----------------
#NOTEDATA:;
#CHARTNAME:;
#STEPSTYPE:dance-single;
#DESCRIPTION:;
#CHARTSTYLE:;
#DIFFICULTY:Medium;
#METER:10;
#RADARVALUES:0.385439,0.461996,0.312820,0.164231,0.000000,345.000000,305.000000,40.000000,21.000000,0.000000,0.000000,0.000000,0.000000,0.000000,0.385439,0.461996,0.312820,0.164231,0.000000,345.000000,305.000000,40.000000,21.000000,0.000000,0.000000,0.000000,0.000000,0.000000;
#CREDIT:;
#OFFSET:1.307655;
#BPMS:0.000000=165.000000
,132.000000=82.500000
,148.000000=165.000000
,180.000000=82.500000
,212.000000=165.000000
,276.000000=41.250000
;
#STOPS:;
#DELAYS:;
#WARPS:;
#TIMESIGNATURES:0.000000=4=4
;
#TICKCOUNTS:0.000000=4
;
#COMBOS:0.000000=1
;
#SPEEDS:0.000000=1.000000=0.000000=0
;
#SCROLLS:0.000000=1.000000
,196.000000=1.330000
,208.000000=1.660000
,212.000000=1.000000
;
#FAKES:;
#LABELS:0.000000=Song Start
;
#NOTES:
0000
0000
0000
0000
,
0000
0000
0000
0000
,
0000
0000
0000
0000
,
0000
0000
0000
0000
,
0000
0000
0000
0000
,
1000
1100
0001
0101
,
1000
1010
0001
0011
,
1000
0101
0010
1100
,
0001
1010
0100
0011
,
1002
0100
0000
0100
,
0000
0100
0000
0100
,
0000
0100
0000
0100
,
0000
0100
0000
0103
,
2001
0100
0000
3100
,
1002
0100
0000
0103
,
2001
3100
1002
0103
,
0001
1000
0001
1000
0002
0000
1003
0000
,
0001
0000
0101
0000
1000
0001
0100
0000
,
0001
0000
1100
0000
0001
1000
0100
0000
,
0010
0000
0011
0000
1000
0001
0010
0000
,
0001
0000
1010
0000
0001
1000
0010
0000
,
0100
0000
0101
0000
0010
1000
0100
0000
,
1000
0000
1100
0000
0010
0001
0100
0000
,
0001
0000
0011
0000
0100
1000
0010
0000
,
1000
0000
1010
0000
0100
0001
0010
0000
,
0001
0010
0001
0010
0001
0000
1100
0000
,
1000
0010
1000
0010
1000
0000
0101
0000
,
1000
0100
1000
0100
1000
0000
0011
0000
,
0001
0100
0001
0100
0001
0000
1010
0000
,
0001
0100
0010
0100
0001
0000
1001
0000
,
1000
0100
0010
0100
1000
0000
1001
0000
,
0001
0100
0010
1000
0001
0000
0101
0000
,
1000
0100
0010
0001
1000
0000
1100
0000
,
0002
0100
0000
0100
0000
0100
0000
0100
,
2003
0100
0000
0100
0000
0100
0000
0100
,
3002
0010
0000
0010
0000
0010
0000
0010
,
2003
0010
0000
0010
0000
0010
0000
0010
,
3001
0100
0000
0100
0000
1000
0000
1000
,
0000
0010
0000
0010
0000
0001
0000
0001
,
0000
0100
0000
0100
0000
1000
0000
1000
,
0000
0010
0000
0010
0000
0001
0000
0001
,
0000
1000
0000
1000
0000
0100
0000
0100
,
0000
0001
0000
0001
0000
0010
0000
0010
,
0000
1000
0000
1000
0000
0100
0000
0100
,
0000
0001
0000
0001
0000
0010
0000
0010
,
2000
0000
0000
0000
,
3200
0000
0000
0000
,
0320
0000
0000
0000
,
0032
0000
0000
0000
0000
0000
0000
0003
,
0201
0000
0010
0301
,
1200
0000
0010
1300
,
2001
0000
0010
3001
,
1000
0100
1000
0100
0010
0001
0100
0010
,
1001
0000
1000
0010
1000
0010
1000
0001
,
0020
0001
0031
0011
,
1100
0000
0001
0010
0001
0010
0001
1000
,
0020
1000
1030
1010
,
0101
0000
1000
0100
1000
0100
1000
0001
,
0200
0001
0301
0101
,
1010
0000
0001
0100
0001
0100
0010
1000
,
0100
1000
0100
0010
0001
0100
0001
0000
,
1001
0000
1000
0010
1000
0001
0010
0001
,
1000
0000
1000
0000
1000
0010
1000
0010
,
0100
0000
0001
0010
0001
1000
0010
1000
,
0001
0000
0001
0000
0001
0010
0001
0010
,
0100
0000
1000
0100
1000
0001
0100
0001
,
1000
0000
1000
0000
1000
0100
1000
0100
,
0010
0000
0001
0100
0001
1000
0100
1000
,
0001
0100
0001
0100
0010
1000
0010
1000
,
0200
0000
0300
0000
;

//---------------dance-single - ----------------
#NOTEDATA:;
#CHARTNAME:;
#STEPSTYPE:dance-single;
#DESCRIPTION:;
#CHARTSTYLE:;
#DIFFICULTY:Easy;
#METER:6;
#RADARVALUES:0.278187,0.326115,0.250256,0.203333,0.000000,249.000000,217.000000,32.000000,26.000000,0.000000,0.000000,0.000000,0.000000,0.000000,0.278187,0.326115,0.250256,0.203333,0.000000,249.000000,217.000000,32.000000,26.000000,0.000000,0.000000,0.000000,0.000000,0.000000;
#CREDIT:;
#OFFSET:1.307655;
#BPMS:0.000000=165.000000
,132.000000=82.500000
,148.000000=165.000000
,180.000000=82.500000
,212.000000=165.000000
,276.000000=41.250000
;
#STOPS:;
#DELAYS:;
#WARPS:;
#TIMESIGNATURES:0.000000=4=4
;
#TICKCOUNTS:0.000000=4
;
#COMBOS:0.000000=1
;
#SPEEDS:0.000000=1.000000=0.000000=0
;
#SCROLLS:0.000000=1.000000
,196.000000=1.330000
,208.000000=1.660000
,212.000000=1.000000
;
#FAKES:;
#LABELS:0.000000=Song Start
;
#NOTES:
0000
0000
0000
0000
,
0000
0000
0000
0000
,
0000
0000
0000
0000
,
0000
0000
0000
0000
,
0000
0000
0000
0000
,
1000
0010
0010
0100
,
0100
0001
0001
0010
,
0010
0100
0100
1000
,
1000
0001
0001
0100
,
2001
0100
0000
0100
,
0000
0100
0000
0100
,
0000
0100
0000
0100
,
0000
0100
0000
3100
,
1002
0100
0000
0103
,
2001
0100
0000
3100
,
2002
3003
0220
0330
,
1001
1001
2002
3003
,
0001
0010
0100
0010
,
0001
0100
0010
0100
,
0001
0010
0100
0010
,
0001
0100
0010
1000
,
0100
0010
0100
1000
,
0010
0100
0010
1000
,
0100
0010
0100
1000
,
0010
0100
0001
0010
,
0001
0001
0010
0011
,
1000
1000
0010
1010
,
0001
0001
0100
0101
,
1000
1000
0100
1100
,
0001
0010
0001
0011
,
1000
0010
1000
1010
,
0001
0100
0001
0101
,
1000
0100
1000
1100
,
0002
0000
0000
0000
,
0023
0000
0000
0000
,
0230
0000
0000
0000
,
2300
0000
0000
0000
,
3001
0001
0100
0100
,
0010
0010
1000
1000
,
0001
0001
0010
0010
,
0100
0100
1000
1000
,
0010
0010
1000
1000
,
0001
0001
0010
0010
,
0100
0100
1000
1000
,
0001
0001
0100
0100
,
0020
0000
0000
0000
,
2030
0000
0000
0000
,
3002
0000
0000
0000
,
0023
0000
0000
0000
0000
0000
0000
0030
,
2100
0000
0001
3001
,
0102
0000
1000
1003
,
2001
0000
0100
3010
,
1002
0000
0010
0103
,
1001
1000
0010
0001
,
0020
1000
1030
1010
,
0101
0001
0010
1000
,
0020
0001
0031
0011
,
1100
0001
0100
1000
,
0200
0001
0301
0101
,
1010
1000
0100
0001
,
1000
0010
0001
0100
,
0110
1000
0010
0001
,
0010
0010
1000
0100
,
1100
0001
0010
1000
,
0010
0010
0001
0100
,
0101
1000
0100
0001
,
0100
0100
1000
0010
,
1010
0001
0100
1000
,
0001
0010
1000
0100
,
0220
0000
0330
0000
;

//---------------dance-single - ----------------
#NOTEDATA:;
#CHARTNAME:;
#STEPSTYPE:dance-single;
#DESCRIPTION:;
#CHARTSTYLE:;
#DIFFICULTY:Beginner;
#METER:3;
#RADARVALUES:0.168699,0.348403,0.101667,0.125128,0.000000,151.000000,138.000000,13.000000,16.000000,0.000000,0.000000,0.000000,0.000000,0.000000,0.168699,0.348403,0.101667,0.125128,0.000000,151.000000,138.000000,13.000000,16.000000,0.000000,0.000000,0.000000,0.000000,0.000000;
#CREDIT:;
#OFFSET:1.307655;
#BPMS:0.000000=165.000000
;
#STOPS:;
#DELAYS:;
#WARPS:;
#TIMESIGNATURES:0.000000=4=4
;
#TICKCOUNTS:0.000000=4
;
#COMBOS:0.000000=1
;
#SPEEDS:0.000000=1.000000=0.000000=0
;
#SCROLLS:0.000000=1.000000
;
#FAKES:;
#LABELS:0.000000=Song Start
;
#NOTES:
0000
0000
0000
0000
,
0000
0000
0000
0000
,
0000
0000
0000
0000
,
0000
0000
0000
0000
,
0000
0000
0000
0000
,
1000
0000
0100
0000
,
0010
0000
0001
0000
,
1000
0000
0010
0000
,
0100
0000
0001
0000
,
1001
0000
0000
0000
,
0000
0000
0000
0000
,
0000
0000
0000
0000
,
0000
0000
0000
0000
,
1001
0000
0000
0000
,
1001
0000
0000
0000
,
1001
0000
1001
0000
,
1001
1001
1001
0000
,
0001
0001
0001
0000
,
0010
0010
0010
0000
,
0100
0100
0100
0000
,
1000
1000
1000
0000
,
0010
0010
0010
0000
,
0100
0100
0100
0000
,
0001
0001
0001
0000
,
1000
1000
1000
0000
,
0001
0010
0001
0000
,
0010
0001
0010
0000
,
0001
0100
0001
0000
,
0100
0001
0100
0000
,
0010
1000
0010
0000
,
1000
0010
1000
0000
,
0100
1000
0100
0000
,
1000
0100
1000
0000
,
0002
0000
0000
0000
,
0003
0000
0000
0000
,
0200
0000
0000
0000
,
0300
0000
0000
0000
,
0020
0000
0000
0000
,
0030
0000
0000
0000
,
2000
0000
0000
0000
,
3000
0000
0000
0000
,
0001
0000
0010
0000
,
1000
0000
0010
0000
,
0001
0000
0010
0000
,
1000
0000
0010
0000
,
0001
0000
0100
0000
,
1000
0000
0100
0000
,
0001
0000
0100
0000
,
1000
0000
0100
0000
,
0002
0000
0000
0000
,
0003
0000
0000
0000
,
0020
0000
0000
0000
,
0030
0000
0000
0000
,
0200
0000
0000
0000
,
0300
0000
0000
0000
,
2000
0000
0000
0000
,
3000
0000
0000
0000
,
2002
0000
0000
0000
,
3003
0000
0000
0000
,
0220
0000
0000
0000
,
0330
0000
0000
0000
,
2002
0000
0000
0000
,
3003
0000
0000
0000
,
0220
0000
0000
0000
,
0330
0000
0000
0000
,
0001
0010
0010
0010
,
0001
0000
0000
0000
,
1000
0010
0010
0010
,
1000
0000
0000
0000
,
0001
0100
0100
0100
,
0001
0000
0000
0000
,
1000
0100
0100
0100
,
1000
0000
0001
0000
,
1000
0010
1000
0010
,
1000
0000
1000
0000
,
0001
0010
0001
0010
,
0001
0000
0001
0000
,
1000
0100
1000
0100
,
1000
0000
1000
0000
,
0001
0100
0001
0100
,
0001
0000
0010
0000
,
1001
0000
0000
0000
;
