#VERSION:0.83;
#TITLE:リリリピート;
#SUBTITLE:;
#ARTIST:フレデリック;
#TITLETRANSLIT:Rererepeat;
#SUBTITLETRANSLIT:;
#ARTISTTRANSLIT:frederic;
#GENRE:J-Rock;
#ORIGIN:;
#CREDIT:;
#BANNER:Rererepeat.png;
#BACKGROUND:Rererepeat-bg.png;
#PREVIEWVID:;
#JACKET:Rererepeat-jacket.png;
#CDIMAGE:;
#DISCIMAGE:;
#LYRICSPATH:;
#CDTITLE:cdtitle.png;
#MUSIC:Rererepeat.ogg;
#OFFSET:0.013855;
#SAMPLESTART:43.652813;
#SAMPLELENGTH:10.646664;
#SELECTABLE:YES;
#BPMS:0.000=180.000;
#STOPS:280.000=1.000;
#DELAYS:;
#WARPS:;
#TIMESIGNATURES:0.000=4=4;
#TICKCOUNTS:0.000=4;
#COMBOS:0.000=1;
#SPEEDS:0.000=1.000=0.000=0;
#SCROLLS:0.000=1.000;
#FAKES:;
#LABELS:0.000=Song Start;
#BGCHANGES:;
#KEYSOUNDS:;
#ATTACKS:
;

//---------------dance-single - ----------------
#NOTEDATA:;
#CHARTNAME:;
#STEPSTYPE:dance-single;
#DESCRIPTION:;
#CHARTSTYLE:;
#DIFFICULTY:Challenge;
#METER:13;
#RADARVALUES:0.662237,0.655814,0.503876,0.317829,0.011628,598.000000,533.000000,65.000000,41.000000,10.000000,0.000000,0.000000,0.000000,0.000000,0.662237,0.655814,0.503876,0.317829,0.011628,598.000000,533.000000,65.000000,41.000000,10.000000,0.000000,0.000000,0.000000,0.000000;
#CREDIT:;
#NOTES:
// measure 0
0000
0000
0000
0000
,  // measure 1
0000
0000
0000
0000
,  // measure 2
0000
0000
0000
0000
,  // measure 3
0000
0000
0000
0000
,  // measure 4
0000
0000
0000
0000
,  // measure 5
0001
0000
0001
0010
0001
0000
0100
0000
,  // measure 6
0001
0000
0100
0001
0010
0001
0100
0001
,  // measure 7
1000
0000
1000
0010
1000
0000
0100
0000
,  // measure 8
0011
1010
0011
MMMM
,  // measure 9
0001
0010
0001
0010
0001
0100
0010
0002
,  // measure 10
0000
0013
0001
0010
0100
0001
0200
0001
,  // measure 11
0301
0000
0011
0000
2010
0000
0001
3001
,  // measure 12
0000
0001
0011
0000
2010
0000
3001
0001
,  // measure 13
1000
0010
1000
0010
1000
0100
0010
2000
,  // measure 14
0000
3010
1000
0010
0100
1000
0200
1000
,  // measure 15
1300
0000
1010
0000
0012
0000
0103
0001
,  // measure 16
0110
0000
1010
0000
0012
0000
1003
0010
,  // measure 17
1000
0000
0100
1000
0001
1000
0010
1000
,  // measure 18
0001
0010
0001
0010
0100
0001
0100
0010
,  // measure 19
0001
0100
0010
0000
1000
0010
1000
0100
,  // measure 20
0000
1000
0010
0000
1000
0010
1000
0100
,  // measure 21
0010
0000
0010
0002
0000
1003
0010
0000
,  // measure 22
0100
0001
0100
0001
1000
0100
0001
0100
,  // measure 23
1000
0010
0100
0000
0010
1000
0100
0020
,  // measure 24
0000
0031
0100
0020
0000
1030
0100
0010
,  // measure 25
0001
0000
0100
0001
1000
0001
0010
0001
,  // measure 26
1000
0010
1000
0010
0100
1000
0100
0010
,  // measure 27
2000
0000
3001
0010
0001
0010
0100
0002
,  // measure 28
0000
0103
0010
0000
0010
0001
1000
0010
,  // measure 29
0001
0000
1000
0010
0001
0000
1000
0010
,  // measure 30
0001
0000
1000
0010
0001
0000
1000
0010
,  // measure 31
0001
0000
1000
0010
0001
0000
1000
2010
,  // measure 32
0000
0001
3001
0000
1001
0000
1001
0010
,  // measure 33
0001
0100
0000
1001
0000
1000
0001
0010
,  // measure 34
0001
0100
0000
1001
0000
1000
0001
0010
,  // measure 35
0001
0100
0000
1001
0000
0001
0010
0100
,  // measure 36
0010
0100
0010
0100
0010
0001
1000
0010
,  // measure 37
1000
0100
0000
1001
0000
0001
1000
0010
,  // measure 38
1000
0100
0000
1001
0000
0001
1000
0010
,  // measure 39
1000
0100
0000
1001
0000
1000
0010
0100
,  // measure 40
0010
0000
0001
0000
0010
0000
0100
0000
0020
0000
0000
0000
1030
0000
0001
0010
,  // measure 41
0001
0010
0001
0101
0000
0011
0000
2010
,  // measure 42
0000
3100
1100
0000
0101
0000
1000
0100
,  // measure 43
0120
0000
0031
0100
0010
0100
1000
0100
,  // measure 44
0001
0010
1000
0010
0100
0000
0022
0000
,  // measure 45
0033
0000
0011
0000
0010
0001
1000
0000
,  // measure 46
0010
1000
0001
0000
0010
0001
1000
2010
,  // measure 47
0000
3010
0100
0010
1000
0010
0001
0010
,  // measure 48
1000
1000
0100
0100
0010
0001
000M
0000
,  // measure 49
0001
0010
0010
0001
0100
0000
1000
0100
,  // measure 50
0000
0100
0001
0000
1000
0010
0010
1000
,  // measure 51
0100
0000
0001
0100
0000
0100
1000
0000
,  // measure 52
0001
0010
0010
0001
0100
0000
1000
0100
,  // measure 53
0000
0100
0001
0000
1000
0010
0010
1000
,  // measure 54
0100
0000
0000
0000
0001
0000
0100
0000
0000
0000
1000
0100
1000
0000
0000
0000
,  // measure 55
1002
0100
0100
0100
,  // measure 56
1000
1000
0010
0013
,  // measure 57
2001
0100
0100
0100
,  // measure 58
0001
0001
0010
3010
,  // measure 59
0012
1000
1000
1000
,  // measure 60
0100
0100
1000
1003
,  // measure 61
2010
0001
0001
0001
,  // measure 62
0100
0000
0100
0000
3001
0000
1000
0010
,  // measure 63
1000
0100
0000
0110
0000
0010
0001
0010
,  // measure 64
0001
0100
0000
0110
0000
0010
1000
0001
,  // measure 65
0010
0100
0010
2000
0000
3001
0100
2000
,  // measure 66
0000
3001
0100
2000
0000
3001
0010
1000
,  // measure 67
0100
0000
0011
0000
1010
0000
1000
0100
,  // measure 68
0000
1000
0100
1000
0010
1000
0001
0010
,  // measure 69
0001
0000
0101
0000
1100
0000
1000
0010
,  // measure 70
0110
0000
0010
1000
0000
0110
0000
1000
,  // measure 71
0010
0001
0010
1000
0000
0110
0000
1000
,  // measure 72
0010
0001
0010
1000
0000
0110
0000
0001
,  // measure 73
1000
0010
1000
0010
1000
0010
1000
0001
,  // measure 74
0010
1000
0010
0001
0000
0110
0000
0001
,  // measure 75
0010
1000
0010
0001
0000
0110
0000
0001
,  // measure 76
0010
1000
0010
0001
0000
0110
0000
0001
,  // measure 77
0010
0001
0100
1000
0100
0001
0020
0000
,  // measure 78
0031
0000
1000
0010
1000
0000
0010
0000
1000
0000
1100
0000
0000
0000
1010
0000
,  // measure 79
0000
0012
0000
0103
0101
0000
1100
0000
,  // measure 80
0001
0100
0120
0000
1030
0100
0010
0100
,  // measure 81
0001
0100
1000
0010
0001
0010
0100
0000
,  // measure 82
2020
0000
3030
0010
0010
1000
0100
0000
,  // measure 83
0011
0000
0010
0001
1000
0000
0010
1000
,  // measure 84
0001
0012
0000
0013
0100
0000
0010
0001
,  // measure 85
0100
2000
0000
3100
1000
0100
0001
0010
,  // measure 86
00M0
0000
1000
0010
1000
0010
1000
0100
,  // measure 87
0010
2000
0000
3010
1000
0010
0001
0100
,  // measure 88
0002
0100
0103
0000
1010
0000
0012
0000
,  // measure 89
0100
0103
0000
0001
0011
0000
2010
0000
,  // measure 90
0100
3200
0000
0310
0100
1000
0001
0100
,  // measure 91
0010
2000
0000
0001
3001
0000
0010
0001
,  // measure 92
0100
0010
1000
0000
0011
0000
2010
0000
,  // measure 93
3001
1000
0110
0000
0011
0000
1010
0000
,  // measure 94
MMMM
0000
0000
0000
;

//---------------dance-single - ----------------
#NOTEDATA:;
#CHARTNAME:;
#STEPSTYPE:dance-single;
#DESCRIPTION:;
#CHARTSTYLE:;
#DIFFICULTY:Hard;
#METER:10;
#RADARVALUES:0.530454,0.582946,0.643411,0.279070,0.000000,479.000000,396.000000,83.000000,36.000000,8.000000,0.000000,0.000000,0.000000,0.000000,0.530454,0.582946,0.643411,0.279070,0.000000,479.000000,396.000000,83.000000,36.000000,8.000000,0.000000,0.000000,0.000000,0.000000;
#CREDIT:;
#NOTES:
0000
0000
0000
0000
,
0000
0000
0000
0000
,
0000
0000
0000
0000
,
0000
0000
0000
0000
,
0000
0000
0000
0000
,
0001
0000
0001
0010
0001
0000
1000
0000
,
0001
0000
0001
0100
0001
0100
0001
0000
,
1000
0000
1000
0010
1000
0000
0100
0000
,
1001
0110
1001
MMMM
,
1000
0000
0010
0000
0001
0000
0010
2000
,
0000
3010
0001
0000
0010
0000
2000
0000
,
3100
0000
0011
0000
0201
0000
0310
1000
,
0000
1000
0100
0000
1002
0000
0103
0000
,
0001
0000
0010
0000
1000
0000
0010
0002
,
0000
0013
1000
0000
0010
0000
0002
0000
,
0103
0000
1010
0000
1200
0000
0310
0001
,
0100
0000
0110
0000
0110
0000
1000
0001
,
1000
0000
0010
0000
1000
0000
0001
0010
,
0000
0010
0001
0000
1000
0010
0100
0001
,
1000
0000
1100
0000
0021
0000
0130
1000
,
0000
1000
0100
0000
0021
0000
0130
1000
,
0001
0000
0100
0000
0010
0000
1000
0001
,
0000
0001
1000
0000
0100
0010
0100
1000
,
0001
0000
0101
0000
2010
0000
3001
0020
,
0000
0031
1000
0020
0000
1030
0100
0000
,
0011
0000
0010
0000
0001
0000
1000
0010
,
0000
0010
1000
0000
0001
0010
0100
1000
,
0001
0000
0101
0000
1020
0000
0130
0001
,
0000
0001
0100
0000
2010
0000
3001
0000
,
1001
0100
1001
0100
,
1001
0100
1001
0100
,
1001
0000
0100
0000
1001
0000
1000
0200
,
0000
0310
0001
0000
0110
0000
1001
0000
,
0001
0100
0000
1001
0000
0000
1000
0100
,
1000
0100
0000
1001
0000
0000
0001
0100
,
0001
0100
0000
1001
0000
0001
1000
0002
,
0000
0003
1000
0000
0001
0000
1000
0010
,
1000
0010
0000
1001
0000
0000
0001
0010
,
0001
0010
0000
1001
0000
0000
1000
0010
,
1000
0010
0000
1001
0000
0000
1000
0010
,
1000
0000
0001
0010
0001
0000
0110
0000
,
1001
0000
1000
0010
0000
0110
0000
1010
,
0000
0010
0100
0000
0101
0000
1010
0000
,
1001
0000
0001
0010
0000
1001
0000
1010
,
0000
0010
1000
0000
1100
0000
0022
0000
,
0033
0011
1000
1100
,
0001
0000
0101
0000
1000
0000
0010
1000
,
0000
1000
0100
0000
0010
0000
1001
0000
,
0100
0100
0100
0000
,
0000
1000
0010
1000
0010
0000
1000
0001
,
0000
1000
0100
0000
0000
0001
0010
0001
,
0010
0000
0001
1000
0000
0001
0100
0000
,
0000
1000
0010
1000
0010
0000
1000
0001
,
0000
1000
0100
0000
0000
0001
0010
0001
,
0010
0000
0001
1000
0000
0001
0100
0000
,
2002
0000
0000
0003
0000
0000
0000
0000
,
0000
0010
0000
0000
0001
0000
3000
0000
,
2002
0000
0000
3000
0000
0000
0000
0000
,
0000
0010
0000
0000
1000
0000
0003
0000
,
2020
0000
0000
0030
0000
0000
0000
0000
,
0000
0001
0000
0000
0100
0000
3000
0000
,
0022
0000
0000
0030
0000
0000
0010
0000
,
0000
1000
0000
0000
0103
0000
0001
0000
,
1000
0100
0000
0110
0000
0100
1000
0000
,
0001
0100
0000
0110
0000
0100
0001
0000
,
1000
0000
0001
0020
0000
0030
0100
0020
,
0000
0030
1000
0020
0000
0000
0031
0000
,
1001
0000
0001
0000
0100
0000
0010
1000
,
0000
0010
1000
0000
0100
0000
0010
0000
,
0001
0000
0100
0000
0100
0000
0001
1000
,
0001
0000
1000
0100
0000
1100
0000
0000
,
1000
0010
0100
0001
0000
0101
0000
0000
,
0001
0010
0100
1000
0000
1100
0000
0001
,
1000
0002
0000
0003
1000
0000
0001
0000
,
1000
0010
1000
0100
0000
0011
0000
0000
,
0001
0010
0001
0100
0000
1010
0000
0000
,
1000
0010
1000
0100
0000
0011
0000
0000
,
0001
0010
0001
0000
1000
0010
1000
0000
,
0110
0000
1001
0000
0001
0010
0000
0110
,
0000
0011
0000
0010
0100
0000
1100
0000
,
0011
0000
1001
0000
1000
0010
0000
1001
,
0000
0011
0000
0010
0001
0000
0101
0000
,
2020
3030
1010
0001
,
0101
1000
1100
0001
,
0010
0001
0000
0001
0100
0000
0010
0000
,
1001
0100
0100
0100
,
0000
0001
0100
1000
,
0100
0002
0000
0013
1000
0000
0010
0000
,
0002
0103
1010
1200
,
0310
0001
0000
0001
0100
0000
2001
0000
,
3100
1000
0000
1000
0010
0000
1000
0001
,
1000
0100
0010
0010
,
0100
1000
1010
0011
,
0001
1000
0001
0000
0011
0000
1010
0000
,
MMMM
0000
0000
0000
;

//---------------dance-single - ----------------
#NOTEDATA:;
#CHARTNAME:;
#STEPSTYPE:dance-single;
#DESCRIPTION:;
#CHARTSTYLE:;
#DIFFICULTY:Medium;
#METER:7;
#RADARVALUES:0.386489,0.582946,0.403101,0.271318,0.000000,349.000000,297.000000,52.000000,35.000000,6.000000,0.000000,0.000000,0.000000,0.000000,0.386489,0.582946,0.403101,0.271318,0.000000,349.000000,297.000000,52.000000,35.000000,6.000000,0.000000,0.000000,0.000000,0.000000;
#CREDIT:;
#NOTES:
0000
0000
0000
0000
,
0000
0000
0000
0000
,
0000
0000
0000
0000
,
0000
0000
0000
0000
,
0000
0000
0000
0000
,
0001
0000
0000
0001
0000
0000
0010
0000
,
0001
0000
0000
1000
0000
0000
0001
0000
,
1000
0000
0000
1000
0000
0000
0010
0000
,
1001
1001
1001
M00M
,
1000
0000
0010
0000
1000
0000
0000
0002
,
0000
1003
0010
1000
,
0000
0000
0011
0000
2100
0000
0000
3001
,
0000
1010
0102
1003
,
0001
0000
0010
0000
0001
0000
0000
2000
,
0000
3001
0010
0001
,
0000
1010
0102
1003
,
1001
0011
1100
MM00
,
0001
0001
0010
0010
,
0001
0100
0010
1000
,
0001
0000
0100
0000
2000
0000
0000
3100
,
0000
1000
0200
0301
,
0010
0010
0100
0100
,
1000
0100
0010
0001
,
0100
0000
0010
0000
2000
0000
3000
1010
,
0000
0000
0000
0011
0000
0000
1010
0000
,
1000
1000
0010
0010
,
1000
0100
0010
0001
,
1000
0000
0100
0000
0002
0000
0000
0103
,
0000
0001
0200
1300
,
0010
0100
0010
0100
,
0010
0100
0010
0100
,
0010
0000
0100
0000
0010
0000
0000
1001
,
0000
0010
1001
1001
,
0001
0010
1000
0010
,
0001
0010
1000
0010
,
0001
0010
1000
0010
,
0001
0001
0100
0010
,
1000
0010
0001
0010
,
1000
0010
0001
0010
,
1000
0010
0001
0010
,
1000
0100
0010
0010
,
0011
0000
0000
1001
0000
0101
0000
1001
,
0000
0011
0011
1001
,
1010
0001
0100
1000
,
0001
0010
1000
2002
,
3003
0001
0010
0100
,
0020
0000
0001
0000
0031
0000
0000
1001
,
0000
0001
0100
0010
,
1000
1000
1000
0000
,
0001
0000
0010
0000
1000
0000
0000
0010
,
0000
0001
1000
0010
,
0001
0000
0000
0010
0000
0000
1000
0000
,
0001
0000
0010
0000
1000
0000
0000
0010
,
0000
0001
1000
0010
,
0001
0000
0000
0010
0000
0000
1000
0000
,
2020
0000
0000
0000
,
0000
0000
0000
3030
,
0202
0000
0000
0000
,
0000
0000
0000
0303
,
0022
0000
0000
0000
,
0000
0000
0000
0033
,
2200
0000
0000
0000
,
0000
0000
3300
1000
,
0001
0100
0010
0010
,
1000
0100
0010
0010
,
0002
0103
0200
1300
,
2000
3010
0020
0031
,
0002
1003
0010
1000
,
0010
0001
0010
0001
,
0010
1000
0100
0010
,
0110
0001
0010
1000
,
0001
1000
0100
0001
,
1000
0001
0010
1000
,
0001
1000
0100
0001
,
0001
1000
0010
0001
,
1000
0001
0100
1000
,
0001
1000
0010
0001
,
1000
0001
0100
1000
,
0010
0000
1010
0000
0000
1001
0000
1100
,
0000
1001
0000
0000
1010
0000
1010
0000
,
1001
0011
1000
0100
,
0001
1000
0010
0001
,
2002
3003
1000
0010
,
0100
0020
1000
1030
,
0000
1001
0000
0000
1000
0000
0100
0000
,
0010
0001
0001
0001
,
0000
1000
0010
1000
,
0000
0002
0000
0000
1003
0000
0100
0000
,
1000
0000
1010
0102
,
0000
0013
0000
0000
1100
0000
0012
0000
,
0000
0203
0000
0000
1300
0000
0100
0000
,
0002
0003
0010
0001
,
1000
1000
1010
0102
,
1003
1001
0011
1100
,
MM00
0000
0000
0000
;

//---------------dance-single - ----------------
#NOTEDATA:;
#CHARTNAME:;
#STEPSTYPE:dance-single;
#DESCRIPTION:;
#CHARTSTYLE:;
#DIFFICULTY:Easy;
#METER:4;
#RADARVALUES:0.263566,0.364341,0.093023,0.170543,0.000000,238.000000,226.000000,12.000000,22.000000,0.000000,0.000000,0.000000,0.000000,0.000000,0.263566,0.364341,0.093023,0.170543,0.000000,238.000000,226.000000,12.000000,22.000000,0.000000,0.000000,0.000000,0.000000,0.000000;
#CREDIT:;
#NOTES:
0000
0000
0000
0000
,
0000
0000
0000
0000
,
0000
0000
0000
0000
,
0000
0000
0000
0000
,
0000
0000
0000
0000
,
0001
0000
0001
0000
,
1000
0000
1000
0000
,
0001
0000
0001
0000
,
1001
1001
1001
0000
,
1000
0010
1000
0000
,
1000
0100
1000
1000
,
0000
0000
0001
0000
0002
0000
0000
0003
,
0000
1000
2000
3000
,
0001
0010
0001
0000
,
0001
0100
0001
0001
,
0000
0000
1000
0000
2000
0000
0000
3000
,
0001
1001
2002
3003
,
0001
0000
0010
0000
,
0001
1000
0001
0000
,
0100
0010
0020
0030
,
0100
0010
0020
0030
,
1000
0000
0100
0000
,
0010
0001
1000
0000
,
0001
0010
0020
0030
,
0001
0000
0001
0000
,
1000
0000
0010
0000
,
1000
0001
1000
0000
,
0100
0010
0020
0030
,
0100
0010
0020
0030
,
0100
0000
0100
0000
,
0100
0000
0100
0000
,
0100
0000
0100
0100
,
0000
0100
0100
0100
,
1000
0010
1000
0000
,
0010
1000
0010
0000
,
1000
0010
1000
0000
,
0010
0000
1000
1000
,
0001
0010
0001
0000
,
0010
0001
0010
0000
,
0001
0010
0001
0000
,
1000
0001
0100
0000
,
1001
0000
1000
0000
,
0010
1000
0001
0000
,
1001
0000
0001
1000
,
0001
1000
0001
0020
,
0000
0030
0010
0010
,
0010
0000
0100
0000
,
1000
0000
0001
0000
,
1000
0001
1000
0000
,
0001
0001
0001
0000
,
0001
0000
0100
0100
,
0100
0000
0100
0000
,
1000
1000
1000
0000
,
1000
0000
0010
0010
,
0010
0000
0010
0000
,
0002
0000
0000
0000
,
0000
0000
0000
0000
,
0203
0000
0000
0000
,
0000
0000
0000
0000
,
0320
0000
0000
0000
,
0000
0000
0000
0000
,
2030
0000
0000
0000
,
0000
0000
0000
0000
,
3001
0001
0001
0000
,
1000
1000
1000
0000
,
0001
0000
0010
0000
,
1000
0000
0010
0000
,
0001
0001
0001
0000
,
0100
0000
0010
0000
,
1000
1000
1000
0000
,
1001
0001
1000
0010
,
0000
1000
0001
0010
,
0000
0001
1000
0010
,
0000
0010
0000
1000
,
1000
0010
1000
0001
,
0000
0010
0001
1000
,
0000
0010
1000
0001
,
0000
0010
0100
0010
,
0000
1001
0000
0001
,
0000
0010
0001
1000
,
0000
1001
0000
1000
,
0001
1000
0001
1000
,
0020
0000
0030
0010
,
0010
0010
0000
0100
,
0000
0001
0000
1000
,
0000
0001
1000
0001
,
0000
1000
0010
1000
,
0000
0001
0010
0001
,
0001
0000
1000
2000
,
0000
3000
0000
0000
0001
0000
0002
0000
,
0003
1000
0010
1000
,
0020
0030
1000
1000
,
0000
0100
0010
0200
,
0300
0100
1001
2002
,
3003
0000
0000
0000
;

//---------------dance-single - ----------------
#NOTEDATA:;
#CHARTNAME:;
#STEPSTYPE:dance-single;
#DESCRIPTION:;
#CHARTSTYLE:;
#DIFFICULTY:Beginner;
#METER:1;
#RADARVALUES:0.096346,0.146124,0.023256,0.093023,0.000000,87.000000,84.000000,3.000000,12.000000,0.000000,0.000000,0.000000,0.000000,0.000000,0.096346,0.146124,0.023256,0.093023,0.000000,87.000000,84.000000,3.000000,12.000000,0.000000,0.000000,0.000000,0.000000,0.000000;
#CREDIT:;
#OFFSET:0.013855;
#BPMS:0.000000=180.000000
;
#STOPS:;
#DELAYS:;
#WARPS:;
#TIMESIGNATURES:0.000000=4=4
;
#TICKCOUNTS:0.000000=4
;
#COMBOS:0.000000=1
;
#SPEEDS:0.000000=1.000000=0.000000=0
;
#SCROLLS:0.000000=1.000000
;
#FAKES:;
#LABELS:0.000000=Song Start
;
#NOTES:
0000
0000
0000
0000
,
0000
0000
0000
0000
,
0000
0000
0000
0000
,
0000
0000
0000
0000
,
0000
0000
0000
0000
,
0010
0000
0000
0000
,
0010
0000
0000
0000
,
0010
0000
0000
0000
,
1001
0000
0000
0000
,
1000
0000
0000
0000
,
1000
0000
0000
0000
,
0000
0001
0000
0000
,
0000
0001
0000
0000
,
1000
0000
0000
0000
,
1000
0000
0000
0000
,
0000
0001
0000
0000
,
0000
0001
0000
0000
,
1000
0000
0000
0000
,
0010
0000
0000
0000
,
1000
0000
0000
0000
,
1000
0000
0000
0000
,
0001
0000
0000
0000
,
0010
0000
0000
0000
,
0001
0000
0000
0000
,
0001
0000
0000
0000
,
0100
0000
0000
0000
,
0010
0000
0000
0000
,
0100
0000
0000
0000
,
0100
0000
0000
0000
,
0001
0000
0000
0000
,
1000
0000
0000
0000
,
0001
0000
0000
0000
,
1000
0000
0000
0000
,
0100
0000
0000
0000
,
0100
0000
0000
0000
,
0100
0000
0000
0000
,
0100
0000
0000
0000
,
0100
0000
0000
0000
,
0100
0000
0000
0000
,
0100
0000
0000
0000
,
0010
0000
0000
0000
,
0001
0000
0000
0000
,
0001
0000
0000
0000
,
1000
0000
0000
0000
,
1000
0000
0000
2002
,
0000
3003
0000
0000
,
1000
0000
0000
0000
,
0001
0000
0000
0000
,
0010
0000
0000
0000
,
0002
0000
0000
0003
,
0000
0000
0200
0000
,
0000
0300
0000
0000
,
0020
0000
0000
0030
,
0000
0000
2000
0000
,
0000
3000
0000
0000
,
0200
0000
0000
0000
,
0300
0000
0000
0000
,
0200
0000
0000
0000
,
0300
0000
0000
0000
,
0020
0000
0000
0000
,
0030
0000
0000
0000
,
0020
0000
0000
0000
,
0030
0000
0000
0000
,
0001
0000
0000
0000
,
0001
0000
0000
0000
,
1000
0000
0000
0000
,
0010
0000
0000
0000
,
1000
0000
0000
0000
,
0100
0000
0000
0000
,
0010
0000
0000
0000
,
0001
0000
0000
0000
,
0100
0000
0000
0000
,
0100
0000
0000
0000
,
0100
0000
0000
0000
,
0100
0000
0000
0000
,
0100
0000
0000
0000
,
0100
0000
0000
0000
,
0100
0000
0000
0000
,
0010
0000
0000
0000
,
1000
0000
0000
0000
,
1000
0000
0000
0000
,
0001
0000
0000
0000
,
0001
0000
0000
2002
,
0000
3003
0000
0000
,
0001
0000
0000
0000
,
1000
0000
0000
0000
,
0010
0000
0000
0000
,
1000
0000
0000
0000
,
1000
0000
0000
0000
,
0000
0001
0000
0000
,
0000
0001
0000
0000
,
0010
0000
0000
0000
,
0100
0000
0000
0000
,
0000
0010
0000
0000
,
0000
0010
0000
0000
;
