#VERSION:0.83;
#TITLE:Renegade Fruits;
#SUBTITLE:;
#ARTIST:t+pazolite;
#TITLETRANSLIT:;
#SUBTITLETRANSLIT:;
#ARTISTTRANSLIT:;
#GENRE:Spooky Breakcore;
#ORIGIN:;
#CREDIT:;
#BANNER:Renegade Fruits.png;
#BACKGROUND:Renegade Fruits-bg.png;
#PREVIEWVID:;
#JACKET:Renegade Fruits-jacket.png;
#CDIMAGE:;
#DISCIMAGE:;
#LYRICSPATH:;
#CDTITLE:cdtitle.png;
#MUSIC:Renegade Fruits.ogg;
#OFFSET:-0.051882;
#SAMPLESTART:68.051880;
#SAMPLELENGTH:15.980000;
#SELECTABLE:YES;
#DISPLAYBPM:120.000000:240.000000;
#BPMS:0.000=120.000,
16.000=240.000,
62.000=480.000,
62.500=240.000,
62.750=120.000,
95.000=240.000,
119.000=120.000,
123.000=240.000,
155.000=120.000,
171.000=240.000,
199.000=480.000,
199.500=240.000,
199.750=120.000,
200.000=240.000,
304.000=120.000,
306.500=480.000,
308.000=240.000;
#STOPS:62.000=0.250,
199.000=0.750,
306.500=0.188,
307.000=0.047,
307.125=0.047,
307.250=0.047,
307.375=0.047,
307.500=0.188,
385.667=0.250;
#DELAYS:;
#WARPS:;
#TIMESIGNATURES:0.000=4=4;
#TICKCOUNTS:0.000=4;
#COMBOS:0.000=1;
#SPEEDS:0.000=1.000=0.000=0;
#SCROLLS:0.000=1.000;
#FAKES:;
#LABELS:0.000=Song Start;
#BGCHANGES:;
#KEYSOUNDS:;
#ATTACKS:
;

//---------------dance-single - ----------------
#NOTEDATA:;
#CHARTNAME:;
#STEPSTYPE:dance-single;
#DESCRIPTION:;
#CHARTSTYLE:;
#DIFFICULTY:Challenge;
#METER:19;
#RADARVALUES:1.170449,1.558797,0.504193,0.420161,1.100822,975.000000,915.000000,60.000000,50.000000,0.000000,0.000000,0.000000,0.000000,0.000000,1.170449,1.558797,0.504193,0.420161,1.100822,975.000000,915.000000,60.000000,50.000000,0.000000,0.000000,0.000000,0.000000,0.000000;
#CREDIT:;
#OFFSET:-0.051882;
#BPMS:0.000000=120.000000
,16.000000=240.000000
,31.000000=120.000000
,31.250000=240.000000
,31.500000=480.000000
,32.500000=240.000000
,32.750000=120.000000
,33.000000=240.000000
,34.000000=480.000000
,34.500000=240.000000
,34.750000=120.000000
,35.000000=240.000000
,36.000000=480.000000
,36.500000=240.000000
,36.750000=120.000000
,37.000000=240.000000
,38.000000=480.000000
,38.500000=240.000000
,38.750000=120.000000
,39.000000=240.000000
,40.000000=480.000000
,40.500000=240.000000
,40.750000=120.000000
,41.000000=480.000000
,41.500000=240.000000
,41.750000=120.000000
,42.000000=480.000000
,42.500000=240.000000
,42.750000=120.000000
,43.000000=480.000000
,43.500000=240.000000
,43.750000=120.000000
,44.000000=240.000000
,56.000000=480.000000
,62.500000=240.000000
,62.750000=120.000000
,93.000000=240.000000
,101.000000=120.000000
,101.250000=240.000000
,101.500000=480.000000
,102.000000=240.000000
,106.500000=480.000000
,108.500000=240.000000
,108.750000=120.000000
,109.000000=240.000000
,116.000000=480.000000
,117.500000=240.000000
,117.750000=120.000000
,122.000000=240.000000
,129.000000=120.000000
,129.250000=240.000000
,129.500000=480.000000
,130.000000=240.000000
,134.500000=480.000000
,136.500000=240.000000
,136.750000=120.000000
,137.000000=240.000000
,154.000000=120.000000
,170.000000=480.000000
,172.500000=120.000000
,174.500000=480.000000
,177.000000=120.000000
,179.000000=240.000000
,191.000000=479.999969
,191.500000=240.000000
,191.750000=120.000000
,192.000000=240.000000
,255.000000=480.000000
,255.500000=240.000000
,255.750000=120.000000
,257.000000=240.000000
,258.000000=480.000000
,258.500000=240.000000
,258.750000=120.000000
,260.000000=240.000000
,265.000000=60.000000
,265.500000=120.000000
,266.000000=240.000000
,282.000000=120.000000
,282.250000=240.000000
,282.500000=480.000000
,283.500000=240.000000
,283.750000=120.000000
,284.000000=240.000000
,285.000000=480.000000
,285.500000=240.000000
,285.750000=120.000000
,286.000000=240.000000
,287.000000=480.000000
,287.500000=240.000000
,287.750000=120.000000
,288.000000=240.000000
,289.000000=480.000000
,289.500000=240.000000
,289.750000=120.000000
,290.000000=240.000000
,291.000000=120.000000
,293.500000=480.000000
,295.000000=240.000000
,310.000000=120.000000
,310.250000=240.000000
,310.500000=480.000000
,312.000000=240.000000
,323.000000=120.000000
,325.000000=240.000000
,333.000000=480.000000
,333.500000=240.000000
,333.750000=120.000000
,334.000000=480.000000
,334.500000=240.000000
,334.750000=120.000000
,335.000000=480.000000
,335.500000=240.000000
,335.750000=120.000000
,336.000000=240.000000
,336.500000=480.000000
,337.000000=240.000000
,338.000000=480.000000
,339.000000=120.000000
,339.250000=240.000000
,339.500000=480.000000
,340.000000=240.000000
,365.000000=480.000000
,371.000000=240.000000
;
#STOPS:56.000000=0.062500
,56.500000=0.062500
,57.000000=0.062500
,57.500000=0.062500
,58.000000=0.062500
,58.500000=0.062500
,59.000000=0.062500
,59.500000=0.062500
,60.000000=0.041666
,60.333332=0.041668
,60.666668=0.041668
,61.000000=0.041668
,61.333332=0.041668
,61.666668=0.041668
,62.000000=0.250000
,93.000000=0.187500
,93.250000=0.187500
,93.500000=0.187500
,93.750000=0.187500
,106.500000=0.031250
,106.750000=0.031250
,107.000000=0.062500
,107.500000=0.062500
,116.000000=0.031250
,116.250000=0.031250
,116.500000=0.031250
,116.750000=0.031250
,134.500000=0.031250
,134.750000=0.031250
,135.000000=0.062500
,135.500000=0.062500
,170.000000=0.187500
,170.500000=0.062500
,171.000000=0.187500
,171.500000=0.062500
,172.000000=0.187500
,174.500000=0.187500
,175.000000=0.062500
,175.500000=0.187500
,176.000000=0.062500
,176.500000=0.187500
,191.000000=0.750002
,220.500000=0.125004
,221.000000=0.125004
,293.500000=0.187502
,294.000000=0.046877
,294.125000=0.046877
,294.250000=0.046877
,294.375000=0.046877
,294.500000=0.187502
,311.000000=0.031254
,311.250000=0.031254
,311.500000=0.031254
,311.750000=0.031254
,336.500000=0.031254
,336.750000=0.031254
,338.000000=0.031254
,338.250000=0.031254
,338.500000=0.031254
,338.750000=0.031254
,365.000000=0.062504
,365.500000=0.062504
,366.000000=0.062504
,366.500000=0.062504
,367.000000=0.062504
,367.500000=0.062504
,368.000000=0.062504
,368.500000=0.062504
,369.000000=0.041668
,369.333344=0.041675
,369.666656=0.041675
,370.000000=0.041675
,370.333344=0.041675
,370.666656=0.291668
;
#DELAYS:;
#WARPS:;
#TIMESIGNATURES:0.000000=4=4
;
#TICKCOUNTS:0.000000=4
;
#COMBOS:0.000000=1
;
#SPEEDS:0.000000=1.000000=0.000000=0
;
#SCROLLS:0.000000=1.000000
;
#FAKES:;
#LABELS:0.000000=Song Start
;
#DISPLAYBPM:120.000000:240.000000;
#NOTES:
// measure 0
0000
0000
0000
0000
,  // measure 1
0000
0000
0000
0000
,  // measure 2
1000
0000
0100
0010
0000
0100
0000
0001
0000
0100
0000
0010
0100
0000
1000
0000
,  // measure 3
0001
0000
0100
0010
0000
0100
1000
0100
0000
0010
0100
0000
0001
0000
0000
0000
,  // measure 4
1001
0000
0000
0000
0001
0000
0010
0000
0000
0000
0010
0001
0010
0001
1000
0000
,  // measure 5
0000
0000
0001
0100
0001
0000
1000
0000
0100
0000
0000
0000
0100
0000
1000
0000
,  // measure 6
1001
0000
0000
0000
1000
0000
0010
0000
0000
0000
0010
1000
0010
1000
0001
0000
,  // measure 7
0000
0000
1000
0100
1000
0100
1000
0100
0010
0000
0100
0000
0001
0000
0000
0000
,  // measure 8
0110
0000
0000
0000
1000
0000
0001
0000
1001
0000
0000
0000
0100
0010
0100
0010
,  // measure 9
0100
0000
0000
0000
0001
0000
1000
0000
1001
0000
0000
0000
0001
0100
0010
1000
,  // measure 10
0001
1001
0110
1001
,  // measure 11
0001
0010
0001
0000
1000
0010
1000
0000
0001
0100
0001
0000
1000
0100
1000
0000
,  // measure 12
0002
1000
1000
1000
,  // measure 13
1000
0000
0000
0000
1000
0000
0000
0000
1003
0001
0010
0000
0100
0000
0010
0000
,  // measure 14
0001
0100
1000
0100
0001
0010
1000
0010
,  // measure 15
0001
0000
0000
0000
0100
0000
0000
0000
1000
0000
0000
0000
0100
0000
0000
0000
0001
0000
0000
0000
0010
0000
0000
0000
0001
0000
0000
0000
0000
0000
0000
0000
0000
0000
0000
0000
1001
0000
0000
0000
0000
0000
1000
0000
0000
0100
0000
0000
,  // measure 16
0001
0100
1000
0001
0010
1000
0010
0001
1000
0000
1100
0000
0011
0000
0001
0001
,  // measure 17
0100
0000
0100
0000
0010
0000
0010
0000
1000
0000
0100
0010
0001
0000
1000
0000
0100
0000
0000
0000
0100
0000
0000
0000
1001
0000
0000
0000
1000
0000
0010
0000
,  // measure 18
0100
1000
0100
0010
1000
0010
0001
1000
0100
0001
0010
0100
0110
0000
1000
1000
,  // measure 19
0100
0000
0010
0001
1000
0000
0010
0000
0100
0000
0100
0000
0001
0000
0010
0000
0100
0000
0000
0000
0100
0000
0000
0000
1001
0000
0000
0000
0001
0000
0100
0000
,  // measure 20
1000
0100
0001
1000
0010
0001
0010
1000
0001
0000
0101
0000
1010
0000
1000
1000
,  // measure 21
0100
0000
0100
0000
0010
0000
0010
0000
0001
0000
0100
0010
1000
0000
0001
0000
0100
0000
0000
0000
0100
0000
0000
0000
1001
0000
0000
0000
0001
0000
0010
0000
,  // measure 22
0100
0001
0100
0010
0001
0010
1000
0001
0100
1000
0010
0100
0001
0001
1000
1000
,  // measure 23
0001
1000
0001
1000
0100
0010
0100
0010
0001
0000
1100
0000
0110
0000
0011
0000
1000
0000
0010
0000
1000
0000
0010
0000
1000
0000
0010
0000
1000
0000
0010
0000
,  // measure 24
1000
0010
1000
0010
1000
0010
1000
0010
1000
0010
1000
0010
1000
0010
1000
0010
,  // measure 25
1000
0010
0002
0000
0013
1000
0100
0100
,  // measure 26
0010
0000
0100
0000
0001
0000
0100
0000
1000
0000
0001
0100
0010
0000
1000
0000
,  // measure 27
1001
0000
0000
0000
0110
0000
0001
0000
1000
0100
1000
0100
1000
0100
1000
0100
,  // measure 28
1000
0100
1000
0100
1000
0100
1000
0100
1000
0100
1000
0100
1000
0100
1000
0100
,  // measure 29
1000
0001
0100
0001
1000
0000
0000
0000
1001
0000
1000
0010
0100
0100
0001
0001
,  // measure 30
1000
0000
0100
1000
0100
0000
0010
0001
0010
0000
0001
0100
0001
0000
1000
0000
0001
0000
0010
0000
0001
0000
0010
0000
0001
0000
0010
0000
0001
0000
0010
0000
,  // measure 31
0001
0010
0001
0010
0001
0010
0001
0010
0001
0010
0001
0010
0001
0010
0001
0010
,  // measure 32
0001
0010
2000
0000
3010
0001
0100
0100
,  // measure 33
0010
0000
0100
0000
1000
0000
0100
0000
0001
0000
1000
0100
0010
0000
0001
0000
,  // measure 34
1001
0000
0000
0000
0110
0000
1000
0000
0001
0100
0001
0100
0001
0100
0001
0100
,  // measure 35
0001
0100
0001
0100
0001
0100
0001
0100
0010
0100
0010
0100
0001
0100
0001
0100
,  // measure 36
0010
1000
0001
0100
0010
0000
1000
0000
0001
0000
0011
0000
0000
0000
0110
0000
,  // measure 37
0000
0000
1100
0000
0000
0000
1001
0000
0001
0000
1000
0010
1000
0000
0001
0010
,  // measure 38
0001
0000
1000
0100
1000
0000
0001
0100
0002
0000
0100
0000
0100
0000
0010
0000
,  // measure 39
0100
0000
1003
0100
0010
0000
0010
0100
2000
0000
0100
0000
0100
0000
0010
0000
,  // measure 40
0100
0000
3001
0100
0010
1000
0100
0010
0001
0100
1000
0100
0001
0010
0100
0010
,  // measure 41
0001
0000
1000
0100
0001
0100
1000
0010
0100
0001
0010
0100
1000
0010
0001
0010
,  // measure 42
1000
0100
1000
0100
0010
0001
0100
0010
2001
0000
3001
0000
2100
0000
3001
0000
,  // measure 43
1010
0000
0000
0000
1001
0000
0000
0000
1000
0000
0100
0000
0010
0000
0001
1000
0001
0000
0100
0000
1002
0000
0000
0000
1003
0000
0000
0000
0102
0000
0000
0000
,  // measure 44
1003
0000
0000
0000
0011
0000
0000
0000
1001
0000
0000
0000
1000
0010
1000
0010
1000
0000
0001
0010
0001
0000
0000
0000
0011
0000
0000
0000
0010
0000
0000
0000
,  // measure 45
0100
1000
1010
0010
0100
0001
0101
0100
,  // measure 46
0010
0000
1000
0000
1100
0000
0100
0000
0010
0000
0001
0000
1000
0010
1000
0000
,  // measure 47
0100
1000
0100
0000
0010
0001
0010
0000
0001
0100
0001
0000
1001
0000
0000
0000
,  // measure 48
0002
0100
0103
2000
3100
0002
0203
2300
,  // measure 49
3200
0000
0001
0000
0010
0000
0310
0000
1000
0000
0100
0010
0001
0000
1000
0000
,  // measure 50
0002
0010
0013
2000
3010
0200
0320
2030
,  // measure 51
3020
0000
0001
0000
0100
0000
0130
0000
1000
0000
0001
0100
0010
0100
0010
1000
,  // measure 52
0002
0010
0013
0200
1300
0020
0032
0023
,  // measure 53
2030
0010
3010
0200
0001
0301
1000
0100
,  // measure 54
0010
0001
0010
0001
0010
0000
0001
0100
0001
0000
1000
0010
1000
0001
0010
0001
,  // measure 55
1000
0000
1010
0000
0101
0000
1000
0010
0100
0001
0010
0100
2000
0000
0100
0000
,  // measure 56
3100
0002
0103
2000
3200
0302
0203
1000
,  // measure 57
0010
0000
0310
0000
0001
0000
0100
0010
1000
0000
0001
0000
2000
0000
0010
0000
,  // measure 58
3010
0002
0013
0200
0320
0032
0023
1000
,  // measure 59
0100
0000
0130
0000
0001
0000
1000
0100
0010
0100
0010
0001
2000
0000
3010
0000
,  // measure 60
0001
2000
3100
0001
1000
1000
0002
0013
,  // measure 61
1000
0000
0002
0000
0103
0000
1000
0000
0001
0000
0100
0000
0010
1000
0010
1000
,  // measure 62
0010
0000
1000
0100
1000
0000
0001
0010
0001
1000
0010
1000
0001
0000
0001
0000
,  // measure 63
0010
0010
0100
0100
1000
0010
0201
0000
,  // measure 64
0000
1000
0000
0310
1000
0000
0100
0000
1200
0000
0000
0000
0000
0001
0000
0310
,  // measure 65
0001
0000
0100
0000
0010
0000
1000
0100
0010
0000
0100
0000
0010
0100
1000
0001
,  // measure 66
0100
0000
0010
0000
0200
0000
0000
0000
0310
1000
0001
1000
0100
0000
0000
0000
,  // measure 67
0010
0100
0010
0100
0010
0100
0010
0100
0010
0100
1000
0000
0000
0000
0110
0000
,  // measure 68
1000
0001
0100
0010
1000
1000
0100
0001
,  // measure 69
0100
0000
1000
0000
0010
1000
0010
1000
0001
0000
1001
0000
0000
0000
1000
0100
,  // measure 70
0010
0001
0010
0100
1000
0000
0010
0000
0001
0000
0000
0000
0110
0000
0000
0000
,  // measure 71
1000
0000
0001
0000
1001
0000
0000
0000
0100
0010
0100
0010
0100
0000
0000
0000
,  // measure 72
0001
0000
1000
0000
1001
0000
0000
0000
0001
0010
0100
1000
0001
0000
0100
0100
,  // measure 73
0000
0000
0010
0000
0010
0000
1000
0000
0000
0000
0001
0000
1001
0000
0000
0000
0001
1000
0001
1000
0001
0000
0000
0000
1000
0000
0000
0000
0100
0000
0000
0000
,  // measure 74
0001
0001
0100
1000
0001
0010
1000
0010
,  // measure 75
0001
1000
1000
0001
0100
1000
0100
0010
,  // measure 76
1000
0000
1000
0000
0001
0000
1000
0100
0010
0000
0110
0000
0000
0000
1000
0000
,  // measure 77
0100
0000
0001
0000
0100
0000
1000
0000
1001
0000
0000
0000
0001
0100
0010
1000
,  // measure 78
0001
0001
0010
1000
0010
0001
0100
1000
,  // measure 79
0100
0000
0000
0001
0000
0000
0010
0000
0100
0000
1000
0000
0001
0000
0000
0001
0000
0000
0100
0000
0000
0010
0000
0000
,  // measure 80
0100
0000
0010
0000
1000
0100
0010
0000
0001
0000
0100
0000
2001
0000
0010
0000
,  // measure 81
0100
3001
0001
0100
1000
1000
0100
0001
,  // measure 82
1000
0010
0001
0010
1000
0001
0001
1000
,  // measure 83
0100
0000
0010
0001
0010
0000
0000
0000
1100
0000
0000
0000
1010
0000
0000
0000
,  // measure 84
0101
0000
0001
1000
0001
0000
0010
0000
0100
1000
0100
1000
0001
0000
0000
0000
,  // measure 85
0110
0000
0001
0000
1000
0000
0010
0100
0001
0000
0010
0000
1000
0000
0010
0000
,  // measure 86
0001
0000
0100
0010
1000
0001
1000
0001
0010
0000
0100
0000
1000
0000
1000
0000
,  // measure 87
0001
0000
0001
0000
1000
0010
1000
0010
1000
0001
1000
0001
0010
0100
1000
0001
,  // measure 88
1000
0001
0200
0000
0000
0000
1300
0000
0100
0000
0001
0000
0010
0000
1000
0000
,  // measure 89
0010
0001
2000
0000
0001
0000
0001
0000
,  // measure 90
0001
0000
0000
0000
0001
0000
0000
0000
0001
0000
0000
0000
3001
1000
0010
0000
,  // measure 91
0100
0010
1000
0100
0001
0100
1000
0010
,  // measure 92
0001
0000
0000
0010
0000
0000
1000
0000
0100
0000
0001
0000
0100
0000
1000
0000
0010
0000
1001
0000
0000
0000
0000
0000
;

//---------------dance-single - ----------------
#NOTEDATA:;
#CHARTNAME:;
#STEPSTYPE:dance-single;
#DESCRIPTION:;
#CHARTSTYLE:;
#DIFFICULTY:Hard;
#METER:16;
#RADARVALUES:0.927956,1.338003,0.579822,0.268903,0.348734,773.000000,704.000000,69.000000,32.000000,0.000000,0.000000,0.000000,0.000000,0.000000,0.927956,1.338003,0.579822,0.268903,0.348734,773.000000,704.000000,69.000000,32.000000,0.000000,0.000000,0.000000,0.000000,0.000000;
#CREDIT:;
#OFFSET:-0.051882;
#BPMS:0.000000=120.000000
,16.000000=240.000000
,62.000000=480.000000
,62.500000=240.000000
,62.750000=120.000000
,95.000000=240.000000
,119.000000=120.000000
,123.000000=240.000000
,155.000000=120.000000
,171.000000=240.000000
,199.000000=480.000000
,199.500000=240.000000
,199.750000=120.000000
,200.000000=240.000000
,304.000000=120.000000
,306.500000=480.000000
,308.000000=240.000000
;
#STOPS:62.000000=0.250000
,199.000000=0.750002
,306.500000=0.187502
,307.000000=0.046877
,307.125000=0.046877
,307.250000=0.046877
,307.375000=0.046877
,307.500000=0.187502
,385.666656=0.250002
;
#DELAYS:;
#WARPS:;
#TIMESIGNATURES:0.000000=4=4
;
#TICKCOUNTS:0.000000=4
;
#COMBOS:0.000000=1
;
#SPEEDS:0.000000=1.000000=0.000000=0
;
#SCROLLS:0.000000=1.000000
;
#FAKES:;
#LABELS:0.000000=Song Start
;
#DISPLAYBPM:120.000000:240.000000;
#NOTES:
0000
0000
0000
0000
,
0000
0000
0000
0000
,
1000
0000
0100
0010
0000
0001
0000
1000
0000
0001
0000
0100
0010
0000
1000
0000
,
0001
0000
0100
0010
0000
1000
0001
1000
0000
0100
0010
0000
0001
0000
0000
0000
,
1001
0000
1000
0200
0000
0301
0100
0210
,
0000
0301
0100
1000
0001
1000
0010
0000
,
1001
0000
0001
0200
0000
1300
0100
0210
,
0000
1300
0100
0001
0010
0100
1000
0000
,
1001
0000
1000
0010
1010
0000
0010
0001
,
0011
0000
0001
0100
0101
0000
0100
1000
,
1100
0011
0101
1010
,
1000
0010
0001
0010
1000
0100
0001
0100
,
2000
0001
0001
0001
,
0001
0000
0000
0000
3001
0000
0000
0000
1000
0001
1000
0000
0100
0000
0010
0000
,
0001
0100
0010
0100
0001
0100
1000
0100
,
0001
0000
0000
0000
0100
0000
0000
0000
0010
0000
0000
0000
1000
0000
0000
0000
0100
0000
0000
0000
0010
0000
0000
0000
0001
0000
0000
0000
0000
0000
0000
0000
0000
0000
0000
0000
1001
0000
0000
0000
0000
0000
1000
0000
0000
0001
0000
0000
,
0010
0001
0100
0001
0010
0001
1000
0001
0100
0000
0110
0000
1001
0000
1000
0100
,
1000
0000
0100
0000
1000
0000
0100
0000
0010
0000
0001
1000
0001
0000
0100
0000
0010
0000
0000
0000
0010
0000
0000
0000
0110
0000
0000
0000
1000
0000
0001
0000
,
0100
0001
1000
0010
0100
0010
1000
0100
0001
0100
1000
0010
0100
0000
0010
1000
,
0001
0000
1000
0001
1000
0000
0100
0000
0010
0000
0001
0000
0010
0000
0100
0000
1000
0000
0000
0000
0110
0000
0000
0000
1001
0000
0000
0000
0001
0000
1000
0000
,
0010
1000
0100
1000
0010
1000
0001
1000
0100
0000
0110
0000
1001
0000
0001
0100
,
0001
0000
0100
0000
0001
0000
0100
0000
0010
0000
1000
0001
1000
0000
0100
0000
0010
0000
0000
0000
0010
0000
0000
0000
0110
0000
0000
0000
0001
0000
1000
0000
,
0100
1000
0001
0010
0100
0010
0001
0100
1000
0100
0001
0010
0100
1000
0100
1000
,
0010
0100
0001
1000
0100
0000
0011
0000
0101
0000
1010
1000
0001
0000
0100
0000
,
1000
0001
1000
0001
0010
1000
0010
0001
,
1000
0001
1000
0100
0002
0000
0013
0100
,
1000
0100
1000
0100
0010
0001
1000
0010
,
0100
0001
0101
0000
1010
0001
1000
0100
,
0001
1000
0001
1000
0010
0001
0010
1000
,
0001
0000
0100
0000
0010
0000
0100
0000
1100
0000
0000
0000
0011
0000
1000
0010
,
0100
0010
0100
0001
0010
0100
1000
0010
0100
0001
0010
0100
1000
0000
0010
0000
,
0001
1000
0001
1000
0100
0001
0010
1000
,
0010
1000
0001
0100
2000
0000
3010
0100
,
0001
0100
0001
0100
0010
1000
0001
0010
,
0100
1000
1100
0000
0011
1000
0001
0010
,
1000
0001
1000
0001
0100
1000
0010
0001
,
0010
0001
1000
0100
0001
1000
0200
0010
,
0000
0001
0000
0010
0000
1300
0000
1100
,
0000
0011
0000
1001
0100
0010
1002
0100
,
0100
0000
1000
0000
0100
0000
1003
0100
0010
0000
0010
0100
2000
0000
0100
0000
,
0100
0000
0001
0000
0100
0000
3001
0100
0010
0000
0010
0100
0001
0000
0010
0000
,
0100
1000
0010
0100
0001
0000
1000
0000
0100
0010
0001
0100
0010
0000
1000
0000
,
0001
0000
0010
0100
1000
0000
0010
0100
0001
0000
1000
0000
2001
0000
0000
0000
,
3010
2010
0000
3001
1001
0000
2200
0000
,
0000
0000
3300
1002
,
0013
0012
0000
1003
1001
0000
0202
0000
,
0000
0000
0303
0101
,
0100
1000
1100
0000
1000
0010
1010
0000
,
0010
0001
0011
0000
0001
0100
0110
0000
,
1001
0000
1000
0100
0010
0001
1001
0000
,
1000
0010
0100
1000
0100
0010
1000
0001
,
2000
0100
0010
0100
,
3001
0010
0100
0001
0100
0010
0001
1000
,
0002
0100
0010
0100
,
1003
0010
0100
1000
0100
0010
1000
1000
,
0001
0010
0100
0001
0100
0010
0001
0001
,
1000
0010
0100
0001
0010
0100
1000
0001
,
0100
0110
0000
0110
0000
0010
1000
0001
,
1000
0100
0010
1000
0010
0100
1000
0001
,
2000
0010
0001
0100
,
3001
0100
0010
0001
0010
0100
0001
1000
,
0002
0000
0010
0000
1000
0000
0103
0010
,
1000
0100
0001
1000
0010
0001
1000
0001
,
1000
0010
0001
1000
0100
0001
1000
0001
,
1000
0100
0001
0100
1000
0010
0001
0010
,
2000
0000
3100
0010
0001
0100
0001
0100
,
1010
0000
0000
0001
0000
1000
1100
0000
,
0011
0000
0000
1000
0000
0001
0101
0000
,
0001
0100
1000
0100
0001
0010
1000
0010
,
0002
0000
0000
1003
,
2002
0000
0000
0000
0000
3003
0000
0110
,
0000
0010
0100
0010
1001
0000
0001
1000
,
0100
0001
0100
1000
0010
0100
0010
0110
,
0000
0010
0100
1000
0100
0001
0010
0000
,
1100
0000
1000
0010
1010
0000
0001
0010
,
0011
0000
1000
0010
0001
1000
0001
0010
,
2000
0000
0100
0000
0100
3001
2002
3003
,
0001
0010
0100
0010
0001
0100
0010
0001
,
1000
0100
0010
1000
0100
0010
0001
0100
,
1000
0100
0001
0010
0100
1000
0010
1000
,
0100
0001
0100
1000
0010
0100
0001
0000
,
1000
0100
0001
0100
1000
0010
0100
1000
,
0001
0010
0100
0001
0010
0100
1000
0010
,
1000
0100
0001
0100
1000
0010
0100
0001
,
2001
0010
0001
0100
,
3001
0010
1000
0001
0100
0010
0001
1000
,
0010
0001
1000
0100
0010
1000
0001
0010
,
0110
0000
1100
0000
0101
0000
1000
1000
,
0100
0001
0100
1000
0001
0000
0110
0001
,
1000
0100
1000
0100
0001
0100
0001
0100
,
1000
0010
1000
0010
0001
1000
0100
0001
,
0010
1000
0001
0100
1000
0010
0001
2000
,
0000
3001
0010
1000
0001
1000
0100
0010
,
0002
1000
1000
1000
,
1000
0000
0000
0000
1003
0000
0000
0000
0001
1000
0001
0000
0100
0000
0010
0000
,
1000
0100
0010
0100
1000
0100
0001
0100
,
1000
0100
0010
0001
0100
0010
1001
0000
0000
0000
0000
0000
;

//---------------dance-single - ----------------
#NOTEDATA:;
#CHARTNAME:;
#STEPSTYPE:dance-single;
#DESCRIPTION:;
#CHARTSTYLE:;
#DIFFICULTY:Medium;
#METER:14;
#RADARVALUES:0.709472,1.181913,0.857128,0.310919,0.088234,591.000000,489.000000,102.000000,37.000000,0.000000,0.000000,0.000000,0.000000,0.000000,0.709472,1.181913,0.857128,0.310919,0.088234,591.000000,489.000000,102.000000,37.000000,0.000000,0.000000,0.000000,0.000000,0.000000;
#CREDIT:;
#OFFSET:-0.051882;
#BPMS:0.000000=120.000000
,16.000000=240.000000
,64.000000=120.000000
,96.000000=240.000000
,120.000000=120.000000
,124.000000=240.000000
,156.000000=120.000000
,172.000000=240.000000
,305.000000=120.000000
,309.000000=240.000000
;
#STOPS:200.000000=0.750002
;
#DELAYS:;
#WARPS:;
#TIMESIGNATURES:0.000000=4=4
;
#TICKCOUNTS:0.000000=4
;
#COMBOS:0.000000=1
;
#SPEEDS:0.000000=1.000000=0.000000=0
;
#SCROLLS:0.000000=1.000000
;
#FAKES:;
#LABELS:0.000000=Song Start
;
#DISPLAYBPM:120.000000:240.000000;
#NOTES:
0000
0000
0000
0000
,
0000
0000
0000
0000
,
0001
0100
0110
0000
1000
0100
0110
0000
,
0001
0010
0110
1000
1000
0010
0110
0000
,
1001
0000
1000
0100
0000
0010
0000
0110
,
0000
0001
0000
0100
0010
0000
0110
0000
,
1001
0000
1000
0010
0000
0100
0000
0110
,
0000
0001
0000
0010
0100
0000
0110
0000
,
1100
0001
1010
0001
,
0101
1000
0011
1000
,
1100
1010
0101
0011
,
1000
0100
1000
0100
0010
0001
0100
0010
,
2000
0001
0001
0001
,
0001
0000
3001
0000
1000
0010
0100
0001
,
0020
0100
0100
0130
,
2002
0000
3003
0000
,
1001
0000
0001
0000
0100
0000
1000
0000
0100
0001
0100
0000
1000
0000
0100
0000
,
0110
0000
0001
1000
0001
0000
1000
0000
0100
1000
0001
1000
0100
0000
0100
0000
,
1001
0000
0001
0000
0100
0000
1000
0000
0100
0001
0010
0000
1000
0000
0010
0000
,
0110
0000
0001
1000
0001
0000
1000
0000
0010
0100
0001
1000
0100
0000
0010
0000
,
1001
0000
1000
0000
0100
0000
0001
0000
0100
1000
0100
0000
0001
0000
0100
0000
,
0110
0000
1000
0001
1000
0000
0001
0000
0100
0001
1000
0001
0100
0000
0100
0000
,
1001
1000
1001
0001
1001
1010
1001
0011
,
1000
0100
1000
0100
0010
0001
1000
0010
0200
0000
0302
0000
2003
0000
3200
0300
,
0011
0110
0011
1001
,
0011
0000
0110
0000
1000
0001
2000
0000
,
3010
0101
0010
1100
,
0001
1000
0001
1000
0001
0000
0100
0000
,
1010
0110
1010
1001
,
1010
0000
0110
0000
0001
1000
0100
0000
,
0010
0100
0010
0000
0001
1000
0001
0000
0100
0010
0100
0010
0100
0010
0100
0000
,
1010
1100
0101
0011
,
0101
0000
1100
0000
1000
0010
2000
0000
,
3100
0011
0100
1010
,
0001
0100
0010
1000
0100
0000
0010
0000
,
0011
0101
1100
1010
,
1100
0000
0101
0000
0001
0010
0100
1000
,
0000
0001
0000
0100
0000
0010
0000
1000
,
0000
0101
0000
0110
0000
1010
0000
1000
,
0200
0000
0320
0000
,
0032
0000
0203
0000
,
0320
0000
2030
0000
,
3200
0000
0000
0000
0310
0000
0001
0110
,
1001
0000
0000
1001
0000
0000
0011
0000
,
0202
0000
0000
0303
,
1001
0000
0000
1001
0000
0000
1010
0000
,
2200
0000
0000
3300
,
0011
1000
0101
1000
,
1010
0001
1100
0001
,
0011
0101
1010
1100
,
1001
0000
1000
0000
0100
0010
0000
0100
,
0010
0001
2000
0000
0010
0000
0001
0000
,
0100
0000
3001
0000
0100
0010
0000
0100
,
0010
1000
0002
0000
0010
0000
1000
0000
,
0100
0000
1003
0000
0100
0010
0000
0100
,
0010
0001
0100
0000
0010
0100
0000
0010
,
1000
0100
0010
0000
0001
0100
0000
1000
,
0000
0100
0001
1000
0000
1000
0000
1000
,
0100
0010
0001
0000
0010
0100
0000
0010
,
0001
1000
0020
0000
0100
0000
0001
0000
,
0100
0000
1030
0000
0010
0100
0000
0010
,
1000
0001
0020
0000
1000
0000
0100
0000
,
0031
0010
0001
0000
0100
0010
0000
1000
,
0100
0010
0001
0000
0100
0010
0000
1000
,
0100
1000
0001
0000
1000
0010
0000
0100
,
0001
1000
0200
0000
0001
0000
0010
0000
,
1300
0000
1100
0000
0000
0010
0000
0000
,
1001
0000
0101
0000
0000
0010
0000
0000
,
1001
0000
0001
0100
0001
0100
0010
1000
,
0100
0010
0002
0000
0000
0000
0000
0000
,
1003
0000
2002
0000
0000
0000
0000
3003
,
0000
0110
0000
1000
0000
0001
1000
0000
,
1001
0000
0001
0000
0010
0000
0100
0010
,
0000
1001
0000
1000
0010
0000
0110
0000
,
0001
1001
0100
1001
,
0010
0000
1001
0000
0100
0000
1000
0100
,
0010
0001
2000
0000
0100
0000
0100
3001
,
2002
3003
0001
0000
0100
1000
0000
0100
,
0000
0010
0000
0100
0001
0010
0100
0000
,
0110
0000
1000
0000
0100
0001
0000
0100
,
0000
0010
0000
0100
1000
0010
0100
0000
,
0110
0000
1000
0000
0010
0100
0000
0010
,
0000
0001
0000
0010
0100
0001
0010
0000
,
0110
0000
0001
0000
0010
0100
0000
0010
,
1000
0010
0002
0000
0010
0000
1000
0000
,
0103
0000
0001
0000
1000
0010
0000
0001
,
0000
0010
0000
1000
0100
0001
0100
0000
,
0110
0000
0001
0000
0010
1000
0000
0010
,
0000
0001
0000
0100
1000
0100
0001
0000
,
0110
0000
1001
0000
0001
1000
0001
0000
,
1001
0000
1000
0010
0100
0000
0010
1000
,
0100
0010
0001
0000
1000
0100
0010
0001
,
0100
0010
1000
0000
0001
0100
0010
1000
,
0100
0010
0002
0000
1000
0000
1000
0000
,
1000
0000
1000
0000
1003
0000
0001
0010
,
0100
1000
0020
0000
0100
0000
0100
0000
,
0130
0000
0000
0000
0000
0000
0000
0000
0000
0000
0000
0000
0000
0000
0000
0000
2002
0000
0000
0000
0000
0000
0000
0000
0000
0000
0000
0000
0000
0000
0000
0000
0000
0000
0000
0000
0000
0000
0000
0000
0000
0000
0000
3003
0000
0000
0000
0000
0000
0000
0000
0000
0000
0000
0000
0000
0000
0000
0000
0000
0000
0000
0000
0000
,
1001
0000
0000
0000
;

//---------------dance-single - ----------------
#NOTEDATA:;
#CHARTNAME:;
#STEPSTYPE:dance-single;
#DESCRIPTION:;
#CHARTSTYLE:;
#DIFFICULTY:Easy;
#METER:11;
#RADARVALUES:0.471781,0.611334,0.361338,0.344532,0.000000,393.000000,350.000000,43.000000,41.000000,0.000000,0.000000,0.000000,0.000000,0.000000,0.471781,0.611334,0.361338,0.344532,0.000000,393.000000,350.000000,43.000000,41.000000,0.000000,0.000000,0.000000,0.000000,0.000000;
#CREDIT:;
#OFFSET:-0.051882;
#BPMS:0.000000=120.000000
,16.000000=240.000000
,64.000000=120.000000
,96.000000=240.000000
,120.000000=120.000000
,124.000000=240.000000
,156.000000=120.000000
,172.000000=240.000000
,305.000000=120.000000
,309.000000=240.000000
;
#STOPS:200.000000=0.750002
;
#DELAYS:;
#WARPS:;
#TIMESIGNATURES:0.000000=4=4
;
#TICKCOUNTS:0.000000=4
;
#COMBOS:0.000000=1
;
#SPEEDS:0.000000=1.000000=0.000000=0
;
#SCROLLS:0.000000=1.000000
;
#FAKES:;
#LABELS:0.000000=Song Start
;
#DISPLAYBPM:120.000000:240.000000;
#NOTES:
0000
0000
0000
0000
,
0000
0000
0000
0000
,
0001
0010
0001
0000
0100
0001
0100
0000
,
0010
1000
0010
0000
1000
0100
1000
0000
,
1001
0000
0000
0000
0001
0100
0000
0110
,
0000
1000
1010
0000
,
1001
0000
0000
0000
1000
0100
0000
0110
,
0000
0001
0011
0000
,
1001
0000
0101
0000
,
1001
0000
1100
0000
,
0001
0010
0100
1000
,
1001
1001
0110
1001
,
0220
0000
0000
0000
,
0000
0330
0001
1000
,
0200
0000
0000
0000
,
0020
0000
0330
0000
,
0001
0000
0011
0000
0010
0001
0100
0000
,
0010
0100
0001
0100
0010
0100
0001
0000
,
1000
0000
1001
0000
1000
0100
0010
0000
,
0001
0010
0100
1000
0010
0001
0010
0000
,
1000
0000
1010
0000
0010
1000
0100
0000
,
0010
0100
1000
0100
0010
0100
1000
0000
,
0001
0100
0010
0000
1000
0100
0010
0000
,
0100
0001
0100
1000
0002
0000
0000
0003
,
2000
0010
0010
0010
,
0010
0000
0010
0000
3001
1000
0001
0000
,
1000
0100
0001
0100
,
1000
0000
0010
1000
0010
0000
0100
0000
,
0002
0010
0010
0010
,
0010
0000
0010
0000
1003
0001
1000
0000
,
0010
0000
1001
0000
0001
0001
0100
0010
,
2000
0100
0100
0100
,
0100
0000
0100
0000
3001
1000
0001
0000
,
1000
0010
0001
0010
,
1000
0000
0100
1000
0100
0000
0010
0000
,
0002
0100
0100
0103
,
0010
0000
1000
0000
0100
0010
0001
0000
,
0200
0000
0310
1000
,
1001
1001
0110
1001
,
0002
0000
0023
0000
,
0230
0000
2300
0000
,
3020
0000
0230
0000
,
0302
0000
0000
0000
1003
0000
0001
1000
,
0001
0000
0000
0001
0000
0000
0010
0000
,
2200
0000
0000
3300
,
1000
0000
0000
1000
0000
0000
0010
0000
,
0202
0000
0000
0303
,
0011
0000
1001
0000
,
1010
0000
1001
0000
,
0110
0110
1001
0110
,
1001
1000
0100
0010
,
0001
2000
0010
0010
,
0010
3001
0100
0010
,
1000
0002
0010
0010
,
0010
1003
0001
0100
,
0010
1000
0100
0010
,
0001
0100
1000
0100
,
0001
0000
0020
0100
0000
0100
0000
0130
,
0010
0001
0100
1000
,
0100
0002
0010
0010
,
0010
1003
0100
0001
,
0100
2000
0010
0010
,
0010
3001
0100
1000
,
0100
0001
0010
1000
,
0010
0001
0100
0010
,
1000
2002
0000
3003
,
1000
0000
2200
0000
0000
3300
0000
0000
,
0001
0000
0202
0000
0000
0303
0000
0000
,
1001
0000
1001
0000
0000
0000
0001
1000
,
0001
1000
0002
0000
0000
0000
0000
0000
,
0000
0000
2000
0000
0000
0000
0000
3003
,
0000
1000
0000
0100
0000
0010
0001
0000
,
1000
0000
0001
0000
0000
0001
0000
0100
,
0000
0010
0000
1000
0001
0000
0010
0000
,
0100
1100
0000
0011
,
0000
1000
0100
0010
,
0001
0200
0000
0000
,
0300
0001
0100
0001
,
0010
0000
0001
0000
0100
0001
0100
0000
,
0010
1000
0100
1000
,
0010
0000
1000
0000
0100
1000
0100
0000
,
0010
0001
0100
0010
,
1000
0000
0001
0000
0010
0100
0010
0000
,
0100
1000
0001
0100
,
0010
2000
0000
0001
,
3001
1000
0100
0001
,
0100
0000
1000
0000
0010
0100
0010
0000
,
1000
0001
0100
1000
,
0100
0000
0001
0000
0010
0100
0010
0000
,
0001
1000
0100
0001
,
0001
0100
1000
0010
,
0010
0000
0001
0000
0010
1000
0000
0010
,
0000
2000
0000
0000
3100
0000
0001
0000
,
0100
0220
0000
0000
,
0000
0000
0330
1000
,
0001
0200
0000
0000
,
0000
0020
0000
0330
,
1001
0000
0000
0000
;

//---------------dance-single - ----------------
#NOTEDATA:;
#CHARTNAME:;
#STEPSTYPE:dance-single;
#DESCRIPTION:;
#CHARTSTYLE:;
#DIFFICULTY:Beginner;
#METER:8;
#RADARVALUES:0.344532,0.486336,0.168064,0.361338,0.000000,287.000000,267.000000,20.000000,43.000000,0.000000,0.000000,0.000000,0.000000,0.000000,0.344532,0.486336,0.168064,0.361338,0.000000,287.000000,267.000000,20.000000,43.000000,0.000000,0.000000,0.000000,0.000000,0.000000;
#CREDIT:;
#OFFSET:-0.051882;
#BPMS:0.000000=240.000000
;
#STOPS:;
#DELAYS:;
#WARPS:;
#TIMESIGNATURES:0.000000=4=4
;
#TICKCOUNTS:0.000000=4
;
#COMBOS:0.000000=1
;
#SPEEDS:0.000000=1.000000=0.000000=0
;
#SCROLLS:0.000000=1.000000
;
#FAKES:;
#LABELS:0.000000=Song Start
;
#DISPLAYBPM:120.000000:240.000000;
#NOTES:
0000
0000
0000
0000
,
0000
0000
0000
0000
,
0000
0000
0000
0000
,
0000
0000
0000
0000
,
1000
0000
0010
0000
,
0100
0000
0001
0000
,
1000
0000
0100
0000
,
0010
0000
0001
0000
,
2002
0000
0000
0000
3003
0000
0000
0202
,
0000
0303
0000
0000
0010
0000
1000
0000
,
2002
0000
0000
0000
3003
0000
0000
2200
,
0000
3300
0000
0000
0010
0000
0001
0000
,
1001
0000
1001
0000
,
0110
0000
0110
0000
,
0001
0001
1000
1000
,
0001
0010
0100
1000
,
0020
0000
0000
0000
,
0000
0000
0130
0001
,
2000
0000
0000
0000
,
0002
0000
3003
0000
,
0001
0000
0010
0000
,
0001
0010
0001
0000
,
0100
0000
0100
0000
,
0010
0010
0010
0000
,
1000
0000
0010
0000
,
1000
0010
1000
0000
,
0100
0000
0010
0000
,
0001
0001
0001
0000
,
1000
0000
0001
0000
,
1000
0001
1000
0000
,
0010
0000
0100
0000
,
0010
0010
0010
0000
,
1000
0000
0100
0000
,
0010
0001
1000
0000
,
0010
1000
0001
0000
,
2002
0000
3003
0000
,
0001
0010
0001
0010
,
0001
0010
0001
0000
,
0100
0000
0010
0000
,
0100
0100
0010
0000
,
1000
0010
1000
0010
,
1000
0010
1000
0000
,
0001
0000
1000
0000
,
0001
1000
0001
0000
,
1000
0100
1000
0100
,
1000
0100
1000
0000
,
0010
0000
0100
0000
,
0010
0010
0100
0000
,
0001
0100
0001
0100
,
0001
0100
0001
1000
,
0200
0000
0000
0000
,
0310
0100
0010
0100
,
2000
0000
0000
0000
,
3020
0000
0000
0000
,
0230
0000
0000
0000
,
0302
0000
0000
0000
,
2003
0000
0000
0000
,
3200
0000
0000
0000
,
0320
0000
0000
0000
,
0032
0000
0003
0000
,
1001
0000
1001
0000
,
2002
0000
3003
0000
,
0110
0000
0110
0000
,
0220
0000
0330
0000
,
0001
0000
0001
0000
,
1000
0000
1000
0000
,
0001
0010
0100
1000
,
0001
0000
0000
0000
,
1000
0100
1000
0100
,
0020
0000
0100
0000
,
0031
0100
0001
0100
,
0020
0000
0100
0000
,
1030
0100
0010
0000
,
0100
0010
0001
0000
,
1000
0010
1000
0001
,
0020
0000
0130
0000
,
1000
0100
0010
0100
,
2000
0000
0010
0000
,
3001
0100
0010
0100
,
0002
0000
0010
0000
,
1003
0010
0100
0000
,
0001
0010
0100
0000
,
1000
0010
0100
0001
,
0020
0000
0000
0030
,
2002
0000
0000
3003
0000
0000
0000
0000
,
2002
0000
0000
3003
0000
0000
0000
0000
,
1001
0000
0001
1000
,
0002
0000
0000
0000
,
2000
0000
0000
0000
0000
3003
0000
1001
,
0000
0001
1000
0000
,
0010
0000
0000
0000
0100
0000
0000
0010
,
0000
0100
0001
0000
,
1000
0000
0001
0000
,
1000
0100
0010
0002
,
2000
0000
0000
0000
,
0000
0003
3000
0000
,
0001
0010
0001
0000
,
1000
0001
1000
0000
,
0010
1000
0010
0000
,
1000
0001
1000
0000
,
0100
1000
0100
0000
,
1000
0001
1000
0000
,
0001
0100
0001
0000
,
1000
0001
1000
0000
,
0001
0010
0100
0000
,
0010
0100
1000
0000
,
0001
0100
0010
0000
,
0100
0010
1000
0000
,
0001
0010
0100
0000
,
1000
0010
0100
0000
,
0001
1000
0100
0010
,
0001
0000
0100
0000
,
0020
0000
0000
0000
,
0000
0000
0130
0001
,
2000
0000
0000
0000
,
0002
0000
3003
1001
;
