#VERSION:0.83;
#TITLE:Rave Cannon;
#SUBTITLE:;
#ARTIST:kors k;
#TITLETRANSLIT:;
#SUBTITLETRANSLIT:;
#ARTISTTRANSLIT:;
#GENRE:Speed Rave;
#ORIGIN:;
#CREDIT:;
#BANNER:;
#BACKGROUND:;
#PREVIEWVID:;
#JACKET:;
#CDIMAGE:;
#DISCIMAGE:;
#LYRICSPATH:;
#CDTITLE:;
#MUSIC:Rave Cannon.ogg;
#OFFSET:-0.029721;
#SAMPLESTART:36.032722;
#SAMPLELENGTH:12.000000;
#SELECTABLE:YES;
#BPMS:0.000=160.000,
32.000=80.000,
48.000=160.000,
144.000=80.000,
160.000=160.000;
#STOPS:;
#DELAYS:;
#WARPS:;
#TIMESIGNATURES:0.000=4=4;
#TICKCOUNTS:0.000=4;
#COMBOS:0.000=1;
#SPEEDS:0.000=1.000=0.000=0;
#SCROLLS:0.000=1.000;
#FAKES:;
#LABELS:0.000=Song Start;
#BGCHANGES:;
#KEYSOUNDS:;
#ATTACKS:
;

//---------------dance-single - ----------------
#NOTEDATA:;
#CHARTNAME:;
#STEPSTYPE:dance-single;
#DESCRIPTION:;
#CHARTSTYLE:;
#DIFFICULTY:Challenge;
#METER:16;
#RADARVALUES:0.830797,0.975905,0.647953,0.439968,0.851939,727.000000,646.000000,81.000000,55.000000,0.000000,0.000000,2.000000,0.000000,0.000000,0.830797,0.975905,0.647953,0.439968,0.851939,727.000000,646.000000,81.000000,55.000000,0.000000,0.000000,2.000000,0.000000,0.000000;
#CREDIT:;
#NOTES:
0000
0000
0000
0000
,
0000
0000
0000
0000
,
0000
0000
0000
0000
,
0000
0000
0000
0000
,
0011
0000
0000
0000
0100
0000
0000
0000
2000
0000
0000
0000
3001
0000
0000
0000
0100
0000
0000
0000
0020
0000
0000
0000
0130
0000
0000
0000
0020
0000
0000
0030
,
1010
0100
0002
1003
0200
0320
0100
0130
,
0011
0001
1000
0010
1010
1000
0001
0010
,
0210
0000
1300
0000
0001
0100
0010
0100
,
1002
0000
0000
0100
0000
0100
0000
0000
2000
0000
0000
0000
0000
0000
3003
0000
,
2001
0000
0000
0100
0000
0100
0000
0000
0002
0000
0000
0000
0000
0000
3003
0000
,
0201
0000
0000
1000
0000
0010
0000
0000
0002
0000
0000
0000
0000
0000
0303
0000
,
1200
0000
0000
0001
0000
0010
0000
0000
2000
0000
0000
0000
0000
0000
3300
0000
,
1000
0000
0001
0010
0001
0000
1000
0000
0001
0000
0100
0000
0101
0000
0100
0000
,
0001
0000
1000
0010
1000
0000
0001
0000
1000
0000
0100
0000
1100
0000
0100
0000
,
1000
0000
0001
0100
0000
0100
0001
0000
1000
0000
0100
0000
0110
0000
0010
0000
,
0001
0000
1000
0100
0000
0100
1000
0000
0001
0000
0100
0000
0110
0000
0010
0000
,
1000
0000
0001
0010
0000
0001
0100
0000
0010
0000
1000
0000
1010
0000
0100
0000
,
0001
0000
1000
0010
0000
1000
0100
0000
0010
0000
0001
0000
0011
0000
0100
0000
,
1000
0100
0010
0001
0100
0010
1000
0100
0010
0001
0100
0010
1000
0100
0010
0001
,
0200
0000
0000
0000
0000
0000
0000
0300
0000
0100
0001
1000
0100
0000
0010
0000
,
0001
0100
0001
0100
0000
0010
1000
0000
1100
0000
0001
0000
0101
0000
1000
0000
,
0100
0010
0001
0100
0000
0010
1000
0000
2100
0000
3010
0000
0102
0000
0013
0000
,
1100
0000
1000
0010
0000
0010
0001
0000
0001
0010
0000
0010
1000
0000
0100
0000
,
0011
0000
0001
0010
0000
0010
1000
0000
1000
0010
0000
0010
0001
0000
0100
0000
,
0010
1000
0010
1000
0000
0001
0010
0000
0011
0000
1000
0000
1010
0000
0001
0000
,
0010
0100
1000
0010
0000
0100
0001
0000
0012
0000
0103
0000
2010
0000
3100
0000
,
0011
0000
0001
0100
0000
0100
1000
0000
0100
0001
0000
0001
0010
0000
0100
0000
,
1000
0000
0010
0100
0000
0001
0010
0000
0100
1000
0000
0010
0100
0000
0001
0000
,
1000
0100
0010
0001
0000
0001
0100
0000
0101
0000
1000
0000
1010
0000
0001
0000
,
0100
0010
1000
0100
0000
0010
0001
0000
0102
0000
1003
0000
0012
0000
1003
0000
,
0101
0000
0001
0010
0000
0010
1000
0000
1000
0001
0000
0001
0100
0000
1000
0000
,
1010
0000
1000
0010
0000
0010
0001
0000
0001
1000
0000
1000
0100
0000
0001
0000
,
1000
0010
0100
0001
0000
0001
1000
0000
1100
0000
0001
0000
0011
0000
1000
0000
,
0010
0100
0001
0010
0000
0100
1000
0000
2010
0000
3001
0000
2100
0000
3001
0000
,
1020
0000
0230
0000
0302
2003
0000
3200
0320
0000
0230
2300
3001
0200
0320
0030
,
1010
0000
0000
0101
0000
0000
1001
0000
0011
0000
0000
1100
0000
0000
0110
0000
,
1001
0000
0000
0000
0001
0000
0000
0100
0000
0001
0000
0000
0100
0000
0001
0000
1000
0000
0000
0000
1000
0000
0000
0100
0000
1000
0000
0000
0010
0000
0100
0000
,
0001
0000
0000
0000
0001
0000
0000
0010
0000
0001
0000
0000
0010
0000
0001
0000
1000
0000
0000
0000
1000
0000
0000
0010
0000
1000
0000
0000
0100
0000
1000
0000
,
0010
0000
0000
0000
0010
0000
0100
0010
0000
1000
0000
0000
0010
0000
1000
0000
0100
0000
0000
0000
0100
0000
0010
0100
0000
1000
0000
0000
1000
0000
0001
0000
,
0100
0000
0000
0000
0100
0000
0010
0100
0000
0001
0000
0000
0100
0000
0001
0000
0010
0000
0000
0000
0010
0000
0100
0010
0000
0001
0000
0000
0001
0000
0100
0000
,
0010
0000
0010
0000
1000
0000
0001
0010
0100
0010
0001
0000
0100
0000
0010
0000
,
1000
0000
1000
0000
0100
0000
0010
0100
1000
0001
0100
0000
0010
0000
1000
0000
,
0100
0000
0100
0000
1000
0000
0010
0100
0001
0100
0010
0000
1000
0000
0001
0000
,
0010
0000
0010
0000
0100
0000
0010
0001
1000
0001
0100
0000
0010
0000
1000
0000
,
1001
0000
0000
0000
1000
0010
1000
0010
1000
0001
1000
0001
1000
0100
1000
0100
,
0010
0001
0010
0001
1000
0001
1000
0001
0100
0001
0100
0001
1000
0100
0010
0001
,
1000
0100
1000
0010
0100
0001
0010
0001
0100
0010
1000
0100
1000
0010
0100
0001
,
0010
0000
0000
0000
0000
0000
0000
0000
0000
0000
0000
0000
0000
0000
0000
0000
0004
0000
4000
0000
0000
0000
0000
0000
0000
0000
0000
0000
0000
0003
0000
3000
,
0001
0000
0000
0101
0000
0000
1000
0000
0010
0000
0000
0000
2001
0000
3010
1000
,
0100
0000
0000
0110
0000
0000
0010
0000
0001
0000
0000
0101
0000
0000
0010
0000
,
1000
0000
0000
1100
0000
0000
0010
0000
0001
0000
0000
0000
1002
0000
0013
0001
,
0100
0000
0000
0110
0000
0000
0010
0000
1010
0000
0000
0000
0001
0000
0010
0000
,
0011
0000
0001
0200
0000
0000
0301
0000
1010
0000
1000
0200
0000
0000
0310
0000
,
0110
0000
1000
0002
0000
0000
0103
0000
0110
0000
0001
2000
0000
0000
3100
0000
,
0010
0000
0001
0010
0001
1000
0010
1000
0001
0100
0001
1000
0100
1000
0001
0100
,
0002
0000
0000
0000
0003
0000
0000
0000
0001
1000
0001
1000
0001
0000
0100
0000
,
0001
0000
0010
0100
0000
0100
0010
0000
0012
0000
1003
0000
0102
0000
1003
0010
,
1000
0000
0001
0010
0000
0001
0100
0000
0010
0000
1000
0001
0000
0010
0100
0000
,
1000
0000
0001
0100
0000
0100
0010
0000
2010
0000
3001
0000
2100
0000
3001
0010
,
0001
0000
1000
0010
0000
0100
0001
0000
1000
0000
0100
0010
0100
0000
1000
0000
,
0001
0000
0100
0010
0000
0010
0100
0000
0102
0000
1003
0000
0012
0000
1003
0100
,
1000
0000
0001
0100
0000
0010
1000
0000
0100
0000
0010
0001
0000
0100
0010
0000
,
1010
0100
0001
0010
0011
0100
1000
0010
,
1010
0000
0000
0101
0000
0001
1000
0001
0010
0100
0010
0100
0010
0000
0001
0000
,
1000
0000
0100
1000
0001
1000
0010
0000
2010
0000
3100
0000
0012
0000
0103
0010
,
1000
0000
0001
0010
0100
1000
0010
0000
1000
0000
0010
1000
0100
0010
0001
0000
,
1000
0000
0010
1000
0001
1000
0100
0000
2100
0000
3010
0000
0102
0000
0013
0100
,
1000
0000
0100
1000
0010
0100
0001
0000
0010
0000
1000
0010
0100
0000
0010
0000
,
0001
0000
0100
0001
1000
0001
0010
0000
0012
0000
0103
0000
2010
0000
3100
0010
,
0001
0000
1000
0010
0100
0001
0010
0000
0001
0000
0010
0001
0100
0010
1000
0000
,
1010
0000
0000
0101
0000
0001
0010
0000
0011
0000
0000
1100
0000
1000
0010
0100
,
0001
0000
0000
0011
0000
0000
1000
0000
1010
0000
0000
1100
0000
0000
1000
0000
,
0202
0000
0000
0000
,
0000
0000
0000
0000
0000
0000
0000
0000
0000
0000
0000
0000
0300
0000
0000
0003
;

//---------------dance-single - ----------------
#NOTEDATA:;
#CHARTNAME:;
#STEPSTYPE:dance-single;
#DESCRIPTION:;
#CHARTSTYLE:;
#DIFFICULTY:Hard;
#METER:14;
#RADARVALUES:0.665095,0.768895,0.271980,0.359974,0.571959,582.000000,548.000000,34.000000,45.000000,0.000000,0.000000,1.000000,0.000000,0.000000,0.665095,0.768895,0.271980,0.359974,0.571959,582.000000,548.000000,34.000000,45.000000,0.000000,0.000000,1.000000,0.000000,0.000000;
#CREDIT:;
#NOTES:
0000
0000
0000
0000
,
0000
0000
0000
0000
,
0000
0000
0000
0000
,
0000
0000
0000
0000
,
1001
0000
0010
0000
1000
0010
1000
0100
,
1001
0000
0010
0000
0001
0010
0001
0100
,
1001
0000
1000
0100
1001
0000
0001
0100
,
1001
0000
1000
0100
0010
0001
0100
0010
,
2010
0000
0000
0001
0000
0001
0000
0000
0200
0000
0000
0000
0000
0000
3300
0000
,
0012
0000
0000
1000
0000
1000
0000
0000
0200
0000
0000
0000
0000
0000
0303
0000
,
0102
0000
0000
0010
0000
0010
0000
0000
2000
0000
0000
0000
0000
0000
3003
0000
,
2100
0000
0000
0010
0000
0010
0000
0000
0002
0000
0000
0000
0000
0000
3003
0000
,
1000
0100
1000
0010
0000
1000
0010
0100
,
0000
0100
0001
0010
0000
0001
0010
0100
,
0000
0000
1000
0001
0000
0001
0100
0000
0000
0000
0010
0000
0100
0000
0001
0000
,
0000
0000
1000
0001
0000
0001
0010
0000
0000
0000
0100
0000
0010
0000
0001
0000
,
1000
0000
0010
0100
0000
0010
0100
0000
0001
0000
0001
0000
1000
0000
1000
0000
,
0001
0000
0010
0100
0000
0010
0100
0000
1000
0000
1000
0000
0001
0000
0001
0000
,
0100
0000
0010
0000
1000
0000
0001
0000
1000
0100
1000
0000
0001
0100
0001
0000
,
2000
0000
0000
0000
0000
0000
0000
0000
3000
0000
0100
0010
0100
0000
0010
0000
,
0001
0000
1000
0010
0000
1000
0001
0000
0010
0000
0100
0000
0010
0000
0100
0000
,
1000
0000
0010
0100
0000
0001
1000
0000
0002
0000
0010
0000
2003
0000
0010
0000
,
3001
0000
1000
0010
0000
0010
1000
0000
0001
0010
0000
0010
0001
0000
0100
0000
,
0010
0000
1000
0100
0000
0100
1000
0000
0001
0100
0000
0100
0001
0000
1000
0000
,
0100
0000
0010
0001
0000
1000
0001
0000
0100
0000
0010
0000
0100
0000
0010
0000
,
1000
0000
0100
0010
0000
0001
1000
0000
0002
0000
0100
0000
2003
0000
0100
0000
,
3001
0000
0010
0001
0000
0001
1000
0000
0010
1000
0000
1000
0001
0000
0010
0000
,
0011
0000
0000
0110
0000
0000
1100
0000
0000
1010
0000
0000
0101
0000
0001
0000
,
1000
0000
0001
0010
0000
0001
0100
0000
0010
0000
1000
0000
0010
0000
1000
0000
,
0001
0000
1000
0010
0000
1000
0100
0000
0020
0000
0001
0000
0230
0000
1000
0000
,
0310
0000
0001
0100
0000
0100
0010
0000
1000
0100
0000
0100
0010
0000
0100
0000
,
1000
0000
0010
0100
0000
0100
0001
0000
0010
0100
0000
0100
1000
0000
0001
0000
,
0100
0000
0010
1000
0000
0100
1000
0000
0010
0000
0100
0000
0010
0000
0100
0000
,
0001
0000
0010
0100
0000
0010
0001
0000
0200
0000
0001
0000
0320
0000
1000
0000
,
0230
0000
0302
0000
0000
2003
0000
0000
3020
0000
0000
2030
0000
0000
3001
1000
,
0002
0000
0000
0010
0000
0000
1003
0000
2000
0000
0000
0010
0000
0000
3001
0000
,
1001
0000
0000
0000
1000
0000
0000
0010
0000
1000
0000
0000
0010
0000
1000
0000
0001
0000
0000
0000
0001
0000
0000
0010
0000
0001
0000
0000
0010
0000
0001
0000
,
0100
0000
0000
0000
0100
0000
0000
0001
0000
0100
0000
0000
0001
0000
1000
0000
0100
0000
0000
0000
0100
0000
0000
1000
0000
0100
0000
0000
1000
0000
0010
0000
,
1000
0000
0000
0000
0010
0000
0000
1000
0000
0100
0000
0000
0010
0000
0001
0000
0100
0000
0000
0000
0001
0000
0000
0100
0000
0010
0000
0000
0100
0000
0001
0000
,
0010
0000
0000
0000
0100
0000
0000
0010
0000
0100
0000
0000
1000
0000
0010
0000
0100
0000
0000
0000
0010
0000
0000
0100
0000
0001
0000
0000
0100
0000
0010
0000
,
2010
0000
3001
0100
0100
0001
0010
0010
,
0002
0000
1003
0100
0100
1000
0010
0010
,
2000
0000
3100
0010
0010
0001
1000
1000
,
0020
0000
1030
0010
0100
0001
0010
0100
,
2000
0000
3001
0100
1000
0100
0001
0100
,
1000
0001
0010
1000
0100
0001
0100
1000
,
0001
0010
0001
0000
1000
0010
1000
0000
0001
0010
0001
0000
1000
0010
1000
0000
,
0002
0000
4000
3003
,
0001
0100
1000
0100
0001
0000
1001
0000
,
1000
0000
0100
0000
0001
0000
0100
0000
1000
0000
0000
0001
0000
0000
0001
0000
,
1000
0010
0001
0010
1000
0000
1001
0000
,
0001
0010
1000
0010
0001
0000
1000
0001
,
0102
0000
0000
1000
0000
0000
1003
0000
2010
0000
0000
0001
0000
0000
3001
0000
,
0012
0000
0000
1000
0000
0000
1003
0000
2100
0000
0000
0001
0000
0000
3001
0000
,
1000
0000
0001
0100
0001
0000
1000
0100
1000
0000
0001
0100
0001
0000
1000
0100
,
2000
0000
0000
0000
3000
0000
0000
0000
1000
0001
1000
0001
1000
0000
0000
0000
,
0001
0000
0100
0010
0000
0010
1000
0000
0100
0000
0001
0000
0100
0000
1000
0000
,
0010
0000
0100
0001
0000
0100
0001
0000
0010
0000
0100
1000
0000
0100
1000
0000
,
0001
0000
1000
0010
0000
0010
0100
0000
0001
0000
0010
0000
1000
0000
0010
0000
,
0001
0000
0100
0010
0000
0010
1000
0000
0001
0000
0010
0100
0010
0000
0001
0000
,
1000
0000
0010
0100
0000
0100
0001
0000
1000
0000
0100
0000
0001
0000
0100
0000
,
1000
0000
0010
0100
0000
0010
0100
0000
0001
0000
0010
0100
0000
0010
0100
0000
,
2000
0010
0010
0010
3002
0010
2003
3010
,
0101
0000
0000
1001
0000
1000
0100
0000
0010
0001
0010
0001
0010
0000
0001
0000
,
1000
0000
0001
0100
0000
1000
0100
0000
0001
0000
1000
0000
1020
0000
0130
0000
,
0001
0000
1000
0100
0000
0100
0010
0000
1000
0000
0010
0100
0000
0100
1000
0000
,
0001
0000
1000
0010
0000
0001
0010
0000
1000
0000
0001
0000
0201
0000
0310
0000
,
1000
0000
0100
0010
0000
0010
0001
0000
0100
0000
0010
1000
0010
0000
1000
0000
,
0001
0000
1000
0100
0000
0001
0100
0000
1000
0000
0001
0000
0021
0000
0130
0000
,
1000
0000
0001
0100
0000
0100
0010
0000
0001
0000
0010
0100
0000
0100
0001
0000
,
1002
0000
0000
0013
0000
0000
0001
0000
2001
0000
0000
3010
0000
0000
1000
0000
,
1100
0000
0000
0011
0000
0000
0001
0000
0101
0000
0000
1010
0000
0000
1000
0000
,
0220
0000
0000
0000
,
0000
0000
0000
0000
0000
0000
0000
0000
0000
0000
0000
0000
0300
0000
0000
0030
;

//---------------dance-single - ----------------
#NOTEDATA:;
#CHARTNAME:;
#STEPSTYPE:dance-single;
#DESCRIPTION:;
#CHARTSTYLE:;
#DIFFICULTY:Medium;
#METER:10;
#RADARVALUES:0.451396,0.473166,0.391972,0.311978,0.087994,395.000000,346.000000,49.000000,39.000000,0.000000,0.000000,0.000000,0.000000,0.000000,0.451396,0.473166,0.391972,0.311978,0.087994,395.000000,346.000000,49.000000,39.000000,0.000000,0.000000,0.000000,0.000000,0.000000;
#CREDIT:;
#NOTES:
0000
0000
0000
0000
,
0000
0000
0000
0000
,
0000
0000
0000
0000
,
0000
0000
0000
0000
,
1001
0000
0010
0000
0001
0010
0000
0010
,
1001
0000
0010
0000
1000
0010
0000
0010
,
1001
0010
1001
0100
,
1001
0000
1000
0100
0010
0100
0010
0001
,
0200
0000
0000
0000
0002
0000
0000
0303
,
0020
0000
0000
0000
2000
0000
0000
3030
,
2000
0000
0000
0000
0200
0000
0000
3300
,
0002
0000
0000
0000
0020
0000
0000
0033
,
1000
1100
0001
0101
,
1000
1010
0001
0011
,
1000
0000
1010
0000
0100
0001
0100
0000
,
0001
0000
0011
0000
0100
1000
0100
0000
,
0010
0001
1000
0000
1000
0001
0100
0000
,
0010
1000
0001
0000
0001
1000
0100
0000
,
0010
0100
0010
0100
1000
0001
1000
0001
,
0200
0000
0000
0300
,
1010
0000
1010
0000
0100
0001
1000
0001
,
0010
0000
0011
0000
1000
0100
0010
0001
,
0200
0000
0320
0000
2030
0000
3001
1000
,
0200
0000
0320
0000
0032
0000
1003
0001
,
0100
0000
0101
0000
0010
1000
0001
1000
,
0100
0000
1100
0000
0001
0010
0100
1000
,
0020
0000
0230
0000
0302
0000
1003
0100
,
0010
0000
0000
0001
0000
0000
1000
0000
0000
0001
0000
0000
0100
0000
0001
0000
,
0010
0000
0011
0000
0100
1000
0001
1000
,
0010
0000
1010
0000
0001
0010
1000
0010
,
0002
0000
0203
0000
2300
0000
3100
0010
,
2000
0000
3200
0000
0302
0000
0103
1000
,
0010
0000
1010
0000
0100
0001
1000
0001
,
0010
0000
0011
0000
1000
0010
0001
0010
,
2000
0000
0000
0000
0000
0000
3000
0001
,
0010
0000
0000
0100
0000
0000
0010
0000
0100
0000
0000
1000
0000
0000
0001
0000
,
2000
0010
0010
0000
0001
0001
0100
0000
,
3002
0010
0010
0000
1000
1000
0100
0000
,
2003
0010
0001
0000
0010
0001
0100
0000
,
3002
0010
1000
0000
0010
1000
0100
0000
,
1003
0000
1010
0000
0100
0001
0100
0001
,
0100
0000
1010
0000
0100
0001
1000
0100
,
0010
0000
0011
0000
0100
1000
0100
1000
,
0100
0000
0011
0000
0100
1000
0001
0100
,
0010
0000
1000
0000
0010
1000
0100
0000
,
0010
0000
0001
0000
0010
0001
0100
0000
,
0010
1000
0100
0000
0010
0001
0100
0000
,
2001
0000
0002
3003
,
1000
0100
1000
0100
1000
0000
1100
0000
,
0001
0010
0001
0010
0001
0000
1100
0000
,
0001
0100
0001
0100
0001
0000
0101
0000
,
1000
0010
1000
0010
1000
0000
0101
0000
,
2000
0100
3002
0100
,
2003
0100
3002
0100
,
1003
1010
0101
0011
,
2100
0000
0000
0000
0001
0001
3001
0000
,
1000
0000
0000
0010
0000
0000
1000
0000
0100
0000
0000
0000
1100
0000
0000
0000
,
0010
0000
0000
0010
0000
0000
0001
0000
1000
0000
0000
1000
0000
0000
0001
0000
,
0100
0000
0000
0010
0000
0000
0100
0000
0001
0000
0000
0000
1010
0000
0000
0000
,
0001
0000
0000
0010
0000
0000
0100
0000
1000
0000
0000
0000
0010
0000
0100
0000
,
0001
0000
0000
0010
0000
0000
0001
0000
0100
0000
0000
0000
0101
0000
0000
0000
,
0010
0000
0000
0010
0000
0000
1000
0000
0001
0000
0000
0001
0000
0000
1000
0000
,
1100
0001
0101
1000
,
1002
0000
0013
0100
1000
0000
0010
0100
,
0001
0000
0000
0010
0000
0000
0001
0000
0100
0000
0000
0000
1100
0000
0000
0000
,
1000
0000
0000
0010
0000
0000
0100
0000
0001
0000
0000
0010
0000
0000
0100
0000
,
1000
0000
0000
0010
0000
0000
1000
0000
0100
0000
0000
0000
0101
0000
0000
0000
,
0001
0000
0000
0010
0000
0000
0100
0000
1000
0000
0000
0000
0010
0000
0100
0000
,
0001
0000
0000
1000
0000
0000
0100
0000
0010
0000
0000
0000
0110
0000
0000
0000
,
0001
0000
0000
0100
0000
0000
0001
0000
1000
0000
0000
0100
0000
0000
1000
0000
,
1001
0010
1001
0100
,
1010
0000
0000
1001
0000
0000
0000
0000
0011
0000
0000
1001
0000
0000
0000
0000
,
0220
0000
0000
0000
,
0000
0000
0000
0000
0000
0000
0000
0000
0000
0000
0000
0000
0300
0000
0000
0030
;

//---------------dance-single - ----------------
#NOTEDATA:;
#CHARTNAME:;
#STEPSTYPE:dance-single;
#DESCRIPTION:;
#CHARTSTYLE:;
#DIFFICULTY:Easy;
#METER:7;
#RADARVALUES:0.363402,0.443593,0.415970,0.383972,0.000000,318.000000,266.000000,52.000000,48.000000,0.000000,0.000000,0.000000,0.000000,0.000000,0.363402,0.443593,0.415970,0.383972,0.000000,318.000000,266.000000,52.000000,48.000000,0.000000,0.000000,0.000000,0.000000,0.000000;
#CREDIT:;
#NOTES:
0000
0000
0000
0000
,
0000
0000
0000
0000
,
0000
0000
0000
0000
,
0000
0000
0000
0000
,
1001
0100
0100
0100
,
1001
0010
0010
0010
,
1001
0100
1001
0010
,
1001
0100
0010
0100
,
2002
0000
0000
3003
,
0022
0000
0000
0033
,
2020
0000
0000
3030
,
2002
0000
0000
3003
,
1000
0100
0100
0010
,
0010
0001
0001
0100
,
0100
0010
0010
1000
,
1000
0001
0001
0010
,
0100
1000
0001
1000
,
0010
1000
0001
1000
,
0010
0001
0010
1000
,
0002
0000
0000
0003
,
0001
0011
0001
1001
,
0001
0101
0001
1001
,
2000
0000
3200
0000
0320
0000
0031
0100
,
0020
0000
2030
0000
3200
0000
0310
0100
,
1000
1010
1000
1001
,
1000
1100
1000
1001
,
0002
0203
0320
1030
,
2002
0000
0000
3003
,
1000
1100
0100
0101
,
0001
0011
0010
1010
,
0020
0000
2030
0000
3200
0000
0310
0001
,
0200
0000
0320
0000
2030
0000
3100
0010
,
0001
0101
0100
1100
,
1000
1010
0010
0011
,
2002
0000
0000
3003
,
0002
0203
2300
3020
,
0032
0100
0100
0000
1000
1000
1003
0000
,
0002
0010
0010
0000
1000
1000
1003
0000
,
2000
0100
0100
0000
0001
0001
3001
0000
,
2000
0010
0010
0000
0001
0001
3001
0000
,
1000
0100
0010
0001
,
0100
0010
1000
0001
,
0010
0001
0100
0010
,
1000
0100
1000
0001
,
0100
0010
0100
0010
,
1000
0100
0010
0001
,
1000
0100
0001
0100
,
2000
0000
0002
3003
,
0001
0100
0010
0100
,
1000
0100
0010
0100
,
0001
0010
0100
0010
,
1000
0010
0100
0010
,
0001
0001
1000
1000
,
0001
0001
1000
1000
,
0011
1010
0011
1010
,
0022
0000
0033
0000
0001
1000
0001
0000
,
0011
0000
1000
0100
1000
0000
0011
0000
,
1000
0010
0100
0001
,
1010
0000
0001
0100
0001
0000
1010
0000
,
0001
0010
0100
0010
,
1001
0000
0100
0010
0100
0000
1001
0000
,
1000
0010
0100
0001
,
1001
0100
1001
0010
,
2002
0000
3003
0000
1000
0001
1000
0000
,
1010
0000
0100
0001
0010
0000
1100
0000
,
0010
0001
0100
0001
,
0011
0000
0100
1000
0010
0000
0101
0000
,
0010
1000
0100
0010
,
1001
0000
0100
0010
0100
0000
1001
0000
,
0001
0100
0010
1000
,
1001
0100
1001
0010
,
2002
0000
0000
3003
0000
0000
0000
0000
0220
0000
0000
0330
0000
0000
0000
0000
,
2002
0000
0000
0000
,
0000
0000
0000
0000
0000
0000
0000
0000
0000
0000
0000
0000
3000
0000
0000
0003
;

//---------------dance-single - ----------------
#NOTEDATA:;
#CHARTNAME:;
#STEPSTYPE:dance-single;
#DESCRIPTION:;
#CHARTSTYLE:;
#DIFFICULTY:Beginner;
#METER:4;
#RADARVALUES:0.217127,0.360499,0.135990,0.135990,0.000000,190.000000,173.000000,17.000000,17.000000,0.000000,0.000000,0.000000,0.000000,0.000000,0.217127,0.360499,0.135990,0.135990,0.000000,190.000000,173.000000,17.000000,17.000000,0.000000,0.000000,0.000000,0.000000,0.000000;
#CREDIT:;
#OFFSET:-0.029721;
#BPMS:0.000000=160.000000
;
#STOPS:;
#DELAYS:;
#WARPS:;
#TIMESIGNATURES:0.000000=4=4
;
#TICKCOUNTS:0.000000=4
;
#COMBOS:0.000000=1
;
#SPEEDS:0.000000=1.000000=0.000000=0
;
#SCROLLS:0.000000=1.000000
;
#FAKES:;
#LABELS:0.000000=Song Start
;
#NOTES:
0000
0000
0000
0000
,
0000
0000
0000
0000
,
0000
0000
0000
0000
,
0000
0000
0000
0000
,
1001
0000
1000
0000
,
1001
0000
0001
0000
,
1001
0000
0110
0000
,
1001
0000
0000
0000
,
2002
0000
0000
0000
,
3003
0000
0000
0000
,
2000
0000
0000
0000
,
3000
0000
0000
0000
,
0002
0000
0000
0000
,
0003
0000
0000
0000
,
2000
0000
0000
0000
,
3000
0000
0000
0000
,
0001
0000
0001
0000
,
0010
0000
0010
0000
,
1000
0000
1000
0000
,
0100
0000
0100
0000
,
0001
0001
0001
0000
,
1000
1000
1000
0000
,
0001
1000
0001
1000
,
0001
0000
0000
0000
,
0001
0010
0001
0000
,
0001
0100
0001
0000
,
1000
1000
1000
1000
,
0001
0001
0001
0001
,
1000
0010
1000
0000
,
1000
0100
1000
0000
,
0010
0010
0010
0010
,
0010
0000
0000
0000
,
1000
0100
0010
0000
,
0010
0001
0100
0000
,
0010
0010
0010
0010
,
1000
1000
1000
1000
,
0001
0100
0010
0000
,
0010
1000
0100
0000
,
0200
0000
0300
0000
,
0010
0100
0010
0100
,
0020
0000
0030
0000
,
0002
0000
0003
0000
,
0200
0000
0300
0000
,
0020
0000
0030
0000
,
2000
0000
3000
0000
,
0200
0000
0300
0000
,
0020
0000
0030
0000
,
0002
0000
0003
0000
,
1000
0010
0100
0000
,
0010
0100
0001
0000
,
0100
0010
1000
0000
,
0100
0010
0001
0000
,
1000
0000
1000
0000
,
0001
0000
0001
0000
,
1000
0001
1000
0001
,
2000
0000
3000
0000
,
0001
0000
0001
0000
,
0100
0000
0100
0000
,
1000
0000
1000
0000
,
0010
0000
0010
0000
,
0001
0000
1000
0000
,
0001
0000
1000
0000
,
0001
1000
0001
1000
,
0001
0000
1001
0000
,
1000
0010
1000
0000
,
0010
1000
0100
0000
,
0010
0100
0010
0000
,
0100
1000
0010
0000
,
0100
0001
0100
0000
,
0001
0010
0100
0000
,
1001
0000
0110
0000
,
1001
1001
1001
0000
,
0001
0010
0001
0000
,
0010
0001
0100
0000
,
0010
0100
0010
0000
,
0100
0001
0010
0000
,
0100
1000
0100
0000
,
1000
0010
0100
0000
,
1001
0000
0110
0000
,
1001
0000
0110
0000
,
2002
0000
0000
0000
,
0000
0000
0000
0000
0000
0000
0000
0000
0000
0000
0000
0000
3000
0000
0000
0003
;
