#TITLE:Rampage;
#SUBTITLE:;
#ARTIST:Virtual Riot;
#TITLETRANSLIT:;
#SUBTITLETRANSLIT:;
#ARTISTTRANSLIT:;
#GENRE:Drum & Bass;
#CREDIT:;
#BANNER:Rampage.png;
#BACKGROUND:Rampage-bg.png;
#LYRICSPATH:;
#CDTITLE:cdtitle.png;
#MUSIC:Rampage.ogg;
#OFFSET:-0.000350;
#SAMPLESTART:22.069315;
#SAMPLELENGTH:11.014484;
#SELECTABLE:YES;
#BPMS:0.000000=174.000000
;
#STOPS:
;
#BGCHANGES:;
#KEYSOUNDS:;
#ATTACKS:;

//---------------dance-single - ----------------
#NOTES:
     dance-single:
     :
     Challenge:
     16:
     0.722648,0.889775,0.461365,0.494319,0.712644,614.000000,558.000000,56.000000,60.000000,0.000000,0.000000,0.722648,0.889775,0.461365,0.494319,0.712644,614.000000,558.000000,56.000000,60.000000,0.000000,0.000000:
0000
0000
0000
0000
,
0000
0000
0000
0000
,
0000
0000
0000
0000
,
0000
0000
0000
0000
,
2000
0000
0000
0000
,
0000
0000
0000
0000
,
3200
0000
0000
0000
,
0320
0000
0000
0000
,
0031
0010
0001
0000
0100
0001
0100
0000
,
1000
0100
1000
0000
0010
1000
0010
0000
,
0001
0010
0001
0000
0010
1000
0010
0000
,
1000
0100
1000
0000
0100
0001
0100
0000
,
0001
0000
0000
0010
0000
0010
0000
0000
1000
0000
0000
0100
0000
0100
0000
0000
,
1000
0000
0000
0010
0000
0010
0000
0000
0001
0000
0000
0100
0000
0100
0000
0000
,
0010
0000
0000
1000
0000
0100
0000
0000
0010
0000
0000
0001
0000
0100
0000
0000
,
0120
0000
0000
0000
0000
0000
0000
0000
0130
0000
0100
0000
0001
1000
0100
0010
,
0001
0100
0001
0000
1000
0000
0100
1000
0100
1000
0100
0000
0010
0000
0001
0100
,
0001
0100
0001
0000
0010
0000
0100
1000
0100
1000
0100
0000
0010
0000
0001
0100
,
0010
0000
1000
0100
0010
0000
0001
0100
0010
0100
0010
0000
1000
0000
0010
1000
,
0001
0010
0100
0000
0010
0000
0100
1000
0001
0100
0010
0000
0100
0000
0010
1000
,
0002
0000
0003
0000
0012
0000
0003
1002
0000
0003
0100
0000
0102
0000
0000
0000
,
1003
0000
0001
0000
0012
0000
0003
1002
0000
0003
0100
0000
0110
0000
0000
0000
,
2001
0000
3000
0000
2010
0000
3000
2001
0000
3000
0100
0000
2100
0000
0000
0000
,
3001
0000
1000
0000
2010
0000
3000
2001
0000
3000
0001
0100
0001
0000
1000
0100
,
1000
0010
1000
0000
0001
0000
0010
0001
0010
0001
0010
0000
0100
0000
1000
0010
,
1000
0010
1000
0000
0100
0000
0010
0001
0010
0001
0010
0000
0100
0000
0010
0001
,
0100
0000
0010
1000
0100
0000
0010
0001
0100
0001
0100
0000
0010
0000
1000
0010
,
0100
0001
0010
0000
0001
0000
0010
0001
0100
0010
1000
0000
0001
0000
1000
0100
,
0020
0000
0030
0000
0120
0000
0030
0021
0000
0030
0001
0000
0200
0000
0000
1000
,
0000
0000
0310
0000
2010
0000
3000
2001
0000
3000
0100
0000
1000
0000
0010
0000
,
1020
0000
0030
0000
0120
0000
0030
1020
0000
0030
1000
0000
0200
0000
0000
0310
,
0001
0000
0000
0000
1000
0000
0000
0000
0100
0000
0000
0000
0001
0000
0000
0000
0100
0000
0000
0000
1000
0000
0000
0000
0010
0000
0000
0000
0000
0000
0000
0000
0000
0100
0000
0000
0000
0000
0000
0000
0000
0000
0001
0000
0000
0000
0000
0000
,
1002
0000
0000
0000
,
0000
0000
0000
0000
,
0023
0000
0000
0000
,
0230
0000
0000
0000
,
2300
0001
0001
0001
0000
0001
0100
0000
,
0000
0001
0001
0001
0000
0001
0010
0000
,
3002
1000
1000
1000
0000
1000
0103
0000
,
0002
1000
1000
1000
0000
1000
0013
0000
,
0001
0000
0010
0000
0011
0000
1000
0001
0100
0000
0001
0000
0101
0000
1000
0001
,
0010
0000
0001
0000
0011
0000
1000
0001
0100
0000
0001
0000
0110
0000
0000
0001
,
1000
0000
0010
0000
1010
0000
0001
1000
0100
0000
1000
0000
1100
0000
0001
1000
,
0010
0000
1000
0000
1010
0000
0001
1000
0100
0000
0010
0000
0110
0000
0000
0000
,
0001
0001
0100
0100
0010
0010
1000
1000
,
0001
0010
1000
0010
0001
0100
1000
0100
,
0001
0010
0001
0010
0100
1000
0100
1000
0001
1000
0100
0010
0001
1000
0001
0100
,
0020
0000
0000
0000
0000
0000
0000
0000
0130
0000
0001
0100
0010
1000
0100
0010
,
0001
0100
0001
1000
0000
0001
0010
0001
0100
0001
0000
1000
0000
0001
0010
0001
,
0100
0001
0000
1000
0000
0001
0010
0001
0100
0001
0000
1000
0000
0001
0010
0001
,
1000
0010
0100
0010
0000
1000
0010
0100
0010
0001
0000
0010
0000
1000
0000
0100
,
0010
0100
0000
0001
0000
0100
0001
0100
0010
0100
0000
1000
0000
0010
1000
0100
,
0010
0000
0001
0100
0001
0000
0010
0000
0010
0000
1000
0100
1000
0000
0010
0000
,
0010
0000
0001
0100
0001
0000
0010
0000
0010
0000
1000
0100
0020
0000
0030
0000
,
0011
0011
0100
1000
1010
1010
0100
0001
,
2000
0100
3002
0100
1003
0010
1001
0000
,
1000
0100
1000
0001
0000
1000
0010
1000
0100
1000
0000
0001
0000
1000
0010
1000
,
0100
1000
0000
0001
0000
1000
0010
1000
0100
1000
0000
0001
0000
1000
0010
1000
,
0001
0010
0100
0010
0000
0001
0010
0100
0010
1000
0000
0010
0000
0001
0000
0100
,
0010
0100
0000
1000
0000
0100
1000
0100
0010
0100
0000
0001
0000
0010
0001
0100
,
0010
0000
1000
0010
1000
0000
1020
0000
0130
0000
0001
0010
0001
0000
0021
0000
,
0130
0000
1000
0010
1000
0000
1020
0000
0130
0000
0001
0010
0200
0000
0000
0000
,
4000
0000
0000
0000
,
3300
0000
0000
0000
0000
0000
0000
0000
1000
0000
0001
0010
0100
1000
0010
0100
,
0002
0000
0000
0100
0000
0000
1003
0000
2002
0000
0000
0000
3003
0000
0000
0000
,
0002
0000
0000
0100
0000
0000
1003
0000
1100
0000
0000
0000
0011
0000
0000
0000
,
0002
0000
0000
0100
0000
0000
1003
0000
2020
0000
0000
0000
3030
0000
0000
0000
,
0001
0000
0001
0000
0101
1000
0100
0000
,
0210
0000
0000
1000
0000
0000
0310
0000
0001
0000
0100
0000
0100
0000
0000
0000
,
0210
0000
0000
0001
0000
0000
0310
0000
1000
0000
0001
0010
0100
0000
0100
0000
,
0210
0000
0000
1000
0000
0000
0310
0000
0001
0000
0100
0000
0100
0000
0010
0000
,
1000
0100
0010
0000
0001
0100
0010
0000
0100
0001
0010
0000
0100
1000
0010
0000
,
2000
0000
0000
0100
0000
0000
3001
0000
2002
0000
0000
0000
3003
0000
0000
0000
,
2000
0000
0000
0100
0000
0000
3001
0000
0101
0000
0000
0000
1010
0000
0000
0000
,
2000
0000
0000
0100
0000
0000
3001
0000
0022
0000
0000
0000
0033
0000
0000
0000
,
1000
0000
1000
0000
1100
0001
0100
0000
,
0210
0000
0000
0001
0000
0000
0310
0000
1000
0000
0100
0000
0100
0000
0000
0000
,
0210
0000
0000
1000
0000
0000
0310
0000
0001
0000
1000
0010
0100
0000
0100
0000
,
0210
0000
0000
0001
0000
0000
0310
0000
1000
0000
0100
0000
0100
0000
0010
0000
,
0001
0000
1100
0010
0000
0101
0010
0000
,
0110
0000
0000
0000
;

//---------------dance-single - ----------------
#NOTES:
     dance-single:
     :
     Hard:
     11:
     0.437826,0.560229,0.255398,0.255398,0.032955,372.000000,341.000000,31.000000,31.000000,0.000000,0.000000,0.437826,0.560229,0.255398,0.255398,0.032955,372.000000,341.000000,31.000000,31.000000,0.000000,0.000000:
// measure 0
0000
0000
0000
0000
,  // measure 1
0000
0000
0000
0000
,  // measure 2
0000
0000
0000
0000
,  // measure 3
0000
0000
0000
0000
,  // measure 4
2000
0000
0000
0000
,  // measure 5
0000
0000
0000
0000
,  // measure 6
3200
0000
0000
0000
,  // measure 7
0320
0000
0000
0000
,  // measure 8
0031
0001
0100
0100
,  // measure 9
1000
1000
0010
0010
,  // measure 10
1000
1000
0100
0100
,  // measure 11
0001
0001
0010
0010
,  // measure 12
0002
0100
1000
0010
,  // measure 13
2003
0100
0001
0010
,  // measure 14
3002
0023
2030
3200
,  // measure 15
0002
0000
0000
0303
,  // measure 16
1000
0100
0000
0100
0010
0001
0000
0001
,  // measure 17
1000
0010
0000
0010
0100
0001
0000
0011
,  // measure 18
0000
1100
0000
0001
0100
0010
0000
0010
,  // measure 19
1000
0100
0000
0100
0010
0001
0100
0010
,  // measure 20
1000
0000
0000
0000
1000
0000
0000
1000
0000
0000
0010
0000
0110
0000
0000
0000
,  // measure 21
1000
0000
0010
0000
1000
0000
0000
1000
0000
0000
0200
0000
0320
0000
0000
0000
,  // measure 22
0031
0000
0000
0000
0001
0000
0000
0001
0000
0000
0010
0000
0110
0000
0000
0000
,  // measure 23
0001
0000
0010
0000
0001
0000
0000
0001
0000
0000
1000
0000
0001
0000
1000
0000
,  // measure 24
0001
0100
0000
0100
0010
1000
0000
1000
,  // measure 25
0100
0001
0000
0001
0100
1000
0000
1010
,  // measure 26
0000
0101
0000
1000
0010
0001
0000
0001
,  // measure 27
0010
1000
0000
1000
0100
0010
0001
1000
,  // measure 28
0010
0000
0000
0000
0010
0000
0000
0010
0000
0000
0000
0000
0110
0000
0000
2002
,  // measure 29
0000
0000
3003
0000
0100
0000
0000
0100
0000
0000
0000
0000
1000
0000
0001
0000
,  // measure 30
1000
0000
0000
0000
0001
0000
0000
1000
0000
0000
0000
0000
0011
0000
0000
0000
,  // measure 31
2200
0000
0000
3300
,  // measure 32
0002
0000
0000
0000
,  // measure 33
0000
0000
0000
0000
,  // measure 34
0203
0000
0000
0000
,  // measure 35
0320
0000
0000
0000
,  // measure 36
2030
0001
0000
0001
,  // measure 37
0000
0001
0000
0001
,  // measure 38
3200
1000
0000
1000
,  // measure 39
0320
0001
0000
0001
,  // measure 40
0130
1000
0001
0000
0100
0001
1000
0000
,  // measure 41
0100
1000
0001
0000
0100
0001
1000
0000
,  // measure 42
0100
0010
0001
0000
0100
0010
1000
0000
,  // measure 43
0100
0010
0001
0000
0100
0010
1000
0000
,  // measure 44
0001
0001
0010
0010
,  // measure 45
0100
0100
1000
1000
,  // measure 46
0001
0010
0100
1000
0001
0010
0100
1000
,  // measure 47
0020
0000
0000
0000
0130
0001
0001
0000
,  // measure 48
1000
0100
1000
0000
1000
0010
1000
0000
,  // measure 49
0001
0100
0001
0000
0001
0010
0001
0000
,  // measure 50
1000
0010
0001
0000
0001
0010
1000
0100
,  // measure 51
0000
0100
0001
0000
0001
0100
1000
0000
,  // measure 52
0110
0000
0001
0010
0110
0000
1000
0010
,  // measure 53
0110
0000
0001
0010
0110
0000
2000
0000
,  // measure 54
3001
0100
0000
0100
1000
0100
0000
0100
,  // measure 55
0002
0000
0023
0000
0130
1000
1001
0000
,  // measure 56
0001
0100
0001
0000
0100
1000
0100
0000
,  // measure 57
1000
0010
1000
0000
0010
0001
0010
0000
,  // measure 58
0001
0100
1000
0000
1000
0100
0001
0010
,  // measure 59
0000
0010
1000
0000
1000
0010
0001
0000
,  // measure 60
1100
0000
0001
0010
0011
0000
1000
0010
,  // measure 61
1010
0000
0001
0010
0011
0000
1002
0000
,  // measure 62
0400
0000
0000
0000
,  // measure 63
0303
0000
0000
0000
1000
0100
0010
0001
,  // measure 64
1000
0000
1000
0010
0200
0000
0300
0000
,  // measure 65
1000
0000
1000
0010
0110
0000
0001
0000
,  // measure 66
1000
0000
1000
0100
0020
0000
0030
0000
,  // measure 67
0100
0000
0100
0000
0011
0001
0100
0000
,  // measure 68
1000
0000
0100
0001
0010
0000
0011
0000
,  // measure 69
1000
0000
0100
1000
0010
1000
0100
0000
,  // measure 70
0001
0000
0100
1000
0010
1000
1000
0000
,  // measure 71
1100
0011
0101
1010
,  // measure 72
0001
0000
0001
0010
0200
0000
0300
0000
,  // measure 73
0001
0000
0001
0010
0110
0000
1000
0000
,  // measure 74
0001
0000
0001
0100
0020
0000
0030
0000
,  // measure 75
0100
0000
0100
0000
1010
1000
0100
0000
,  // measure 76
0001
0000
0100
1000
0010
0000
1010
0000
,  // measure 77
0001
0000
0100
0001
0010
0001
0100
0000
,  // measure 78
1000
0000
0100
0001
0010
0001
0001
0000
,  // measure 79
1000
0000
0001
0100
0000
0100
1000
0000
,  // measure 80
1001
0000
0000
0000
;

//---------------dance-single - ----------------
#NOTES:
     dance-single:
     :
     Medium:
     8:
     0.334254,0.461365,0.271876,0.354262,0.000000,284.000000,251.000000,33.000000,43.000000,0.000000,0.000000,0.334254,0.461365,0.271876,0.354262,0.000000,284.000000,251.000000,33.000000,43.000000,0.000000,0.000000:
0000
0000
0000
0000
,
0000
0000
0000
0000
,
0000
0000
0000
0000
,
0000
0000
0000
0000
,
2000
0000
0000
0000
,
0000
0000
0000
0000
,
3200
0000
0000
0000
,
0320
0000
0000
0000
,
0031
0000
1000
0000
,
0001
0000
1000
0000
,
0100
0000
0010
0000
,
0100
0000
0010
0000
,
0002
0000
0203
0000
,
0320
0000
2030
0000
,
3002
0203
0320
2030
,
0002
0000
0000
3003
,
1000
0100
1000
0100
,
0010
0100
0010
0100
,
0001
0100
0001
0100
,
0010
0100
0010
0100
,
1000
1000
1000
1100
,
0001
0001
0001
0110
,
0001
0001
0001
0101
,
1000
1000
1000
1001
,
0001
0100
0001
0100
,
0010
0100
0010
0100
,
1000
0100
1000
0100
,
0010
0100
0010
0100
,
0001
0010
0001
0011
,
1000
0010
1000
1010
,
0001
0010
0100
1000
,
0040
0000
0030
0000
,
2001
0000
0000
0000
,
0000
0000
0000
0000
,
3200
0000
0000
0000
,
0320
0000
0000
0000
,
0032
0000
0000
0000
,
0000
0000
0000
0000
,
0203
0000
0000
0000
,
0320
0000
0000
0000
,
1030
1010
1000
1010
,
0001
0101
0001
0101
,
1000
1100
1000
1100
,
0001
0011
0001
0011
,
1000
1000
0001
0001
,
1000
0001
1000
0001
,
2000
3200
0320
0032
,
2000
0000
3003
0000
1000
0001
1000
0000
,
0001
0000
0101
0000
0000
1000
0100
0000
,
0000
0001
0100
0000
0000
0001
0010
0000
,
0100
0000
0110
0000
0000
1000
0100
1000
,
0000
0001
0100
0000
0000
0010
1000
0000
,
1001
0100
1001
0100
,
1001
0000
0100
0000
1000
0001
1000
0000
,
0002
0010
2003
0010
,
3001
0000
0010
0000
0100
0010
0100
0000
,
1000
0000
1010
0000
0000
0001
0010
0000
,
0000
1000
0100
0000
0000
0001
0100
0000
,
1000
0000
1001
0000
0000
0001
0100
0001
,
0000
1000
0100
0000
0000
0010
0001
0000
,
0101
0010
1100
0010
,
0101
0010
1100
0010
,
2002
0000
0000
0000
,
3003
0000
0000
0000
0001
1000
0001
0000
,
2000
0100
0002
3003
,
2000
0100
3001
0011
,
0002
0100
2000
3003
,
1000
0000
0010
0000
1000
0010
1000
0000
,
0200
0000
1000
0000
0310
0001
0010
0000
,
0200
0000
0010
0000
1300
0100
1000
0000
,
0200
0000
0001
0000
0310
0100
0010
0000
,
0001
0100
0010
1000
,
0002
0100
2000
3003
,
0002
0100
1003
1010
,
2000
0100
0002
3003
,
0001
0000
0010
0000
0001
0010
0001
0000
,
0200
0000
0001
0000
0310
1000
0010
0000
,
0200
0000
0010
0000
0301
0100
0001
0000
,
0200
0000
1000
0000
0310
0100
0010
0000
,
1010
0000
0000
1001
0000
0000
0011
0000
,
0110
0000
0000
0000
;

//---------------dance-single - ----------------
#NOTES:
     dance-single:
     :
     Easy:
     6:
     0.271876,0.395456,0.247160,0.420172,0.000000,231.000000,201.000000,30.000000,51.000000,0.000000,0.000000,0.271876,0.395456,0.247160,0.420172,0.000000,231.000000,201.000000,30.000000,51.000000,0.000000,0.000000:
0000
0000
0000
0000
,
0000
0000
0000
0000
,
0000
0000
0000
0000
,
0000
0000
0000
0000
,
2000
0000
0000
0000
,
0000
0000
0000
0000
,
3200
0000
0000
0000
,
0320
0000
0000
0000
,
0031
0000
0001
0000
,
1000
0000
1000
0000
,
0010
0000
0010
0000
,
0100
0000
0100
0000
,
0002
0000
2003
0000
,
3002
0000
2003
0000
,
3002
2003
3002
2003
,
0002
0000
0000
3003
,
1000
1100
0000
1100
,
0001
0101
0000
0101
,
1000
1010
0000
1010
,
0001
0101
0000
0101
,
1000
0100
1000
0000
,
0001
0100
0001
0000
,
1000
0010
1000
0000
,
0001
0010
0001
0000
,
0001
0101
0000
0101
,
1000
1100
0000
1100
,
0001
0011
0000
0011
,
1000
1100
0000
1100
,
0001
0100
0010
0000
,
1000
0100
0010
0000
,
0001
0100
0010
1000
,
0200
0000
0300
0000
,
1002
0000
0000
0000
,
0000
0000
0000
0000
,
0203
0000
0000
0000
,
0320
0000
0000
0000
,
2030
0000
0000
0000
,
0000
0000
0000
0000
,
3200
0000
0000
0000
,
0320
0000
0000
0000
,
0031
0001
0100
0100
,
1000
1000
0010
0010
,
1000
1000
0100
0100
,
0001
0001
0010
0010
,
0001
1000
0001
1000
,
0010
0100
0010
0100
,
0002
0023
0230
2300
,
0002
0000
3003
0000
,
0001
0100
0001
0100
,
0010
1000
0010
1000
,
0001
0100
1000
0100
,
0010
0100
1000
0100
,
0002
0003
0002
0003
,
0002
0003
0001
0011
,
2000
3000
2000
3000
,
1000
0010
0100
0001
,
1000
0100
1000
0100
,
0010
0001
0010
0001
,
1000
0100
0001
0100
,
0010
0100
0001
0100
,
2000
3000
2000
3000
,
2000
3000
1000
1010
,
0002
0000
0000
0000
,
0003
0000
0001
1000
,
0001
0000
0202
0303
,
0001
0000
0010
0001
,
0100
0000
2020
3030
,
1000
0100
0010
0001
,
2000
3000
1000
1010
,
0002
0003
0001
0011
,
2000
3000
1000
1001
,
2000
3200
0320
0032
,
1003
0000
2200
3300
,
1000
0000
0010
1000
,
0100
0000
0022
0033
,
0001
0100
0010
1000
,
0002
0003
0001
0101
,
2000
3000
1000
1100
,
0002
0003
0001
1001
,
0100
0000
0000
0100
0000
0000
0100
0000
,
1001
0000
0000
0000
;

//---------------dance-single - ----------------
#NOTES:
     dance-single:
     :
     Beginner:
     3:
     0.165950,0.230682,0.008239,0.057671,0.000000,141.000000,140.000000,1.000000,7.000000,0.000000,0.000000,0.165950,0.230682,0.008239,0.057671,0.000000,141.000000,140.000000,1.000000,7.000000,0.000000,0.000000:
0000
0000
0000
0000
,
0000
0000
0000
0000
,
0000
0000
0000
0000
,
0000
0000
0000
0000
,
1000
0000
0000
0000
,
0000
0000
0000
0000
,
0100
0000
0000
0000
,
0010
0000
0000
0000
,
0001
0000
0001
0000
,
0001
0000
0001
0000
,
1000
0000
1000
0000
,
1000
0000
1000
0000
,
0001
0000
0001
0000
,
1000
0000
1000
0000
,
0001
0000
1000
0000
,
0002
0000
0003
0000
,
0100
0000
0100
0000
,
0100
0000
0100
0000
,
0010
0000
0010
0000
,
0010
0000
0010
0000
,
1000
1000
1000
0000
,
0001
0001
0001
0000
,
1000
1000
1000
0000
,
0001
0001
0001
0000
,
0010
0000
0010
0000
,
0010
0000
0010
0000
,
0100
0000
0100
0000
,
0100
0000
0100
0000
,
1000
1000
1000
0000
,
0001
0001
0001
0000
,
1000
1000
1000
0000
,
0020
0000
0030
0000
,
1000
0000
0000
0000
,
0000
0000
0000
0000
,
0100
0000
0000
0000
,
0010
0000
0000
0000
,
0001
0000
0000
0000
,
0000
0000
0000
0000
,
0100
0000
0000
0000
,
0010
0000
0000
0000
,
1000
0000
0100
0000
,
1000
0000
0100
0000
,
0010
0000
0001
0000
,
0010
0000
0001
0000
,
1000
0000
1000
0000
,
0001
0000
0001
0000
,
1000
0000
0001
0000
,
2000
0000
3000
0000
,
0001
0000
0100
0000
,
0010
0000
1000
0000
,
0100
0000
1000
0000
,
0010
0000
0100
0000
,
0001
0000
0001
0000
,
0001
0000
0001
0001
,
0001
0000
1000
0000
,
0001
0001
0001
0000
,
1000
0000
0100
0000
,
0010
0000
0001
0000
,
0100
0000
0001
0000
,
0010
0000
0100
0000
,
1000
0000
0001
0000
,
1000
0000
0001
0001
,
0002
0000
0000
0000
,
0003
0000
0000
0000
,
1000
0000
1000
0000
,
0010
0000
0010
0000
,
1000
0000
1000
0000
,
0200
0000
0300
0000
,
1000
0000
0001
0000
,
1000
0000
0001
0000
,
1000
0000
0001
0000
,
0010
0010
0010
0000
,
0001
0000
0001
0000
,
0010
0000
0010
0000
,
0001
0000
0001
0000
,
0200
0000
0300
0000
,
0001
0000
1000
0000
,
0001
0000
1000
0000
,
0001
0000
1000
0000
,
0020
0000
0030
0000
,
1001
0000
0000
0000
;
