#VERSION:0.83;
#TITLE:ROZA DE ANDALUCIA;
#SUBTITLE:;
#ARTIST:SOUND HOLIC Vs. T.Kakuta feat. Nana Takahashi;
#TITLETRANSLIT:;
#SUBTITLETRANSLIT:;
#ARTISTTRANSLIT:;
#GENRE:Melodic Speed Metal;
#ORIGIN:;
#CREDIT:;
#BANNER:ROZA DE ANDALUCIA.png;
#BACKGROUND:ROZA DE ANDALUCIA-bg.png;
#PREVIEWVID:;
#JACKET:ROZA DE ANDALUCIA-jacket.png;
#CDIMAGE:;
#DISCIMAGE:;
#LYRICSPATH:;
#CDTITLE:cdtitle.png;
#MUSIC:ROZA DE ANDALUCIA.ogg;
#OFFSET:-0.267650;
#SAMPLESTART:44.239708;
#SAMPLELENGTH:20.084705;
#SELECTABLE:YES;
#BPMS:0.000=191.000;
#STOPS:44.000=0.314,
75.000=0.314,
138.000=0.314,
193.000=0.314,
280.000=0.314,
335.000=0.314;
#DELAYS:;
#WARPS:;
#TIMESIGNATURES:0.000=4=4;
#TICKCOUNTS:0.000=4;
#COMBOS:0.000=1;
#SPEEDS:0.000=1.000=0.000=0;
#SCROLLS:0.000=1.000;
#FAKES:;
#LABELS:0.000=Song Start;
#BGCHANGES:;
#KEYSOUNDS:;
#ATTACKS:
;

//---------------dance-single - ----------------
#NOTEDATA:;
#CHARTNAME:;
#STEPSTYPE:dance-single;
#DESCRIPTION:;
#CHARTSTYLE:;
#DIFFICULTY:Challenge;
#METER:19;
#RADARVALUES:1.347465,1.256194,0.345685,0.238687,1.765461,1146.000000,1104.000000,42.000000,29.000000,0.000000,0.000000,0.000000,0.000000,0.000000,1.347465,1.256194,0.345685,0.238687,1.765461,1146.000000,1104.000000,42.000000,29.000000,0.000000,0.000000,0.000000,0.000000,0.000000;
#CREDIT:;
#NOTES:
0000
0000
0000
0000
,
0000
0000
0000
0000
,
1000
0001
1000
0001
1000
0001
1000
0001
1000
0000
0000
1001
0000
0000
0110
0000
,
1001
0000
0001
0010
0100
1000
0100
1000
0001
0100
0001
0100
0001
1000
0010
0100
,
0001
1000
0100
1000
0100
1000
0001
1000
0100
1000
0001
1000
0010
1000
0001
1000
,
0100
0010
0001
0010
0100
0010
0001
0100
0010
0100
0001
0100
0010
0100
0001
0010
,
0100
1000
0100
0010
0100
0010
0001
1000
0010
0100
0001
1000
0100
0010
0001
1000
,
0010
0100
0010
0100
0010
1000
0010
1000
0001
0010
0001
0010
0100
0010
0100
0010
,
0001
1000
0100
1000
0100
1000
0001
1000
0100
1000
0001
1000
0010
1000
0001
1000
,
0100
0010
0001
0010
0100
0010
0001
0100
0010
0100
0001
0100
0010
0100
0001
1000
,
0100
0010
0001
1000
0001
1000
0010
0100
0001
1000
0001
1000
0100
0010
0001
1000
,
0010
0000
0000
0000
1000
0010
1000
0001
0010
0001
1000
0010
1000
0000
1000
0000
,
0100
0010
0001
0100
0010
1000
0001
0001
,
0010
0100
1000
0010
0100
0001
1000
1000
,
0010
1000
0100
0001
0100
1000
0001
0001
,
0010
0001
0100
1000
0100
0001
1000
1000
,
0100
0010
1000
0010
0001
1000
0001
0001
,
0100
0000
0010
0000
0001
0000
0000
0010
0000
0000
1000
0000
0100
0000
0100
0000
,
1000
0000
0100
0000
0010
0000
0001
0000
0100
0000
0010
1000
0001
0000
0000
0000
,
2002
0000
3003
0000
1000
0000
0100
0000
0010
0000
0001
0000
1000
0010
1000
0010
,
1000
0000
0001
0000
1000
0100
1000
0100
1000
0000
0001
0000
0100
0000
1000
0000
,
0100
0000
0001
0000
0010
0000
1000
0000
0010
0000
0001
0000
0010
0100
0010
0000
,
0001
1000
0001
1000
0010
0000
0010
0000
0100
0000
0001
0000
1000
0100
1000
0100
,
1000
0000
0001
0100
0001
0000
1000
0100
0010
0001
0010
0001
0100
0001
0100
0001
,
1000
0010
1000
0010
1000
0100
1000
0100
1000
0001
1000
0001
0100
0010
1000
0001
,
0010
0000
0000
0110
0000
0000
0010
0100
0010
0000
0001
0000
0001
0000
0100
0000
,
1000
0000
0100
0000
0010
0000
1000
0000
0001
0010
0001
0010
0100
0000
1000
0000
,
0001
0000
0000
0000
0010
0000
0000
0000
0100
0000
0000
0000
1000
0000
0000
0000
0010
0000
0000
0000
0100
0000
0000
0000
0001
0000
0000
0000
0000
0000
0000
0000
0000
0000
0000
0000
0001
0000
0000
0100
0000
0000
0001
0000
0000
0100
0000
0000
,
0001
0000
1000
0000
0000
0000
1000
0100
1000
0000
0001
0000
0100
0001
0100
0001
,
0010
0000
0100
0000
1000
0000
0001
0100
0010
0000
0000
0000
1000
0010
1000
0010
,
1000
0000
0001
0000
0000
0000
0001
0010
0001
0000
1000
0000
0010
0100
0010
0100
,
0001
1000
0010
1000
0001
0000
0010
0000
0100
0000
1000
0010
1000
0000
1000
0001
,
1000
0000
1000
0100
1000
0000
0001
0010
0001
0000
0001
1000
0001
0000
0001
0100
,
0001
0000
0000
0110
0000
0000
2010
0000
0000
3001
0010
0100
1000
0001
0100
0001
,
0100
0010
0100
0010
1000
0010
0100
0001
0010
0000
0000
0000
0010
0000
0100
1000
,
0001
1000
0100
1000
0001
0010
0001
0010
0001
0010
0001
0100
0001
0100
0001
0100
,
2000
0000
0000
0000
3100
0000
1000
0100
0010
0100
0001
1000
0100
0010
0100
1000
,
0001
0000
0001
0000
1000
0010
1000
0010
1000
0010
1000
0100
1000
0100
1000
0100
,
0002
0000
0000
0000
0103
0000
0001
0000
0100
0000
1000
0000
0001
0100
0010
1000
,
0001
0000
0010
0000
0100
0000
1000
0000
0001
0100
0010
0100
0001
0000
0010
0000
,
0100
1000
0001
0100
0010
0000
1000
0000
0100
1000
0010
1000
0100
0000
0010
0001
,
1000
0010
0100
0001
1000
0001
0100
0001
0010
0001
0100
0001
1000
0001
0010
0001
,
0100
0001
0010
0001
1000
0100
0010
0001
0100
0010
1000
0001
0010
0000
0000
1001
,
0000
0000
1010
0000
0001
0100
0001
0100
0001
0100
0001
0010
0001
0010
0001
0010
,
2000
0000
0000
0000
3010
0100
0010
0100
0010
0001
0010
0001
1000
0010
0100
0001
,
1000
0001
0100
0010
1000
0100
1000
0100
1000
0100
1000
0010
1000
0010
1000
0010
,
0002
0000
0000
0000
0013
0100
0010
0100
0010
1000
0010
1000
0001
0010
0100
1000
,
0001
1000
0100
0010
0001
0100
0001
0100
0010
0100
0010
0100
0010
1000
0010
1000
,
0001
0100
0010
1000
0100
0000
0100
0010
0001
0000
0000
1001
0000
0000
1010
0000
,
0001
0100
0010
0100
0010
0100
0010
0100
0001
0000
0000
1001
0000
0000
1100
0000
,
0001
0010
0100
1000
0001
1000
0100
0010
0001
0000
0100
0000
0010
0000
1000
0000
,
0001
0010
0100
0010
0001
0000
0100
0000
0010
0000
0100
0000
0001
0000
0010
0000
,
1000
0000
0000
0000
0000
0000
0010
0000
0100
0000
0010
0000
0100
0000
0000
0000
0000
0000
0010
0000
0000
0000
0000
0000
0001
0000
0000
0010
0000
0000
0100
0000
0000
1000
0000
0000
0010
0000
0000
0000
0000
0000
0100
0000
0000
0001
0000
0000
,
0010
0000
0000
0001
0000
0000
1000
0000
0000
0010
0000
0000
1000
0000
0000
0001
0000
0000
1000
0000
0000
0100
0000
0000
0010
0000
0000
0000
0000
0000
0100
0000
0000
1000
0000
0000
0010
0000
0000
0000
0000
0000
1000
0000
0100
0000
1000
0000
,
0100
0000
0001
0000
0100
0000
0010
0001
0100
0000
0110
0000
1010
0000
1001
0000
,
0011
0000
0001
0010
0001
1000
0001
0100
0001
0000
1000
0100
1000
0001
1000
0010
,
1000
0000
0001
0100
0001
1000
0001
0010
0001
0000
1000
0010
1000
0001
1000
0100
,
1000
0000
0001
0100
0010
1000
0010
0100
0001
0010
0100
1000
0010
0100
0001
1000
,
0100
0000
0010
0001
0100
0010
0100
0010
1000
0100
0010
0001
1000
0001
0010
0100
,
1000
0000
0001
0100
0010
0001
0010
0100
0001
0000
1000
0010
0100
1000
0100
0010
,
1000
0000
0001
0010
0100
0001
0100
0010
0001
0000
1000
0100
0010
1000
0010
0100
,
1000
0000
0001
0100
0010
1000
0100
0010
0001
0100
0001
1000
0100
0010
0100
0010
,
0002
0000
1003
0010
0002
0000
0013
1000
0001
0010
0001
0010
2000
0000
3010
0000
,
0012
1003
0001
1002
0103
0001
0102
1003
,
0001
0012
1003
0001
0101
0101
0110
1010
,
2010
3001
1000
2100
3001
1000
1020
0130
,
0001
0000
0021
0000
0130
0000
1000
0000
0001
0100
0010
1000
0100
0000
0010
0000
,
0012
0000
0000
0000
0103
0010
1000
0000
2010
0000
0000
0000
3100
0000
0010
0000
,
0012
0000
0000
0000
0103
0000
0010
0000
1000
0100
0010
0100
1000
0000
0001
0000
,
0100
0000
0000
0001
0000
0000
0100
0000
0000
0010
0000
0000
1000
0000
0000
0001
0000
0000
0010
0000
0000
0100
0000
0000
1000
0000
0000
0000
0010
0000
0000
0000
0010
0000
0000
0000
0001
0000
0000
0000
0100
0000
0000
0000
0100
0000
0000
0000
,
1000
0000
0000
0000
1001
0000
0001
0100
0010
1000
0100
0010
0002
0000
0100
0000
,
1003
0000
0002
0000
0010
0000
1003
0000
1001
0000
1000
0000
0001
0000
0100
0001
,
1000
0000
0100
1000
0001
0000
0100
0001
1000
0000
0001
0000
2000
0000
0100
0000
,
3001
0000
2000
0000
0010
0000
3001
0000
1001
0000
0001
0000
0010
0000
0001
1000
,
0010
1000
0001
0010
0001
1000
0010
0100
0001
1000
0100
0010
0002
0000
0000
0000
,
0003
0000
0000
0000
0011
0000
0010
0001
0010
0100
1000
0001
0100
0010
0100
0010
,
0100
0010
0100
0010
1000
0001
1000
0001
1000
0001
1000
0001
0010
0100
1000
0001
,
0100
0010
1000
0001
0010
0100
1000
0010
0100
0001
1000
0100
0010
0001
0100
0010
,
1000
0001
0010
0100
1000
0000
0000
1001
0000
0000
0101
0000
1000
0010
1000
0010
,
1000
0010
1000
0100
1000
0100
1000
0100
0002
0000
0000
0000
0103
0010
0100
0010
,
0100
1000
0100
1000
0001
0100
0010
1000
0001
1000
0010
0100
0001
0010
0001
0010
,
0001
0010
0001
0100
0001
0100
0001
0100
2000
0000
0000
0000
3100
0010
0100
0010
,
0100
0001
0100
0001
1000
0100
0010
0001
1000
0001
0010
0100
1000
0010
1000
0010
,
0100
0010
0100
0010
0100
0001
0100
0001
1000
0010
0100
0001
0010
0000
0010
0100
,
1000
0000
0000
1001
0000
0000
0101
0000
1000
0010
0100
0010
0100
0010
0100
0010
,
1000
0000
0000
1001
0000
0000
0011
0000
1000
0100
0010
0001
0100
0010
1000
0001
,
0010
0000
0100
0000
1000
0000
0001
0000
1000
0001
0100
0001
0100
0001
1000
0001
,
0100
0001
1000
0001
0010
0001
1000
0001
0100
0010
1000
0010
0100
0010
1000
0100
,
0010
0100
1000
0100
0010
0100
1000
0001
0100
0010
0100
0010
1000
0100
0010
0001
,
0100
0010
0100
0010
1000
0100
0010
0001
1000
0010
1000
0010
0100
0001
0010
0100
,
1000
0010
1000
0010
0100
0001
0010
0100
1000
0010
1000
0010
0001
0010
0001
0010
,
1000
0010
1000
0010
1000
0100
1000
0100
0001
0100
0010
0100
1000
0010
0100
0010
,
0002
0000
0003
0000
;

//---------------dance-single - ----------------
#NOTEDATA:;
#CHARTNAME:;
#STEPSTYPE:dance-single;
#DESCRIPTION:;
#CHARTSTYLE:;
#DIFFICULTY:Hard;
#METER:17;
#RADARVALUES:1.047636,1.103928,0.427991,0.518527,0.773675,891.000000,839.000000,52.000000,63.000000,0.000000,0.000000,0.000000,0.000000,0.000000,1.047636,1.103928,0.427991,0.518527,0.773675,891.000000,839.000000,52.000000,63.000000,0.000000,0.000000,0.000000,0.000000,0.000000;
#CREDIT:;
#NOTES:
0000
0000
0000
0000
,
0000
0000
0000
0000
,
0200
0000
0000
0000
0300
0000
0000
0000
1001
0000
0000
1001
0000
0000
0110
0000
,
1001
0000
0000
0000
0001
0010
0001
0000
0010
0100
0010
0000
0100
1000
0100
0000
,
2000
0000
0001
0000
3001
0000
1000
0010
1000
0000
0100
0000
0010
0000
0001
0000
,
1000
0100
0001
1000
0010
0100
0010
0001
,
1000
0000
0010
0100
0010
0000
1000
0000
0001
0010
0001
0010
0100
1000
0100
1000
,
0002
0003
0220
0330
2020
3030
2002
3003
,
0002
0000
1000
0000
1003
0000
0001
0010
0001
0000
0100
0000
0010
0000
1000
0000
,
0001
0100
1000
0001
0010
0100
0010
1000
,
0001
0010
0001
0000
1000
0000
0001
0100
0001
0000
1000
0000
0100
0010
0100
0010
,
0001
0000
0000
0000
0010
0000
0000
0010
0000
0000
0001
0000
1000
0000
1000
0000
,
0010
0100
0001
0010
0100
1000
0001
0001
,
0100
0010
1000
0100
0010
0001
1000
1000
,
0100
1000
0010
0001
0010
1000
0001
0001
,
0100
0001
0010
1000
0010
0001
1000
1000
,
0010
0100
1000
0100
0001
1000
0001
0001
,
0010
0000
0100
0000
0001
0000
0000
0100
0000
0000
1000
0000
0010
0000
0010
0000
,
1000
0000
0010
0000
0100
0000
0001
0000
0010
0000
0100
1000
0001
0000
0000
0000
,
2002
0000
3003
0000
1000
0000
0100
0000
0010
0000
0001
0000
1000
0010
1000
0010
,
1000
0000
0010
0000
1000
0010
1000
0010
1000
0000
0001
0000
0100
0000
1000
0000
,
0100
0000
0001
0000
0010
0000
1000
0000
0010
0000
0001
0000
0100
0010
0100
0000
,
0010
0100
0010
0100
0001
0000
1000
0000
0100
0000
0100
0000
0010
0100
0010
0100
,
0010
0000
0001
1000
0001
0000
0100
0000
0002
0000
0100
0000
0203
0000
0010
0000
,
0320
1000
2030
0100
3200
1000
0320
0031
,
0011
0000
0000
0110
0000
0000
0010
0001
1000
0000
0001
0000
0001
0000
0100
0000
,
1000
0100
0010
0220
0330
0001
0010
0100
,
1000
0000
0000
0000
0010
0000
0000
0000
0100
0000
0000
0000
0001
0000
0000
0000
0010
0000
0000
0000
0100
0000
0000
0000
1000
0000
0000
0000
0000
0000
0000
0000
0000
0000
0000
0000
0100
0000
0000
1000
0000
0000
0100
0000
0000
1000
0000
0000
,
0001
0000
0100
0000
0000
0000
0100
0001
0100
0000
0010
0000
1000
0010
1000
0000
,
0001
0000
0010
0000
0100
0000
1000
0000
0001
0000
0000
0000
0100
0001
0100
0001
,
1000
0000
0100
0000
0000
0000
0100
1000
0100
0000
0010
0000
0001
0010
0001
0000
,
1000
0000
0100
0000
0001
0000
0100
0000
1000
0000
0001
0100
0001
0000
1000
0001
,
1000
0000
0001
0010
0001
0000
1000
0100
1000
0000
0001
1000
0001
0000
1000
0010
,
1000
0000
0000
0110
0000
0000
0102
0000
0000
0000
0103
0000
0001
0000
1000
0000
,
0100
0000
0010
0000
0001
0100
0010
1000
0001
0000
0000
0000
0011
0000
0100
0000
,
1000
0000
0001
0000
0100
0001
0100
0001
0100
0001
1000
0001
1000
0001
1000
0001
,
0020
0000
0130
0010
0001
0100
1000
0100
,
0001
0000
0010
0000
0100
1000
0100
1000
0100
1000
0001
1000
0001
1000
0001
1000
,
0020
0000
0130
0010
1000
0100
0001
0100
,
1000
0000
0010
0000
0100
0000
0001
0000
1000
0100
1000
0100
1000
0000
0100
0000
,
0010
0001
0010
0001
0010
0000
0001
0000
1000
0010
1000
0010
1000
0000
0010
0000
,
0100
0001
0100
0001
1000
0000
0100
0000
0001
0000
1000
0000
0001
0000
0100
0000
,
1000
0000
0001
0000
1000
0000
0010
0000
0001
0000
0010
0000
1010
0000
0000
1001
,
0000
0000
0011
0000
0010
0001
0010
0001
0010
0001
0100
0001
0100
0001
0100
0001
,
2000
0000
3100
0010
0100
0001
1000
0010
,
0001
0000
1000
0000
0010
1000
0010
1000
0010
1000
0100
1000
0100
1000
0100
1000
,
0002
0000
0103
0010
0100
1000
0001
0010
,
1000
0001
0010
0010
0100
0100
0010
0001
,
0100
0000
0010
0000
1001
0000
0001
1000
0001
0000
0000
0110
0000
0000
1001
0000
,
1000
0100
0010
0100
0010
0100
0010
0100
1000
0000
0000
0110
0000
0000
1001
0000
,
2002
3003
0202
0303
1000
0010
0100
0001
,
0010
0100
1000
0100
0010
0000
0100
0000
1000
0000
0001
0000
0100
0000
0010
0000
,
1000
0000
0100
0010
0001
0000
1000
0000
0010
0000
0001
0000
0010
0000
1000
0000
,
0100
0010
0100
0010
0001
1000
0001
1000
0010
0000
1000
0010
0100
0000
0001
0010
,
0100
0000
1000
0000
0001
0000
1000
0010
0100
0000
0001
0000
0010
0000
0100
0000
,
1000
0000
0001
0100
0001
0100
0001
0100
0001
0000
0010
0001
0010
0001
0010
0001
,
0010
0000
0100
1000
0100
1000
0100
1000
0100
0000
1000
0010
1000
0010
1000
0010
,
1000
0000
0001
0000
0010
0000
0100
0000
1000
0010
1000
0010
0100
0001
0100
0001
,
1000
0000
0100
1000
0001
0000
0100
0001
1000
0000
0010
1000
0001
0000
0010
0001
,
1000
0000
0010
0100
0010
0100
0010
0100
0001
0000
0010
0100
0010
0100
0010
0100
,
1000
0000
0001
0100
0001
0100
0001
0100
0010
0000
1000
0100
1000
0100
1000
0100
,
0010
0001
0100
1000
0001
0010
1000
0100
,
0010
0000
0001
1000
0020
0000
1030
0010
1000
0001
1000
0001
0020
0000
0030
0000
,
0011
0001
1000
1001
0001
1000
1010
0010
,
1000
0000
1001
0000
0001
0000
1000
0000
0200
0300
0002
0003
0200
0300
2000
3000
,
1010
0010
0100
0101
0001
0010
0011
0001
,
1000
0000
1100
0000
0100
0000
0010
0000
0001
1000
0001
1000
0010
0000
0100
0000
,
0102
0000
0103
0100
2010
0000
3100
0100
,
0012
0000
0103
0010
1000
0100
0010
0001
,
1000
0000
0000
0100
0000
0000
0010
0000
0000
0001
0000
0000
1000
0000
0000
0100
0000
0000
0010
0000
0000
0001
0000
0000
1000
0000
0000
0000
0010
0000
0000
0000
0100
0000
0000
0000
0001
0000
0000
0000
0010
0000
0000
0000
0100
0000
0000
0000
,
1000
0000
1010
1000
0010
0100
0002
0010
,
1000
0000
2003
0000
0010
0000
0001
0000
3002
0000
0010
0000
1003
0000
0100
1000
,
0100
0000
0010
0100
0010
0000
0001
0010
0001
0000
1000
0000
0002
0000
0100
0000
,
1000
2003
0100
0001
3002
0100
1003
0001
,
0100
0010
1000
0000
0100
0010
0001
0000
0100
0010
1000
0000
2002
0000
0000
0000
,
3003
0000
0000
0000
1001
0000
0001
0010
0100
1000
0001
0000
0200
0000
0010
0000
,
0010
0310
2000
0001
0001
3001
0010
1000
,
0001
1000
0010
0001
1000
0001
0100
1000
,
0100
0000
0001
0000
0011
0000
0000
1001
0000
0000
1010
0000
0010
1000
0010
1000
,
0010
1000
0100
1000
0100
1000
0100
1000
0002
0000
0000
0000
0103
0000
0010
0000
,
0100
0000
1000
0000
0001
0000
0010
0000
1000
0000
0001
0000
0010
0001
0010
0001
,
0010
0001
0100
0001
0100
0001
0100
0001
2000
0000
0000
0000
3100
0000
0010
0000
,
0100
0001
1000
0010
0001
1000
0010
0010
,
0100
0000
0100
0000
0010
0000
1000
0000
0100
0000
0010
0000
1001
0000
1000
0001
,
1000
0000
0000
0110
0000
0000
1001
0000
0001
0100
0010
0100
0010
0100
0010
0100
,
0001
0000
0000
0110
0000
0000
1001
0000
2002
0000
3003
0000
2200
0000
3300
0000
,
0001
0000
0010
0000
0100
0000
1000
0000
0002
0000
0100
0000
0103
0000
0010
0100
,
0010
0001
0010
1000
0100
0100
0001
0001
,
1000
0000
0010
0000
0001
0000
0100
0000
0110
0000
0000
0000
1000
0100
1000
0100
,
0010
0000
0000
0000
0001
0100
0001
0100
0010
0000
0000
0000
1000
0100
0010
0001
,
1000
0000
0000
0000
0001
0100
0010
1000
0002
0000
0003
0000
0022
0000
0033
0000
,
2002
0000
3003
0000
2020
0000
3030
0000
1000
0100
0010
0001
0100
0010
1000
0100
,
0020
0000
0030
0000
;

//---------------dance-single - ----------------
#NOTEDATA:;
#CHARTNAME:;
#STEPSTYPE:dance-single;
#DESCRIPTION:;
#CHARTSTYLE:;
#DIFFICULTY:Medium;
#METER:14;
#RADARVALUES:0.810125,0.799396,0.436221,0.436221,0.111113,689.000000,636.000000,53.000000,53.000000,0.000000,6.000000,0.000000,0.000000,0.000000,0.810125,0.799396,0.436221,0.436221,0.111113,689.000000,636.000000,53.000000,53.000000,0.000000,6.000000,0.000000,0.000000,0.000000;
#CREDIT:;
#NOTES:
0000
0000
0000
0000
,
0000
0000
0000
0000
,
0200
0000
0000
0000
0300
0000
0000
0000
1001
0000
0000
1001
0000
0000
0110
0000
,
1001
0000
0001
0010
0100
1000
0010
0100
,
0002
0100
0103
0001
0100
0010
0100
0001
,
0010
0100
0010
0001
1000
0100
0001
0100
,
1000
0001
1000
0010
0001
0010
1000
0100
,
0020
0001
0032
1000
2003
0010
3020
1000
,
2030
0100
3100
1000
0100
0010
0100
1000
,
0010
0100
0010
1000
0001
0100
1000
0100
,
0001
0010
1000
0001
0100
1000
0100
0010
,
0011
0000
0000
0000
0010
0000
0000
0010
0000
0000
0001
0000
1000
0000
1000
0000
,
0010
0100
0010
1000
0010
1000
0001
0001
,
0010
0100
0010
0001
0010
0001
1000
1000
,
0100
1000
0010
0100
0010
1000
0001
0001
,
0100
0001
0010
0100
0010
0001
1000
1000
,
0010
0100
0001
0010
0100
1000
0001
0001
,
0010
0000
0100
0000
1000
0000
0000
0010
0000
0000
0100
0000
0001
0000
0001
0000
,
1000
0001
0010
0100
1000
0001
1001
0000
,
2002
3003
1000
0010
0100
0100
0001
1000
,
0100
0100
1000
0001
0100
0010
1000
0100
,
0001
0100
1000
0010
0100
0010
1000
1000
,
0100
0010
0001
0001
0100
0010
0100
0100
,
0001
1000
0100
0010
0001
0100
1000
0100
,
0001
0010
1000
0010
0001
0100
1000
0100
,
0110
0000
0000
0101
0000
0000
0110
0000
1000
0000
1000
0000
0010
0000
0100
0000
,
0001
0010
0100
0220
0330
0010
0100
1000
,
0001
0000
0000
0100
0000
0000
0010
0000
1000
0000
0000
0000
1000
0000
1000
0000
,
0100
0001
0000
0001
0100
1000
0001
0001
,
1000
0010
0100
0001
1000
0000
0001
0001
,
0100
1000
0000
1000
0100
0001
1000
0010
,
0100
0000
0001
0000
0010
0000
0100
0000
1000
0000
0000
1000
0010
0000
0000
0010
,
0100
0000
0000
0100
0001
0000
0000
0001
0010
0000
0000
0010
0100
0000
0000
0100
,
1000
0000
0000
0110
0000
0000
0012
0000
0000
0000
1003
0000
0010
0000
0100
0000
,
0001
0000
0010
0000
0100
0000
1000
0000
1001
0000
0000
0000
0001
0000
0000
0100
,
0000
0010
2010
0000
0000
0002
0000
0000
,
0010
3000
1003
0100
0010
0001
0100
0010
,
1000
0001
0012
0000
0000
2000
0000
0000
,
0010
0003
3001
0100
0010
1000
0100
0010
,
0001
1000
0010
1000
0100
0100
0010
0001
,
0100
0100
0010
1000
0001
0001
0010
0100
,
1000
1000
0001
0100
1000
0100
0001
0010
,
1000
0000
0010
0000
0001
0000
0100
0000
0010
0000
1000
0000
1010
0000
0000
1001
,
0000
0011
0012
0000
0000
0200
0000
0000
,
1010
0300
0103
0001
0100
1000
0100
0001
,
1000
0010
2010
0000
0000
0200
0000
0000
,
0011
0300
3100
0001
0100
1000
0001
0100
,
0010
1000
0100
0100
0010
0010
0100
0010
,
0001
0000
0100
0000
1001
0000
1000
0000
1010
0000
0000
1001
0000
0000
0011
0000
,
0220
0000
0000
0000
0330
0000
0000
0000
0010
0000
0000
0010
0000
0000
0001
0000
,
1000
0010
0001
0010
1000
0100
0001
0100
,
0110
0000
0100
0000
0100
0010
1001
0000
,
0001
0000
0001
0100
0010
1000
0100
0010
,
0011
0000
0001
0000
0001
0100
1010
0000
,
1000
0000
1000
0100
0010
0001
0100
0010
,
1000
0100
0010
0100
0001
0100
0010
0100
,
1000
0010
0100
0010
0001
0010
0100
0010
,
1000
0100
0010
0001
0100
1000
0100
0001
,
1000
0100
0001
0100
1000
0010
0100
0001
,
0010
1000
0010
0100
0001
0100
0010
0001
,
1000
0010
0001
0010
0100
1000
0100
0010
,
1000
0100
0001
0100
1000
0010
0001
0010
,
1000
0000
2010
0000
3001
0010
0012
0000
,
1003
0010
0100
1000
0100
0010
1000
0010
,
0100
1000
0100
0010
1000
1000
0010
0100
,
0001
0010
0100
0001
0100
0010
0001
0010
,
0100
0001
0100
0010
0001
0100
0010
1000
,
0200
0000
0310
0010
0002
0000
0013
0010
,
0200
0000
0310
0001
1000
0010
0100
0001
,
1000
0000
0000
0100
0000
0000
0010
0000
0000
0001
0000
0000
0100
0000
0010
0000
0100
0000
0010
0000
0100
0000
0010
0000
,
0100
0000
0010
1000
0001
0010
0012
0000
,
1003
1002
0000
0103
0102
0000
0103
0010
,
1000
0010
0100
0001
0010
0100
2100
0000
,
3001
2001
0000
3010
2010
0000
3010
1000
,
0010
0001
0010
1000
0100
0010
0220
0000
,
0330
0000
0100
0010
0001
0100
0020
1000
,
1030
0100
0020
0001
0031
0100
0010
1000
,
0100
0001
1000
0010
0001
1000
0100
0010
,
0001
0000
0100
0000
1010
0000
0000
0011
0000
0000
1010
0000
2010
0000
0000
0000
,
0000
0200
0000
0000
0011
0300
3100
1000
,
0100
0001
0100
1000
0001
0010
0012
0000
,
0000
0200
0000
0000
1010
0300
0103
1000
,
0100
0001
1000
0100
0010
0001
0100
0100
,
0010
0010
0100
0010
1000
0100
1001
0001
,
0011
0000
0000
1001
0000
0000
1010
0000
0220
0000
0000
0000
0330
0000
0000
0000
,
0010
0000
0000
0010
0000
0000
1000
0000
0001
0000
0010
0000
1000
0000
0010
0000
,
0001
0100
1000
0100
0002
0010
0013
0001
,
0010
1000
0010
0001
1000
0010
0001
0010
,
1000
0100
0010
0001
0200
0000
1300
0100
,
0002
0000
0013
1000
0002
0000
0103
1000
,
0020
0000
0031
0010
2000
0010
3002
0010
,
2003
0000
0100
0000
3002
0000
0100
0000
1003
0001
1000
0001
1000
0001
1000
0001
,
2000
0000
3000
0000
;

//---------------dance-single - ----------------
#NOTEDATA:;
#CHARTNAME:;
#STEPSTYPE:dance-single;
#DESCRIPTION:;
#CHARTSTYLE:;
#DIFFICULTY:Easy;
#METER:11;
#RADARVALUES:0.574965,0.609064,0.395068,0.518527,0.045268,489.000000,441.000000,48.000000,63.000000,0.000000,0.000000,0.000000,0.000000,0.000000,0.574965,0.609064,0.395068,0.518527,0.045268,489.000000,441.000000,48.000000,63.000000,0.000000,0.000000,0.000000,0.000000,0.000000;
#CREDIT:;
#NOTES:
0000
0000
0000
0000
,
0000
0000
0000
0000
,
2002
0000
0000
0000
3003
0000
0000
0000
1000
0000
0000
0001
0000
0000
1000
0000
,
0001
0020
0230
2300
,
3001
0100
0001
0000
0001
1000
0001
0000
,
0010
0100
0010
0001
1000
0000
0001
0000
,
1000
0010
0100
0000
0010
0100
0001
0000
,
0101
1010
1100
0011
,
1000
0100
1000
0000
1000
0001
1000
0000
,
0010
0100
0010
1000
0001
0000
1000
0000
,
1200
0000
0000
0001
0000
0000
1300
0000
,
0110
0000
0000
0000
0001
0000
0000
0001
0000
0000
0001
0000
1000
0000
0000
0000
,
0010
1000
0001
0010
,
0001
1000
0010
0000
1000
0001
0010
0000
,
0100
1000
0001
0100
,
0001
0000
1000
0100
0010
0001
1000
0000
,
0010
0000
0001
0000
0010
0000
1000
0010
,
1000
0000
0001
0010
0001
0000
1000
0000
,
0100
0000
0010
0000
0001
0100
0010
0000
,
2002
0000
3003
0000
1001
0000
1000
0100
,
1000
0100
1000
0001
0100
0000
0020
0000
,
2030
0000
3002
0000
0013
0000
0001
0100
,
0001
0100
0001
1000
0100
0000
0010
0100
,
0010
0110
0002
0203
,
2300
3002
0023
2030
,
3100
0000
0000
0100
0000
0000
0100
0000
0010
0000
0000
0000
0010
0000
0000
0000
,
0001
0100
0010
2000
0000
3100
0010
0000
,
0001
0100
0120
1000
,
2000
0000
3030
0000
1000
0010
0100
0001
,
1000
0100
0120
0001
,
0002
0000
0033
0000
0001
0010
0100
1000
,
0001
0000
0100
0000
0010
1000
0010
0000
,
1000
0001
1000
0000
0001
0010
0001
0000
,
1000
0000
0000
0010
0000
0000
0200
0000
0000
0000
0000
0000
1000
0000
0000
0000
,
0010
0000
0000
0000
0301
0000
0000
0000
1001
0000
0000
0000
0001
0000
0000
0010
,
0000
0100
2000
0000
0000
0010
0000
0000
,
0200
0000
3300
0000
1000
0100
1000
0001
,
0100
0000
0102
0000
0000
0010
0000
0000
,
0200
0000
0303
0000
0001
0100
0001
1000
,
0100
0000
1001
0000
1000
0010
0100
0000
,
0010
0100
0001
0000
0100
0001
1000
0000
,
0100
0000
0010
0001
0010
0001
1000
0010
,
1000
0000
0010
0000
0100
0000
0000
0000
0010
0000
0000
0000
1000
0000
0000
0001
,
0000
1000
0200
0000
0000
0001
0000
0000
,
0010
0000
1000
0000
1300
0000
0100
1000
,
0001
0000
0201
0000
0000
1000
0000
0000
,
0010
0000
0001
0000
0301
0000
0100
0001
,
1000
0000
0100
0010
0100
0000
0010
0100
,
0010
0000
0000
0000
1001
0000
0000
0000
0001
0000
0000
0100
0000
0000
0020
0000
,
2000
0000
0000
0000
3030
0000
0000
0000
1000
0000
0000
0100
0000
0000
0010
0000
,
0001
0000
0011
0000
1100
0000
1000
0001
,
0100
0000
0100
0000
0100
0010
1000
0000
,
1000
0000
1000
0100
0010
0000
0100
0010
,
0001
0000
0001
0000
0001
0100
0010
0000
,
0010
0000
0010
1000
0100
0000
0110
0000
,
0001
0010
0001
0000
0100
0001
0100
0000
,
0010
1000
0010
0000
1000
0100
1000
0000
,
0001
0100
0010
0000
1000
0100
0010
0000
,
0011
0101
1100
1010
,
1000
0010
0100
0000
0001
0010
0100
0000
,
0010
0001
0100
0000
0010
1000
0100
0000
,
1000
0001
0100
0000
0001
1000
0100
0000
,
0011
1100
1010
0101
,
1002
0000
0003
0020
0000
0030
2100
0000
,
3000
0012
0000
0003
1000
0100
0010
0001
,
2000
0000
3000
0020
0000
0030
0102
0000
,
0003
2010
0000
3000
0100
0010
0001
0000
,
0022
0030
2000
3000
,
0200
0000
0303
0000
1000
0010
0100
0001
,
2000
0001
0010
3100
,
1001
0000
1000
0010
0100
0001
0020
0000
,
0130
0020
0001
0000
0230
0000
1000
0000
,
0010
0000
1300
0001
1000
0000
0020
0000
,
0130
0020
1000
0000
0230
0000
0001
0000
,
0010
0000
0301
1000
0001
0000
2002
0000
,
3003
0000
0001
1000
0100
0010
0200
0000
,
1300
0000
0002
0000
0103
0000
0010
1000
,
0010
1000
0001
0010
0001
0010
0100
0000
,
0010
0000
0000
0000
0001
0000
0000
0001
0000
0000
1000
0000
0020
0000
0000
0000
,
0000
0001
0000
0000
0100
0000
1000
0000
,
1030
0000
0010
1000
0001
0000
0020
0000
,
0000
1000
0000
0000
0100
0000
0001
0000
,
0031
0000
0010
0001
1000
0000
0001
0100
,
0010
0000
1000
0010
0100
0000
1001
0000
,
1000
0000
0000
0100
0000
0000
0020
0000
0002
0000
0000
0000
0033
0000
0000
0000
,
0001
0000
0000
0100
0000
0000
0010
0000
1000
0000
0000
0000
1010
0000
0000
0000
,
0101
0000
1001
0000
0001
0010
0001
0000
,
1000
0010
1000
0000
0001
0010
0100
1000
,
0001
0100
0201
0310
,
2010
3100
1200
0310
,
0012
0103
0101
1010
,
1100
0000
0011
0000
0001
0100
1000
0100
,
0002
0000
0003
0000
;

//---------------dance-single - ----------------
#NOTEDATA:;
#CHARTNAME:;
#STEPSTYPE:dance-single;
#DESCRIPTION:;
#CHARTSTYLE:;
#DIFFICULTY:Beginner;
#METER:8;
#RADARVALUES:0.376255,0.538692,0.213995,0.493835,0.000000,320.000000,294.000000,26.000000,60.000000,0.000000,0.000000,0.000000,0.000000,0.000000,0.376255,0.538692,0.213995,0.493835,0.000000,320.000000,294.000000,26.000000,60.000000,0.000000,0.000000,0.000000,0.000000,0.000000;
#CREDIT:;
#OFFSET:-0.267650;
#BPMS:0.000000=191.000000
;
#STOPS:;
#DELAYS:;
#WARPS:;
#TIMESIGNATURES:0.000000=4=4
;
#TICKCOUNTS:0.000000=4
;
#COMBOS:0.000000=1
;
#SPEEDS:0.000000=1.000000=0.000000=0
;
#SCROLLS:0.000000=1.000000
;
#FAKES:;
#LABELS:0.000000=Song Start
;
#NOTES:
0000
0000
0000
0000
,
0000
0000
0000
0000
,
2002
3003
1001
0110
,
1001
0002
0023
0230
,
1300
1000
0001
0001
,
1000
0010
0100
0001
,
0010
1000
0010
0001
,
2000
3020
0230
0302
,
1003
1000
0001
0001
,
0100
1000
0100
0001
,
0020
0000
0000
0100
0000
0000
0130
0000
,
0220
0330
0000
0000
,
0001
0000
0001
0000
,
0100
0000
0100
0000
,
0010
0000
0010
0000
,
1000
0000
1000
0000
,
0001
0000
0010
0000
,
0001
0000
1000
0000
,
0010
0000
1000
0000
,
0100
0000
0220
0330
,
0001
0001
0100
0100
,
0001
0100
0010
1000
,
0100
0100
1000
1000
,
0100
0010
0001
1000
,
0010
0100
0010
0100
,
0001
1000
0001
1000
,
0100
0100
0010
0001
,
2002
3003
0001
0100
,
0020
1000
1030
0000
,
0010
1000
0010
0100
,
0002
0010
0013
0000
,
0010
0001
0010
0100
,
1000
1000
0001
0001
,
0100
0000
0100
0000
0010
0000
0000
2002
,
0000
0000
0000
0000
,
3003
0000
0000
0000
,
2000
0000
0000
3020
0000
0000
0200
0000
,
0000
0330
0100
0001
,
0002
0000
0000
0023
0000
0000
0200
0000
,
0000
0330
0100
1000
,
1000
0001
0001
0100
,
0010
1000
1000
0001
,
0010
1000
0010
0001
,
0100
1000
0100
0001
,
0020
0000
0000
0230
0000
0000
2000
0000
,
0000
3300
0100
1000
,
0020
0000
0000
0230
0000
0000
0002
0000
,
0000
0303
0100
0001
,
0010
0010
0100
0010
,
1001
0000
1001
0110
,
2002
3003
1000
1000
,
0010
0001
0010
1000
,
0100
0000
0100
0010
,
0000
0010
0001
0100
,
0010
0000
0010
1000
,
0000
1000
0100
0010
,
0001
0001
0100
0100
,
1000
1000
0010
0010
,
0001
0001
0100
0100
,
1000
0100
0001
1000
,
0001
0001
0010
0010
,
1000
1000
0100
0100
,
0001
0001
0010
0010
,
0200
2300
3002
0203
,
0310
0000
0000
0010
0000
0000
0010
0000
,
0000
0010
0000
0000
1001
0000
1001
0000
,
0100
0000
0000
0100
0000
0000
0100
0000
,
0000
0100
0000
0000
1001
0000
0000
0000
,
2000
0000
3200
0000
,
0320
0000
0032
0000
,
0103
1000
0100
0001
,
0220
0330
0000
0000
,
1000
0010
0001
0010
,
1000
0010
0001
0010
,
1000
0100
0001
0100
,
1000
0100
0001
0100
,
0220
0330
1000
1000
,
0001
0001
0100
0100
,
0010
1000
0100
0001
,
0100
1000
0010
0100
,
0020
0000
0000
2030
0000
0000
0200
0000
,
0000
3300
1000
0100
,
0020
0000
0000
0032
0000
0000
0200
0000
,
0000
0303
0100
0010
,
1000
1000
0100
0010
,
1001
0000
1001
0110
,
2002
3003
0001
0010
,
1000
0010
0001
0100
,
0001
0001
1000
1000
,
0001
0010
0100
1000
,
0002
0103
0002
0103
,
0020
1030
0020
1030
,
1001
1001
0110
0110
,
2002
0000
3003
0000
;
