#VERSION:0.83;
#TITLE:Quaoar;
#SUBTITLE:;
#ARTIST:かめりあ;
#TITLETRANSLIT:;
#SUBTITLETRANSLIT:;
#ARTISTTRANSLIT:Camellia;
#GENRE:Artcore;
#ORIGIN:;
#CREDIT:;
#BANNER:Quaoar.png;
#BACKGROUND:Quaoar-bg.png;
#PREVIEWVID:;
#JACKET:Quaoar-jacket.png;
#CDIMAGE:;
#DISCIMAGE:;
#LYRICSPATH:;
#CDTITLE:cdtitle.png;
#MUSIC:Quaoar.ogg;
#OFFSET:-0.690500;
#SAMPLESTART:94.483597;
#SAMPLELENGTH:11.034485;
#SELECTABLE:YES;
#BPMS:0.000=43.500,
8.000=87.000,
24.000=174.000,
52.000=87.000,
54.000=174.000,
118.000=87.000,
134.000=43.500,
138.000=174.000,
197.000=87.000,
199.000=174.000,
264.000=43.500;
#STOPS:;
#DELAYS:;
#WARPS:;
#TIMESIGNATURES:0.000=4=4;
#TICKCOUNTS:0.000=4;
#COMBOS:0.000=1;
#SPEEDS:0.000=1.000=0.000=0;
#SCROLLS:0.000=1.000;
#FAKES:;
#LABELS:0.000=Song Start;
#BGCHANGES:;
#KEYSOUNDS:;
#ATTACKS:
;

//---------------dance-single - ----------------
#NOTEDATA:;
#CHARTNAME:;
#STEPSTYPE:dance-single;
#DESCRIPTION:;
#CHARTSTYLE:;
#DIFFICULTY:Challenge;
#METER:17;
#RADARVALUES:0.780469,0.807931,0.258663,0.728960,0.917079,697.000000,664.000000,33.000000,93.000000,39.000000,0.000000,12.000000,0.000000,0.000000,0.780469,0.807931,0.258663,0.728960,0.917079,697.000000,664.000000,33.000000,93.000000,39.000000,0.000000,12.000000,0.000000,0.000000;
#CREDIT:;
#OFFSET:-0.690500;
#BPMS:0.000000=43.500000
,8.000000=87.000000
,24.000000=174.000000
,52.000000=87.000000
,54.000000=174.000000
,118.000000=87.000000
,134.000000=43.500000
,138.000000=174.000000
,198.000000=87.000000
,200.000000=174.000000
,229.250000=348.000000
,229.291672=174.000000
,231.979172=87.000000
,232.000000=174.000000
,264.000000=43.500000
;
#STOPS:;
#DELAYS:;
#WARPS:;
#TIMESIGNATURES:0.000000=4=4
;
#TICKCOUNTS:0.000000=4
;
#COMBOS:0.000000=1
;
#SPEEDS:0.000000=1.000000=0.000000=0
;
#SCROLLS:0.000000=1.000000
,21.500000=0.500000
,24.000000=1.000000
,197.000000=0.500000
,198.000000=1.000000
,229.250000=0.500000
,229.291672=1.000000
,229.520828=0.500000
,231.979172=1.000000
;
#FAKES:;
#LABELS:0.000000=Song Start
;
#NOTES:
// measure 0
0000
0000
0000
0000
0000
0000
0000
0000
0000
0000
0000
0000
0000
0000
0000
0000
0000
0000
0000
0000
0000
0000
0000
0000
0000
0000
0000
1000
0100
0010
0001
1000
,  // measure 1
0200
0000
0000
0000
0302
0000
0000
0000
0203
0000
0000
2300
0000
0020
0000
3030
,  // measure 2
1000
0000
0000
0001
0000
0000
0010
0000
0000
0100
0000
0000
0010
0000
0001
0000
2000
0000
0000
0000
0001
0000
0000
0000
0001
0000
0000
0000
3001
0100
0010
1000
,  // measure 3
0001
0000
0000
1000
0000
0000
0100
0000
0000
0010
0000
0000
0001
0000
0100
0000
0020
0000
0000
0000
1000
0000
0000
0000
1000
0000
0000
0000
1030
0010
0100
0001
,  // measure 4
0010
0000
0000
1100
0000
0000
0010
0000
0000
0101
0000
0000
0020
0000
0000
0000
0100
0000
0000
0000
0100
0000
0000
0000
0100
0000
0000
0000
0130
0000
0000
0000
,  // measure 5
1001
0000
0000
0100
0000
0000
1001
0000
0000
0010
0000
0000
2002
0000
0000
0000
0000
0000
0000
0000
0000
0000
0000
0000
0000
0000
0000
0000
3003
0000
0000
0000
,  // measure 6
1000
0100
0100
0001
0010
0010
0001
0100
,  // measure 7
0100
1000
0010
0010
1000
0100
1000
1000
,  // measure 8
0001
0100
0100
1000
0010
0010
1000
0100
,  // measure 9
0100
0001
0010
0010
0100
1000
0001
0100
,  // measure 10
0001
0010
1000
0010
0001
0010
1000
0010
,  // measure 11
0001
0100
1000
0100
0001
0100
1000
0100
,  // measure 12
0001
0010
0100
1000
0001
1000
0100
0010
0001
0100
0010
0100
0010
0100
0010
0100
,  // measure 13
0002
0000
0000
0003
2002
3003
0000
1000
,  // measure 14
010M
0000
01M0
0000
01M0
0000
M100
0000
0002
0000
0040
0000
0003
0030
0001
0000
,  // measure 15
M100
0000
01M0
0000
01M0
0000
010M
0000
2000
0000
0040
0000
3000
0030
1000
0000
,  // measure 16
010M
01M0
01M0
M100
0001
0010
1000
0010
,  // measure 17
0001
0000
0100
0000
0110
0000
MMMM
0000
2020
0000
3030
0000
0004
0403
0340
4030
,  // measure 18
3200
0000
0000
1000
0000
M000
0310
0001
0100
0001
0010
0001
1000
0001
0100
0001
,  // measure 19
0010
0001
0100
0010
1000
0000
M0M0
0000
2002
0000
3003
0000
4000
3400
0340
0034
,  // measure 20
0203
0000
0000
0001
0000
000M
0310
1000
0100
1000
0010
1000
0001
1000
0100
1000
,  // measure 21
0020
0000
0000
0000
0032
0000
0000
0000
2003
0000
0000
0000
3200
0000
0000
0300
2002
0000
0000
0000
3003
0000
0000
0000
0000
0000
0000
0000
0001
0000
0100
0000
,  // measure 22
M010
0000
0000
0000
0100
0000
0000
0000
M001
0000
0000
0000
0100
0000
0000
0000
M010
0000
0000
0000
0100
0000
0000
0000
M001
0000
0000
0000
0010
0000
0000
0000
0200
0000
0000
0000
0000
0000
0000
0000
4000
0000
0000
0000
0000
0000
0000
0000
0000
0000
0000
0000
0000
0000
0000
3000
1300
0000
0000
0000
0100
0000
0000
0000
,  // measure 23
001M
0000
0000
0000
0100
0000
0000
0000
100M
0000
0000
0000
0100
0000
0000
0000
001M
0000
0000
0000
0100
0000
0000
0000
100M
0000
0000
0000
0010
0000
0000
0000
0200
0000
0000
0000
0000
0000
0000
0000
0004
0000
0000
0000
0000
0000
0000
0000
0000
0000
0000
0000
0000
0000
0000
0003
0301
0000
0000
0000
0100
0000
0000
0000
,  // measure 24
M010
0100
M001
0100
M010
0100
M001
1000
0200
0000
0301
0000
0200
0000
1300
0000
,  // measure 25
0020
0000
0130
0000
0101
0000
MMMM
0000
1001
0000
0000
1000
0100
0000
0011
0000
,  // measure 26
0000
0001
0100
0000
1010
0000
0010
0100
0001
1000
0001
0010
0100
1000
0010
0100
,  // measure 27
0001
1000
0100
0000
0020
0000
0130
0000
1001
0000
0000
1010
0000
0000
0101
0000
,  // measure 28
1001
0000
0000
0011
0000
0000
1000
0100
0010
0001
0100
0001
0010
0100
1000
0010
,  // measure 29
0001
0010
1000
0100
0010
0000
0001
0100
0020
0000
0000
0000
0030
0000
2000
0000
,  // measure 30
0020
0000
0000
0000
3030
0000
2000
0000
0100
0000
0000
0001
0002
0000
0000
0000
,  // measure 31
0000
0000
3003
0000
0022
0000
0033
0002
,  // measure 32
0020
0000
0033
0002
0203
0320
2030
3002
,  // measure 33
0023
0000
0000
0100
0130
0000
0000
0000
2002
0000
0003
0000
0020
0000
3000
0000
,  // measure 34
0200
0000
0000
0000
0000
0000
0000
0000
0000
0000
0000
0000
0000
0000
0000
0000
0330
0000
0000
0000
0000
0000
0000
0000
0000
0000
0000
0000
0001
0010
0100
1000
0001
0000
0000
0000
0000
0000
0000
0000
0100
0000
0000
0000
0010
0000
0000
0000
0100
0000
0000
0000
0000
0000
0000
0000
1000
0000
0000
0000
0000
0000
0000
0000
,  // measure 35
0100
0010
0100
0000
0001
0000
1000
0100
0010
0001
1000
0010
0100
0001
0010
0001
,  // measure 36
1000
0010
0100
0001
1000
0100
0010
0001
1000
0000
0100
1000
0001
0000
0100
0000
,  // measure 37
0001
1000
0100
0000
0010
0000
0100
1000
0001
0100
0001
0100
0010
0100
0010
0100
,  // measure 38
0001
1000
0100
1000
0001
0100
0010
1000
0001
0000
0010
0100
0010
0000
1000
0000
,  // measure 39
0010
0100
0010
0000
0001
0000
1000
0010
0100
0001
1000
0100
0010
0001
0100
0001
,  // measure 40
1000
0100
0010
0001
0100
0010
1000
0100
0010
0000
0001
0100
0010
0000
0001
0000
,  // measure 41
0010
0100
0001
0000
0010
0000
0100
0000
1100
0000
0000
1010
0000
0000
0011
0000
,  // measure 42
0000
0101
0000
0000
1000
0010
0100
0001
0010
MM0M
0010
1000
0001
0000
1000
0000
,  // measure 43
0100
0010
0100
0000
1000
0000
0001
0100
0010
1000
0100
0010
1000
0010
0100
1000
,  // measure 44
0010
0100
1000
0100
0010
1000
0100
0010
0001
0000
1000
0001
0100
0000
0010
0000
,  // measure 45
0100
0001
1000
0000
0100
0000
0010
0001
0100
0010
0100
0001
0010
0100
0001
0100
,  // measure 46
0010
0001
0100
0010
0001
0010
0100
0010
1000
0000
0010
1000
0100
0000
0001
0000
,  // measure 47
0100
1000
0010
0000
0200
0000
0001
0000
0310
0000
1000
0000
0100
0000
0100
0000
,  // measure 48
0010
0000
0010
0000
0001
0000
0100
0010
2000
0000
0000
3010
0000
0000
1002
0000
,  // measure 49
0000
0013
0000
0000
0220
0000
0000
0000
0000
0000
0000
0000
0330
0000
1000
1000
,  // measure 50
0001
0000
1000
0010
0100
0001
0010
0000
0001
0010
0100
1000
0020
0000
0032
0000
,  // measure 51
0013
0100
0002
0000
0100
0000
1003
0100
0020
0000
0031
0100
0000
0001
0100
0001
,  // measure 52
0010
0000
0100
1000
0001
0100
0010
0000
0100
0001
1000
0100
0020
0000
0032
0000
,  // measure 53
0100
0000
2003
0000
0010
0000
3001
1000
0200
0000
0310
0001
0000
0001
0100
0010
,  // measure 54
1000
0000
0001
0010
0100
1000
0010
0000
1000
0010
0100
0001
0020
0000
2030
0000
,  // measure 55
3010
0100
2000
0000
0100
0000
3001
0100
0020
0000
1030
0100
0000
0100
0010
0000
,  // measure 56
0011
0000
1000
0010
1000
0000
0011
0000
1000
0010
1000
0000
1020
0000
0000
0000
,  // measure 57
0000
0000
0000
0000
0000
0000
0000
0000
0000
0000
0000
0000
0000
0000
0000
0000
0000
0000
0000
0000
0000
0000
0000
0000
1030
0000
0000
0000
0000
0000
0000
0000
0000
0000
0000
0000
0100
0000
0000
0000
0000
0000
0000
0000
0000
0000
0000
0000
0001
0000
0000
0000
0000
0000
0000
0000
0000
0000
0000
0000
0100
0000
0000
0000
0000
0000
0000
0000
0000
0000
0000
0000
0000
2000
0000
0000
0000
0000
0000
0000
0000
0000
0000
0000
0000
0000
0000
0000
0000
0000
0000
0000
0000
0000
0000
0000
0000
3002
0000
0000
0000
0000
0000
0000
0000
0000
0000
0000
0000
0203
0000
0000
0000
0000
0000
0000
0000
0000
0000
0000
0000
0320
0000
0000
0000
0000
0000
0000
0000
0000
0000
0000
0000
0000
0000
0000
0000
0000
0000
0000
0000
0000
0000
0000
0000
2030
0000
0000
0000
0000
0000
0000
0000
0000
0000
0000
0000
3200
0000
0000
0000
0000
0000
0000
0000
0000
0000
0000
0000
0320
0000
0000
0000
0000
0000
0000
0000
0000
0000
0000
0000
0032
0000
0000
0000
0000
0000
0000
0000
0000
0000
0000
,  // measure 58
1003
0000
0010
0100
1000
0100
0010
0000
0100
0010
0100
0001
0020
0000
2030
0000
,  // measure 59
3010
0100
2000
0000
0001
0000
3010
1000
0100
0000
0010
0001
0000
1000
0010
0100
,  // measure 60
0001
0000
0010
0100
0001
0100
0010
0000
0100
1000
0001
0100
0020
0000
2030
0000
,  // measure 61
0100
0000
3002
0000
0010
0000
1003
0001
0100
0001
0100
1000
0001
0010
1000
0001
,  // measure 62
0020
0000
0130
1000
0100
1000
0020
0000
0130
0001
0100
0001
0010
0000
0022
0000
,  // measure 63
0033
0000
2020
0000
3000
0000
1030
0010
1000
0100
1000
0000
0001
0000
0010
0000
,  // measure 64
0001
0000
1000
0010
0100
0010
0001
0000
1000
0100
0010
0100
0002
0000
0010
0000
,  // measure 65
0013
0100
1000
0001
0010
1000
0010
0100
0001
0100
1000
0001
1000
0010
1000
0010
,  // measure 66
0202
0000
0303
0000
;

//---------------dance-single - ----------------
#NOTEDATA:;
#CHARTNAME:;
#STEPSTYPE:dance-single;
#DESCRIPTION:;
#CHARTSTYLE:;
#DIFFICULTY:Hard;
#METER:15;
#RADARVALUES:0.597949,0.653713,0.282178,0.917079,0.505569,534.000000,498.000000,36.000000,117.000000,8.000000,0.000000,20.000000,0.000000,0.000000,0.597949,0.653713,0.282178,0.917079,0.505569,534.000000,498.000000,36.000000,117.000000,8.000000,0.000000,20.000000,0.000000,0.000000;
#CREDIT:;
#OFFSET:-0.690500;
#BPMS:0.000000=87.000000
,32.000000=174.000000
,60.000000=87.000000
,62.000000=174.000000
,126.000000=87.000000
,150.000000=174.000000
,210.000000=87.000000
,212.000000=174.000000
,241.250000=348.000000
,241.291672=174.000000
,243.979172=87.000000
,244.000000=174.000000
,276.000000=43.500000
;
#STOPS:;
#DELAYS:;
#WARPS:;
#TIMESIGNATURES:0.000000=4=4
;
#TICKCOUNTS:0.000000=4
;
#COMBOS:0.000000=1
;
#SPEEDS:0.000000=1.000000=0.000000=0
;
#SCROLLS:0.000000=1.000000
,16.000000=1.500000
,29.500000=1.000000
,209.000000=0.500000
,210.000000=1.000000
,241.250000=0.500000
,241.291672=1.000000
,241.520828=0.500000
,243.979172=1.000000
;
#FAKES:;
#LABELS:0.000000=Song Start
;
#NOTES:
// measure 0
0000
0000
0000
0000
,  // measure 1
0000
0000
0000
0000
0000
0000
0000
0000
0000
0000
0000
1000
0100
0010
0001
1000
,  // measure 2
0200
0000
0302
0000
,  // measure 3
0203
0000
0000
2300
0000
0020
0000
3030
,  // measure 4
0001
0000
0000
0100
0000
0000
0001
0000
0000
0010
0000
0000
0001
0000
2000
0000
0010
0000
0000
0000
0010
0000
0000
0000
3010
0000
0000
0000
1000
0000
0001
0000
,  // measure 5
1000
0000
0000
0010
0000
0000
1000
0000
0000
0100
0000
0000
1000
0000
0002
0000
0100
0000
0000
0000
0100
0000
0000
0000
0103
0000
0000
0000
0001
0000
1000
0000
,  // measure 6
0100
0000
0000
0001
0000
0000
1000
0000
0000
0010
0000
0000
0002
0000
0000
0000
1000
0000
0000
0000
1000
0000
0000
0000
1000
0000
0000
0000
1003
0000
0000
0000
,  // measure 7
1001
0000
0000
0100
0000
0000
1001
0000
0000
0010
0000
0000
2002
0000
0000
0000
0000
0000
0000
0000
0000
0000
0000
0000
0000
0000
0000
0000
3003
0000
0000
0000
,  // measure 8
1000
0100
0010
1000
0010
0100
1000
0010
,  // measure 9
0100
1000
0100
0010
1000
0010
1000
1000
,  // measure 10
0001
0010
0100
0001
0100
0010
0001
0100
,  // measure 11
0010
0001
0010
0100
0001
0010
0001
0001
,  // measure 12
1000
0100
0001
0100
1000
0100
0001
0100
,  // measure 13
1000
0010
0001
0010
1000
0010
0001
0010
,  // measure 14
4000
0040
0000
0000
0000
0000
0000
0000
0000
0000
0000
0000
0000
0000
0000
0000
,  // measure 15
3030
0000
0000
0000
2002
3003
0000
1000
,  // measure 16
0100
0000
0000
0000
0001
0000
0000
0000
0100
0000
0000
0000
1000
0000
0000
0000
0022
0000
0000
0000
0000
0000
0000
0003
000M
0000
0000
0000
0031
0000
0000
0000
,  // measure 17
0100
0000
0000
0000
1000
0000
0000
0000
0100
0000
0000
0000
0001
0000
0000
0000
2020
0000
0000
0000
0000
0000
0000
3000
M000
0000
0000
0000
1030
0000
0000
0000
,  // measure 18
0100
0001
0100
1000
0010
0001
0010
1000
,  // measure 19
0001
0000
0010
0000
0110
0000
0MM0
0000
2002
0000
3003
0000
0001
0100
0010
0100
,  // measure 20
0002
0000
0000
0100
0000
0000
1003
0100
1000
0100
1000
0000
0001
0000
1000
0010
,  // measure 21
1000
0000
0010
1000
0010
0000
0000
0000
2002
0000
3003
0000
1000
0100
0010
0100
,  // measure 22
2000
0000
0000
0100
0000
0000
3001
0100
0001
0000
0010
0001
0010
0000
0100
1000
,  // measure 23
0100
0000
1000
0000
0001
0000
0100
0000
2002
0000
3003
0000
0000
0000
1000
0010
,  // measure 24
1000
0000
0000
0000
0010
0000
0000
0000
0001
0000
0000
0000
0010
0000
0000
0000
0220
0000
0000
0000
0000
0000
0000
0030
00M0
0000
0000
0000
0301
0000
0010
0000
,  // measure 25
0001
0000
0000
0000
0010
0000
0000
0000
1000
0000
0000
0000
0010
0000
0000
0000
0220
0000
0000
0000
0000
0000
0000
0030
00M0
0000
0000
0000
1300
0000
0010
0000
,  // measure 26
1000
0010
0001
1000
0200
0301
2000
3001
,  // measure 27
0020
0000
0130
0000
0110
0000
0MM0
0000
0011
0000
0000
1001
0000
0000
0101
0000
,  // measure 28
0000
1001
0000
0000
0011
0000
1000
0010
1000
0000
0001
0010
0001
0010
0001
0000
,  // measure 29
1000
0000
0001
0000
0100
0000
0010
0000
0120
0000
0000
1030
0000
0000
1000
0000
,  // measure 30
0210
0000
0000
0301
0000
0000
0001
0000
0010
0000
1000
0000
0001
0000
0100
0000
,  // measure 31
1000
0100
1000
0100
0010
0000
0001
0100
0020
0000
0000
0000
0030
0000
2000
0000
,  // measure 32
0020
0000
0000
0000
3030
0000
2000
0000
0100
0000
0000
0001
0002
0000
0000
0000
,  // measure 33
0000
0000
3003
0000
0022
0000
0033
0002
,  // measure 34
0020
0000
0033
0002
0203
0320
2030
3002
,  // measure 35
0023
0000
0000
0100
0130
0000
0000
0000
2002
0000
0000
0000
0003
0000
0000
0000
,  // measure 36
0020
3000
0200
0000
,  // measure 37
0330
0000
0000
0000
0000
0000
0000
0000
0000
0000
0000
0000
0001
1000
0001
1000
0002
0000
0000
0000
0000
0000
0023
0000
0000
0000
0000
0000
0230
0000
0000
0000
,  // measure 38
0000
0000
0302
0000
0000
0000
0000
0000
0203
0000
0000
0000
2300
0000
0000
0000
3004
0000
0040
0000
0000
0000
0000
0030
0000
0003
0000
0000
4000
0000
0040
0000
,  // measure 39
0000
0000
0000
0030
0000
3000
0000
0000
0001
0000
0010
0000
0001
0000
0010
0000
0002
0000
0000
0000
0000
0000
0203
0000
0000
0000
0000
0000
0320
0000
0000
0000
,  // measure 40
0000
0032
0000
0000
2003
0000
3200
0000
0304
0400
0000
0000
0000
0000
0000
0000
,  // measure 41
0000
0000
0000
0300
0000
0003
0000
0000
1000
0000
0100
0000
1000
0000
0100
0000
2000
0000
0000
0000
0000
0000
3020
0000
0000
0000
0000
0000
0230
0000
0000
0000
,  // measure 42
0000
0000
2300
0000
0000
0000
0000
0000
3200
0000
0000
0000
0302
0000
0000
0000
4003
0000
0400
0000
0000
0000
0000
0300
0000
3000
0000
0000
0004
0000
0400
0000
,  // measure 43
0000
0000
0000
0300
0000
0003
0000
0000
1000
0000
0010
0000
0100
0000
0001
0000
2000
0000
0000
0000
0000
0000
3200
0000
0000
0000
0000
0000
0302
0000
0000
0000
,  // measure 44
0000
2003
0000
0000
3020
0000
0031
0000
0011
0000
0000
0101
0000
0000
1100
0000
,  // measure 45
0000
1010
0000
0000
0012
0000
0000
0000
1003
0000
0000
0000
2010
0000
3002
0000
,  // measure 46
0000
0000
0023
0000
0000
0000
0000
0000
0130
0000
0000
0000
0100
0000
0000
0000
0040
0000
0004
0000
0000
0000
0000
0030
4000
0000
0000
0000
0000
0000
0000
3000
,  // measure 47
0400
0000
0000
0000
0000
0000
0000
0300
1003
0000
0100
0000
1000
0000
0100
0000
2000
0000
0000
0000
0000
0000
3002
0000
0000
0000
0000
0000
0023
0000
0000
0000
,  // measure 48
0000
0000
0230
0000
0000
0000
0000
0000
1300
0000
0000
0000
1000
0000
0000
0000
0040
0000
4000
0000
0000
0000
0000
0030
0004
0000
0000
0000
0000
0000
0000
0003
,  // measure 49
0400
0000
0000
0000
0000
0000
0000
0300
3001
0000
0100
0000
0001
0000
0100
0000
0020
0000
0000
0000
0000
0000
2030
0000
0000
0000
0000
0000
3002
0000
0000
0000
,  // measure 50
0000
2003
0000
0000
3200
0000
0000
0000
0010
0000
0000
0000
0010
0000
0310
0000
,  // measure 51
0100
0000
1000
0000
0010
0000
0100
0001
2000
0000
0000
3100
0000
0000
0012
0000
,  // measure 52
0000
0103
0000
0000
2020
0000
0000
0000
0000
0000
0000
0000
3030
0000
1000
1000
,  // measure 53
0001
0000
0010
0100
0010
0000
0001
0000
0100
0010
0100
0000
0010
0000
0002
0000
,  // measure 54
0013
0100
0020
0000
1030
0000
0010
0100
0001
0000
1000
0100
0000
1000
0100
0000
,  // measure 55
0010
0000
0001
1000
0001
0000
0100
0000
0001
1000
0001
0000
0010
0000
0200
0000
,  // measure 56
1000
0000
0320
0000
0001
0000
0130
1000
0001
0000
1000
0010
0000
1000
0001
0000
,  // measure 57
1000
0000
0010
0100
0010
0000
1000
0000
0100
0010
0100
0000
0010
0000
2000
0000
,  // measure 58
3010
0100
0020
0000
0031
0000
0010
0100
1000
0000
0001
0100
0000
0001
0100
0000
,  // measure 59
1010
0000
0000
1001
0000
0000
0021
0000
0000
0000
0130
0000
2100
0000
0000
0000
,  // measure 60
0000
0000
0000
0000
0000
0000
0000
0000
0000
0000
0000
0000
0000
0000
0000
0000
0000
0000
0000
0000
0000
0000
0000
0000
3001
0000
0000
0000
0000
0000
0000
0000
0000
0000
0000
0000
0100
0000
0000
0000
0000
0000
0000
0000
0000
0000
0000
0000
0010
0000
0000
0000
0000
0000
0000
0000
0000
0000
0000
0000
1000
0000
0000
0000
0000
0000
0000
0000
0000
0000
0000
0000
0000
0002
0000
0000
0000
0000
0000
0000
0000
0000
0000
0000
0000
0000
0000
0000
0000
0000
0000
0000
0000
0000
0000
0000
0000
0023
0000
0000
0000
0000
0000
0000
0000
0000
0000
0000
0000
0230
0000
0000
0000
0000
0000
0000
0000
0000
0000
0000
0000
0320
0000
0000
0000
0000
0000
0000
0000
0000
0000
0000
0000
0030
0000
0000
0000
0000
0000
0000
0000
0000
0000
0000
0000
0002
0000
0000
0000
0000
0000
0000
0000
0000
0000
0000
0000
0000
0000
0000
0000
0000
0000
0000
0000
0000
0000
0000
0000
2003
0000
0000
0000
0000
0000
0000
0000
0000
0000
0000
0000
0000
0000
0000
0000
0000
0000
0000
0000
0000
0000
0000
,  // measure 61
3001
0000
0100
0001
0010
0000
0001
0000
0100
0001
0010
0000
0100
0000
0002
0000
,  // measure 62
0103
0010
0200
0000
1300
0000
0001
0100
0010
0000
0100
0001
0000
1000
0001
0000
,  // measure 63
1000
0000
0100
1000
0010
0000
1000
0000
0100
1000
0010
0000
0100
0000
2000
0000
,  // measure 64
3100
0010
0200
0000
0301
0000
1000
0000
0100
0010
0100
0010
0001
1000
0001
1000
,  // measure 65
0020
0000
1030
0201
0000
0301
0010
1200
,  // measure 66
0000
0000
0302
0000
0000
0000
0103
0000
0010
0001
1000
0000
0010
0000
0100
0000
,  // measure 67
0001
0010
1000
0001
1000
0010
0002
0100
,  // measure 68
0100
0000
2003
0000
0100
0000
0100
0000
3001
0000
0100
0000
0010
1000
0010
1000
,  // measure 69
0200
0000
0300
0000
;

//---------------dance-single - ----------------
#NOTEDATA:;
#CHARTNAME:;
#STEPSTYPE:dance-single;
#DESCRIPTION:;
#CHARTSTYLE:;
#DIFFICULTY:Medium;
#METER:11;
#RADARVALUES:0.418788,0.466378,0.219472,0.689769,0.121493,374.000000,346.000000,28.000000,88.000000,8.000000,0.000000,0.000000,0.000000,0.000000,0.418788,0.466378,0.219472,0.689769,0.121493,374.000000,346.000000,28.000000,88.000000,8.000000,0.000000,0.000000,0.000000,0.000000;
#CREDIT:;
#OFFSET:-0.690500;
#BPMS:0.000000=87.000000
,32.000000=174.000000
,60.000000=87.000000
,62.000000=174.000000
,126.000000=87.000000
,150.000000=174.000000
,210.000000=87.000000
,212.000000=174.000000
,276.000000=87.000000
;
#STOPS:;
#DELAYS:;
#WARPS:;
#TIMESIGNATURES:0.000000=4=4
;
#TICKCOUNTS:0.000000=4
;
#COMBOS:0.000000=1
;
#SPEEDS:0.000000=1.000000=0.000000=0
;
#SCROLLS:0.000000=1.000000
,16.000000=1.500000
,29.500000=1.000000
,209.000000=0.500000
,210.000000=1.000000
,241.500000=0.500000
,244.000000=1.000000
;
#FAKES:;
#LABELS:0.000000=Song Start
;
#NOTES:
// measure 0
0000
0000
0000
0000
,  // measure 1
0000
0000
0000
0000
0000
0000
0100
0010
,  // measure 2
2001
0000
3200
0000
,  // measure 3
0302
0000
0000
0203
0000
2000
0000
3300
,  // measure 4
0002
0010
1000
0200
0000
0000
0303
0101
,  // measure 5
2000
0010
0001
0200
0000
0000
3300
1100
,  // measure 6
0002
0100
0010
2003
0100
0100
0100
3100
,  // measure 7
1001
0000
0000
0110
0000
0000
2002
0000
0000
0000
0000
0000
0000
0000
3003
0000
,  // measure 8
1000
1000
0010
0010
,  // measure 9
0001
0001
0100
0100
,  // measure 10
1000
1000
0010
0010
,  // measure 11
0001
0001
0100
0100
,  // measure 12
1000
0010
1000
0010
0001
0010
0001
0010
,  // measure 13
0001
0100
0001
0100
1000
0100
1000
0020
,  // measure 14
2000
0000
0000
0000
,  // measure 15
3030
0000
0000
0000
2002
3003
0000
1000
,  // measure 16
0100
0000
0000
0000
1000
0000
0000
0000
0100
0000
0000
0000
1000
0000
0000
0000
0002
0000
0000
0000
0000
0000
0000
0003
000M
0000
0000
0000
0001
0000
0000
0000
,  // measure 17
0100
0000
0000
0000
0001
0000
0000
0000
0100
0000
0000
0000
0001
0000
0000
0000
2000
0000
0000
0000
0000
0000
0000
3000
M000
0000
0000
0000
1000
0000
0000
0000
,  // measure 18
0100
1000
0100
0010
0002
0000
0203
0000
,  // measure 19
0320
0000
1030
M0M0
0102
0000
0010
0010
,  // measure 20
0020
0000
0000
0033
0000
0000
0001
0000
0100
0000
0001
0000
1000
0000
0100
0000
,  // measure 21
1000
0001
0100
0000
2100
0000
0010
0010
,  // measure 22
0020
0000
0000
3030
0000
0000
1000
0000
0100
0000
1000
0000
0001
0000
0100
0000
,  // measure 23
0010
0000
1000
0000
2002
3003
0000
0001
,  // measure 24
0010
0000
0000
0000
0001
0000
0000
0000
0010
0000
0000
0000
0001
0000
0000
0000
0200
0000
0000
0000
0000
0000
0000
0300
0M00
0000
0000
0000
1000
0000
0000
0000
,  // measure 25
0010
0000
0000
0000
1000
0000
0000
0000
0010
0000
0000
0000
1000
0000
0000
0000
0200
0000
0000
0000
0000
0000
0000
0300
0M00
0000
0000
0000
0001
0000
0000
0000
,  // measure 26
0010
0001
0010
0001
0200
0000
0320
0000
,  // measure 27
2030
0000
0000
0000
3001
0000
M00M
0000
2001
0000
0000
0100
0000
0000
0001
0000
,  // measure 28
0000
3001
0000
0000
1000
0000
0001
0000
0100
0000
0001
0000
0100
0000
0001
0000
,  // measure 29
1000
0000
0001
0000
0010
0000
0000
0000
1002
0000
0000
0103
0000
0000
0001
0000
,  // measure 30
2000
0000
0000
3100
0000
0000
1000
0000
0001
0000
0100
0000
0001
0000
0100
0000
,  // measure 31
0010
1000
0100
0000
0022
0000
0033
0002
,  // measure 32
0020
0000
0000
0000
0033
0000
0002
0000
0100
0000
0000
1000
2000
0000
0000
0000
,  // measure 33
0000
0000
3003
0000
2020
0000
3030
2000
,  // measure 34
0020
0000
3030
2000
3200
0320
0032
2003
,  // measure 35
3020
0000
0000
0100
0130
0000
0000
0000
2002
0000
0000
0000
3000
0000
0000
0000
,  // measure 36
0020
0003
0200
0000
,  // measure 37
0330
0000
0000
0000
0000
0000
0000
0000
1000
0000
0000
0100
0000
0000
0010
0000
,  // measure 38
0000
0001
0000
0000
0100
0000
0010
0000
2000
0000
0000
0000
0010
0000
0000
0000
,  // measure 39
0001
0000
0000
0000
3100
0000
0010
0000
0001
0000
0000
0100
0000
0000
0010
0000
,  // measure 40
0000
1000
0000
0000
0100
0000
0010
0000
0002
0000
0000
0000
0010
0000
0000
0000
,  // measure 41
1000
0000
0000
0000
0103
0000
0010
0000
1000
0000
0000
0001
0000
0000
0010
0000
,  // measure 42
0000
0100
0000
0000
1000
0000
0001
0000
0200
0000
0000
0000
0001
0000
0000
0000
,  // measure 43
0010
0000
0000
0000
1300
0000
0100
0000
0001
0000
0000
1000
0000
0000
0001
0000
,  // measure 44
0000
0010
0000
0000
0100
0000
1000
0000
0010
0000
0000
0110
0000
0000
0101
0000
,  // measure 45
0000
0110
0000
0000
2010
0000
0000
0000
3001
0000
0000
0000
1000
0000
0100
0000
,  // measure 46
0000
0010
0000
0000
0001
0000
1000
0000
0020
0000
0000
0000
0032
0000
0000
0000
,  // measure 47
2003
0000
0000
0000
3100
0000
0010
0000
1000
0000
0000
0001
0000
0000
0100
0000
,  // measure 48
0000
0001
0000
0000
1000
0000
0001
0000
0020
0000
0000
0000
2030
0000
0000
0000
,  // measure 49
3002
0000
0000
0000
0103
0000
0010
0000
0001
0000
0000
1000
0000
0000
0001
0000
,  // measure 50
0000
0100
0000
0000
2000
0000
0000
0000
0100
0000
0000
0000
3100
0000
0000
0000
,  // measure 51
1000
0000
0100
0000
0001
0000
0000
0000
0102
0000
0000
1003
0000
0000
2100
0000
,  // measure 52
0000
3001
0000
0000
2002
0000
0000
0000
0000
0000
0000
0000
3003
0000
1000
0100
,  // measure 53
0010
0000
0100
0010
0000
0001
0010
0200
,  // measure 54
0000
0000
0302
0000
0000
0000
0103
0000
0010
0000
0000
0001
0000
0000
1000
0000
,  // measure 55
0010
0000
0100
0010
0000
1000
0010
0200
,  // measure 56
0000
0000
2300
0000
0000
0000
3100
0000
0001
0000
0000
0001
0000
0000
0010
0000
,  // measure 57
0100
0000
0010
0100
0000
1000
0100
0020
,  // measure 58
0000
0000
2030
0000
0000
0000
3010
0000
0100
0000
0000
1000
0000
0000
0001
0000
,  // measure 59
0100
0000
0000
0110
0000
0000
2001
0000
0000
0000
3100
0000
0120
0000
0000
0000
,  // measure 60
0000
0032
0000
2000
0000
0000
3003
0000
,  // measure 61
1000
0000
0010
0100
0000
0010
1000
0200
,  // measure 62
0000
0000
0302
0000
0000
0000
0103
0000
1000
0000
0000
0100
0000
0000
0010
0000
,  // measure 63
0001
0000
0010
0100
0000
0010
0001
0200
,  // measure 64
0000
2300
0000
3100
0001
1000
0010
1000
,  // measure 65
0100
0000
0000
0110
0000
0000
1001
1002
,  // measure 66
0000
0000
0203
0000
0000
0000
0000
0000
0310
0000
0000
1000
0000
0000
0001
0000
,  // measure 67
0010
0100
0010
0100
1000
0001
1000
0001
,  // measure 68
0100
0010
1000
0100
0010
0001
0100
0100
,  // measure 69
0020
0000
0000
0000
,  // measure 70
0030
0000
0000
0000
;

//---------------dance-single - ----------------
#NOTEDATA:;
#CHARTNAME:;
#STEPSTYPE:dance-single;
#DESCRIPTION:;
#CHARTSTYLE:;
#DIFFICULTY:Easy;
#METER:7;
#RADARVALUES:0.323609,0.356642,0.431105,0.438944,0.007838,289.000000,234.000000,55.000000,56.000000,0.000000,0.000000,0.000000,0.000000,0.000000,0.323609,0.356642,0.431105,0.438944,0.007838,289.000000,234.000000,55.000000,56.000000,0.000000,0.000000,0.000000,0.000000,0.000000;
#CREDIT:;
#OFFSET:-0.690500;
#BPMS:0.000000=87.000000
,32.000000=174.000000
,60.000000=87.000000
,62.000000=174.000000
,126.000000=87.000000
,150.000000=174.000000
,209.000000=87.000000
,211.000000=174.000000
,276.000000=87.000000
;
#STOPS:;
#DELAYS:;
#WARPS:;
#TIMESIGNATURES:0.000000=4=4
;
#TICKCOUNTS:0.000000=4
;
#COMBOS:0.000000=1
;
#SPEEDS:0.000000=1.000000=0.000000=0
;
#SCROLLS:0.000000=1.000000
,16.000000=1.500000
,29.500000=1.000000
,211.000000=0.500000
,212.000000=1.000000
,241.500000=0.500000
,244.000000=1.000000
;
#FAKES:;
#LABELS:0.000000=Song Start
;
#NOTES:
// measure 0
0000
0000
0000
0000
,  // measure 1
0000
0000
0000
0010
,  // measure 2
1002
0000
0203
0000
,  // measure 3
0320
0000
2030
0000
,  // measure 4
3001
0100
0010
0100
0002
0000
0003
0000
,  // measure 5
1000
0100
0010
0100
2000
0000
3000
0000
,  // measure 6
0010
0000
0000
0100
0000
0000
0020
0000
0000
0000
0000
0000
0030
0000
0000
0000
,  // measure 7
1001
0000
0000
0110
0000
0000
2002
0000
0000
0000
0000
0000
0000
0000
3003
0000
,  // measure 8
1000
0100
1000
0100
,  // measure 9
0010
0001
0010
0001
,  // measure 10
1000
0010
1000
0010
,  // measure 11
0100
0001
0100
0001
,  // measure 12
1000
0100
0001
0010
,  // measure 13
0001
0100
1000
0010
,  // measure 14
0220
0000
0000
0000
,  // measure 15
0330
0000
2002
3003
,  // measure 16
1000
0100
2002
3003
,  // measure 17
0001
0100
2002
3003
,  // measure 18
1000
0100
0001
0010
,  // measure 19
1000
1010
0012
1000
,  // measure 20
0103
0000
0001
0100
,  // measure 21
0001
0010
2010
0001
,  // measure 22
3100
0000
1000
0100
,  // measure 23
0010
0001
2002
3003
,  // measure 24
0001
0100
2020
3030
,  // measure 25
1000
0100
0022
0033
,  // measure 26
0001
0100
1000
0010
,  // measure 27
0001
0000
0011
0000
2010
0000
0000
0010
,  // measure 28
0000
3001
1000
0100
,  // measure 29
1000
0010
0022
0033
,  // measure 30
2020
3030
0001
0010
,  // measure 31
0001
0000
0100
0000
1001
0000
0000
1000
,  // measure 32
1000
0000
0000
0001
0001
0000
0100
0000
,  // measure 33
0000
0000
0000
0000
1001
0000
0000
1000
,  // measure 34
1000
0000
0000
0001
0001
0100
0010
1000
,  // measure 35
0100
0010
2002
0003
,  // measure 36
0200
3000
0020
0000
,  // measure 37
0330
0000
0001
0100
,  // measure 38
0010
1000
0002
0010
,  // measure 39
0013
0011
1000
0100
,  // measure 40
0010
0001
2000
0010
,  // measure 41
3010
1010
0001
0100
,  // measure 42
0001
1000
0200
0010
,  // measure 43
0310
0110
1000
0010
,  // measure 44
0001
0000
0010
0000
1010
0000
0000
1001
,  // measure 45
0000
2200
3300
0001
,  // measure 46
0010
0001
0200
0320
,  // measure 47
0032
0023
1030
0010
,  // measure 48
1000
0001
0020
2030
,  // measure 49
3020
0230
1300
0010
,  // measure 50
1000
0020
0100
0130
,  // measure 51
0001
0000
1000
0000
1001
0000
0000
0110
,  // measure 52
0000
0000
2002
0000
0000
3003
0000
0000
,  // measure 53
1010
0100
1010
0100
,  // measure 54
1001
0010
1000
0100
,  // measure 55
0011
0100
0011
0100
,  // measure 56
1001
0100
1000
0010
,  // measure 57
0101
0010
0101
0010
,  // measure 58
1001
0100
0001
0010
,  // measure 59
1100
0000
0000
0101
0000
0000
2100
0000
,  // measure 60
0000
0002
0000
3003
0000
0000
0000
0000
,  // measure 61
0101
1000
0011
1000
,  // measure 62
0101
1000
0001
0010
,  // measure 63
1100
0001
1010
0001
,  // measure 64
1100
0001
1000
0010
,  // measure 65
1010
0000
0000
0011
0000
0000
0000
2010
,  // measure 66
0000
3002
0000
0000
1003
0000
0100
0000
,  // measure 67
0011
0001
0101
0100
,  // measure 68
1100
1000
0010
0001
,  // measure 69
2002
0000
0000
0000
,  // measure 70
3003
0000
0000
0000
;

//---------------dance-single - ----------------
#NOTEDATA:;
#CHARTNAME:;
#STEPSTYPE:dance-single;
#DESCRIPTION:;
#CHARTSTYLE:;
#DIFFICULTY:Beginner;
#METER:4;
#RADARVALUES:0.201556,0.299814,0.141089,0.211634,0.000000,180.000000,162.000000,18.000000,27.000000,0.000000,0.000000,0.000000,0.000000,0.000000,0.201556,0.299814,0.141089,0.211634,0.000000,180.000000,162.000000,18.000000,27.000000,0.000000,0.000000,0.000000,0.000000,0.000000;
#CREDIT:;
#OFFSET:-0.690500;
#BPMS:0.000000=174.000000
;
#STOPS:;
#DELAYS:;
#WARPS:;
#TIMESIGNATURES:0.000000=4=4
;
#TICKCOUNTS:0.000000=4
;
#COMBOS:0.000000=1
;
#SPEEDS:0.000000=1.000000=0.000000=0
;
#SCROLLS:0.000000=1.000000
;
#FAKES:;
#LABELS:0.000000=Song Start
;
#NOTES:
// measure 0
0000
0000
0000
0000
,  // measure 1
0000
0000
0000
0000
,  // measure 2
0000
0000
0000
0000
,  // measure 3
0000
0000
0000
0000
,  // measure 4
2000
0000
0000
0000
,  // measure 5
3200
0000
0000
0000
,  // measure 6
0320
0000
0000
0000
,  // measure 7
0032
0000
0000
0000
,  // measure 8
1003
0000
0010
0000
,  // measure 9
2000
0000
3000
0000
,  // measure 10
0001
0000
0010
0000
,  // measure 11
0002
0000
0003
0000
,  // measure 12
1000
0000
0010
0000
,  // measure 13
0002
0000
0003
0000
,  // measure 14
0200
0000
0000
2000
,  // measure 15
0000
0000
3300
0000
,  // measure 16
1000
0000
1000
0000
,  // measure 17
0010
0000
0010
0000
,  // measure 18
0100
0000
0100
0000
,  // measure 19
0001
0000
0001
0000
,  // measure 20
1000
0000
0100
0000
,  // measure 21
0010
0000
0001
0000
,  // measure 22
1000
0100
0010
0001
,  // measure 23
0100
0000
0000
0000
,  // measure 24
1001
0000
0010
0010
,  // measure 25
0010
0000
0010
0010
,  // measure 26
0010
0000
0010
0010
,  // measure 27
1000
0000
0001
0000
,  // measure 28
1001
0000
1000
0000
,  // measure 29
0100
1000
0010
0000
,  // measure 30
1001
0000
0001
0000
,  // measure 31
0100
0001
0010
0000
,  // measure 32
1001
0000
0100
0010
,  // measure 33
0100
0000
0100
0010
,  // measure 34
0100
0000
0100
1000
,  // measure 35
0010
0000
0100
0000
,  // measure 36
0110
0000
0001
0000
,  // measure 37
0110
0000
1000
0000
,  // measure 38
1001
0000
1001
0000
,  // measure 39
1000
0001
1000
0000
,  // measure 40
1001
0000
0000
0000
,  // measure 41
1000
0000
0000
0000
,  // measure 42
0100
0000
0100
0000
,  // measure 43
0000
0000
0000
0000
,  // measure 44
1000
0000
0000
0000
,  // measure 45
1000
0000
0000
0000
,  // measure 46
0010
0000
0010
0000
,  // measure 47
0100
0000
0001
0000
,  // measure 48
0020
0000
0000
0000
,  // measure 49
0000
0000
0000
0000
,  // measure 50
0000
0000
0000
0000
,  // measure 51
0030
0000
0000
0000
,  // measure 52
0001
0010
0001
0000
,  // measure 53
0100
0000
0010
0000
,  // measure 54
1000
0010
1000
0000
,  // measure 55
0100
0000
0010
0000
,  // measure 56
0001
1000
0001
0000
,  // measure 57
0100
0000
0010
0000
,  // measure 58
1000
0001
0010
0000
,  // measure 59
0220
0000
0000
0330
,  // measure 60
0000
1000
1000
0000
,  // measure 61
0010
1000
0100
0000
,  // measure 62
0001
0001
0001
0000
,  // measure 63
0010
0001
0100
0000
,  // measure 64
1000
0010
1000
0000
,  // measure 65
0001
0000
0010
0000
,  // measure 66
2002
0000
0000
3003
0000
0000
0220
0000
,  // measure 67
0000
0000
0000
0330
,  // measure 68
1000
0001
1000
0001
,  // measure 69
0010
0000
0010
0000
,  // measure 70
0001
1000
0001
1000
,  // measure 71
0010
0000
0010
0000
,  // measure 72
0100
0001
0100
0001
,  // measure 73
1000
0000
1000
0000
,  // measure 74
0220
0000
0000
0330
0000
0000
2002
0000
,  // measure 75
0000
0003
0000
3000
0000
0000
0000
0000
,  // measure 76
1000
0100
0010
0001
,  // measure 77
1000
0000
1000
0000
,  // measure 78
0001
0100
0010
1000
,  // measure 79
0001
0000
0001
0000
,  // measure 80
2002
0000
0000
3003
0000
0000
0220
0000
,  // measure 81
0000
0330
0000
0000
1001
0000
0000
0000
,  // measure 82
1000
0100
0001
0010
,  // measure 83
2000
0000
0000
3000
,  // measure 84
0220
0000
0000
0000
,  // measure 85
0330
0000
0000
0000
;
