#VERSION:0.83;
#TITLE:Psychic;
#SUBTITLE:;
#ARTIST:Tokyo Megaplex & Fyütch;
#TITLETRANSLIT:;
#SUBTITLETRANSLIT:;
#ARTISTTRANSLIT:Tokyo Megaplex & Fyutch;
#GENRE:Future Hip-Hop;
#ORIGIN:;
#CREDIT:;
#BANNER:Psychic.png;
#BACKGROUND:Psychic-bg.png;
#PREVIEWVID:;
#JACKET:Psychic-jacket.png;
#CDIMAGE:;
#DISCIMAGE:;
#LYRICSPATH:;
#CDTITLE:cdtitle.png;
#MUSIC:Psychic.ogg;
#OFFSET:0.014669;
#SAMPLESTART:1.984331;
#SAMPLELENGTH:16.000000;
#SELECTABLE:YES;
#BPMS:0.000=120.000;
#STOPS:;
#DELAYS:;
#WARPS:;
#TIMESIGNATURES:0.000=4=4;
#TICKCOUNTS:0.000=4;
#COMBOS:0.000=1;
#SPEEDS:0.000=1.000=0.000=0;
#SCROLLS:0.000=1.000;
#FAKES:;
#LABELS:0.000=Song Start;
#BGCHANGES:;
#KEYSOUNDS:;
#ATTACKS:
;

//---------------dance-single - ----------------
#NOTEDATA:;
#CHARTNAME:;
#STEPSTYPE:dance-single;
#DESCRIPTION:;
#CHARTSTYLE:;
#DIFFICULTY:Challenge;
#METER:15;
#RADARVALUES:0.719869,0.713237,0.130785,0.561608,0.884724,655.000000,638.000000,17.000000,73.000000,0.000000,0.000000,1.000000,0.000000,0.000000,0.719869,0.713237,0.130785,0.561608,0.884724,655.000000,638.000000,17.000000,73.000000,0.000000,0.000000,1.000000,0.000000,0.000000;
#CREDIT:;
#NOTES:
// measure 0
0000
0000
0000
0000
,  // measure 1
2002
0000
0000
0000
3003
0000
1000
0010
1000
0001
0010
0001
0100
0000
0100
0000
,  // measure 2
0000
0000
0100
0000
0001
0100
0010
1000
0100
0000
0100
0000
0010
0010
0001
0100
,  // measure 3
0010
0000
0100
0000
1000
0000
0100
0010
1000
0000
0100
0000
0001
0000
2000
0000
,  // measure 4
3020
0000
0000
0000
0000
0000
0031
0000
0000
0010
0000
0000
0001
0000
0000
0100
0000
0000
0001
0000
0000
0100
0000
0000
0010
0000
0000
0000
0010
0000
0000
0000
1000
0000
0000
0000
0100
0000
0000
0000
0100
0000
0000
0000
0010
0000
0000
0000
,  // measure 5
2002
0000
0000
0000
3003
0000
0001
0100
0001
1000
0100
0010
0002
0000
0000
0000
,  // measure 6
0203
0000
0001
0000
0000
0010
0000
1300
0100
0000
0001
0000
0010
0000
0100
1000
,  // measure 7
0010
0000
0001
0000
0020
0000
1000
0000
0130
0000
0000
0100
0000
0000
0100
0001
,  // measure 8
0010
0000
1000
0000
0020
0000
0001
0000
0130
0000
1000
0002
0000
0000
0103
0000
,  // measure 9
0220
0000
0330
0000
1000
0010
1000
0001
0010
0000
0001
0100
0010
0100
2000
0000
,  // measure 10
0000
0000
3100
0010
0100
0001
1000
0100
0010
0000
0001
0000
2000
0001
0000
3001
,  // measure 11
0200
0000
0301
0010
0001
1000
0010
1000
0100
0000
1000
0100
0010
0100
0002
0000
,  // measure 12
0000
0000
0000
0000
0000
0000
0103
0000
0000
0010
0000
0000
0100
0000
0000
1000
0000
0000
0001
0000
0000
0100
0000
0000
0010
0000
0000
0000
0010
0000
0000
0000
0010
0000
0000
0000
1000
0000
0000
0100
0000
0000
0010
0000
0000
0001
0000
0000
,  // measure 13
2002
0000
0000
0000
3003
0000
1000
1000
0001
0100
0010
0100
2000
0000
0000
0000
,  // measure 14
3200
0000
0302
0000
0023
0000
0130
0000
1000
0000
0001
0100
0020
0000
1030
0100
,  // measure 15
1000
0100
0010
0001
0100
0000
0001
0100
0001
0100
0010
0000
2000
0000
0001
0000
,  // measure 16
3001
0000
0101
0000
0000
0000
1001
0000
0000
0000
0011
0000
0001
0010
0001
0010
,  // measure 17
0001
0100
0010
1000
0100
0000
0100
0000
1000
0000
0100
0010
0001
0000
1000
0010
,  // measure 18
0100
0001
0100
0001
0010
0001
0100
0010
1000
0100
0010
0000
0001
0000
1000
0010
,  // measure 19
0100
0010
0100
0001
1000
0000
0100
1000
0001
0000
0001
0200
0000
0000
0310
1000
,  // measure 20
0100
0000
0001
0000
0100
0000
1000
0000
0010
0000
0001
0020
0000
0000
1030
0010
,  // measure 21
0100
0001
0010
0100
1000
0000
0001
0100
0001
0100
0002
0000
1003
0000
0001
0100
,  // measure 22
0010
1000
0100
0010
0001
0000
1000
0100
1000
0100
2000
0000
3001
0000
1000
0001
,  // measure 23
0100
0000
0100
0000
0001
1000
0100
0010
0100
0000
0010
0001
1000
0000
1000
0000
,  // measure 24
0001
0000
0100
0000
0010
1000
0100
0010
0001
0000
0001
0000
1000
0001
0100
0000
,  // measure 25
0202
0303
2020
3030
2200
3300
0022
0033
,  // measure 26
2002
0000
0000
0000
3003
0000
0001
0010
0001
1000
0010
1000
0100
0000
0100
0000
,  // measure 27
0000
0000
0100
0000
1000
0100
0010
0001
0100
0000
0100
0000
0010
0010
1000
0100
,  // measure 28
0010
0000
0100
0000
0001
0000
0100
0010
0001
0000
0100
0000
1000
0000
0002
0000
,  // measure 29
0023
0000
1030
0010
1000
0100
1000
0100
0010
0000
0010
0000
0001
0001
0000
0000
,  // measure 30
2002
0000
0000
0000
3003
0000
1000
0100
1000
0001
0100
0010
2000
0000
0000
0000
,  // measure 31
3200
0000
1000
0000
0000
0010
0000
0301
0100
0000
1000
0000
0010
0000
0100
0001
,  // measure 32
0010
0000
0000
0000
0000
0000
1000
0000
0000
0000
0000
0000
0020
0000
0000
0000
0000
0000
0001
0000
0000
0000
0000
0000
0130
0000
0000
0000
1000
0000
0000
0000
0001
0000
0000
0000
0100
0000
0000
0000
0000
0000
0010
0000
0000
1000
0000
0000
,  // measure 33
0010
0000
0000
0000
0000
0000
0000
0000
0000
0000
0000
0000
0000
0000
0000
0000
0000
0000
0000
0000
0000
0000
0000
0000
0001
0000
0000
0000
0000
0000
0000
0000
0000
0000
0000
0000
0000
0000
0000
0000
0000
0000
0000
0000
0000
0000
0000
0000
0020
0000
0000
0000
0000
0000
0000
0000
0000
0000
0000
0000
0000
0000
0000
0000
0000
0000
0000
0000
0000
0000
0000
0000
0000
0000
0000
0000
0000
0000
0000
0000
0000
0000
0000
0000
0030
0000
1000
0000
0000
0000
0000
0000
0000
0000
0000
0000
0001
0000
0000
0000
0000
0000
0000
0000
0000
0000
0000
0000
0000
0000
0000
0000
0000
0000
0000
0000
0000
0000
0000
0000
1000
0000
0000
0000
0000
0000
0000
0000
0000
0000
0000
0000
0000
0000
0000
0000
0000
0000
0000
0000
0000
0000
0000
0000
0100
0000
0000
0000
0000
0000
0000
0000
0000
0000
0000
0000
0000
0000
0000
0000
0000
0000
0000
0000
0000
0000
0000
0000
0010
0000
0000
0000
0000
0000
0000
0000
0000
0000
0000
0000
0001
0000
0000
0000
0000
0000
0000
0000
0000
0000
0000
0000
,  // measure 34
2000
0000
0000
0000
3010
0000
0100
0001
0100
0001
0010
0100
1000
0000
0010
0000
,  // measure 35
0200
0000
0000
0000
1300
0100
0010
0100
0001
0000
0001
0000
1000
0100
0010
0001
,  // measure 36
2000
0000
0000
3010
0100
0000
0002
0000
0100
0000
0000
0000
2003
0000
3200
0000
,  // measure 37
0320
0001
0000
0100
0000
0000
0130
0000
0010
0001
0100
0010
0000
0100
0010
1000
,  // measure 38
0002
0000
0000
0000
0013
0000
0001
0100
0010
0100
1000
0100
0010
0000
0100
0000
,  // measure 39
0002
0000
0000
0000
1003
0100
0001
0100
1000
0000
1000
0000
0001
0000
1000
0010
,  // measure 40
0001
0000
1000
0000
0100
0000
0001
0010
1000
0000
0001
0000
0100
0000
2000
0000
,  // measure 41
3002
0000
0013
0001
0100
0001
0100
0001
1000
0100
0010
0001
0000
0001
0100
0010
,  // measure 42
1000
0100
1000
0100
1000
0000
0001
0100
0010
0100
0010
0100
1000
0000
1000
0000
,  // measure 43
0100
0000
0001
0100
0001
0000
1000
0100
0010
0100
0010
0100
0001
0000
0001
0000
,  // measure 44
0100
0010
0100
0010
0100
0000
0010
0100
1000
0001
1000
0001
0100
0000
0010
1000
,  // measure 45
0100
0000
0010
0100
0010
0000
0100
0010
0001
0100
0010
1000
0000
1000
0010
0100
,  // measure 46
0001
0010
0001
0010
0001
0000
1000
0010
0100
0010
0100
0010
0001
0000
0001
0000
,  // measure 47
0010
0000
1000
0010
1000
0000
0001
0010
0100
0010
0100
0010
1000
0000
0010
0000
,  // measure 48
0001
1000
0001
1000
0001
0000
0100
0010
1000
0000
0100
0010
0001
0000
0100
0010
,  // measure 49
2000
0000
0000
0000
3010
0000
2001
0000
0100
0000
3100
0010
0001
0000
0100
0010
,  // measure 50
1000
0001
0000
0000
1000
0001
0000
0000
1000
0001
0000
0000
1000
0001
0000
0000
,  // measure 51
1000
0100
0000
0000
0010
0001
0000
0000
1001
0000
0000
0001
0100
0001
0100
0000
,  // measure 52
2010
0000
0000
0000
0000
0000
3001
0001
1000
0100
0010
0100
0002
0000
0000
0000
,  // measure 53
0103
0000
1000
0000
0000
1000
0100
1000
0001
0000
0001
0100
0001
0001
0000
0010
,  // measure 54
0002
0000
0000
0000
0103
0000
0000
0000
0010
1000
0000
0010
1000
0100
1000
0100
,  // measure 55
0040
0000
0000
0000
0031
0000
0000
0001
0100
0000
0010
0000
1000
1000
0000
0000
,  // measure 56
1002
0000
0000
0000
0000
0000
1003
1000
0001
0100
0010
0100
1000
0100
0000
0010
,  // measure 57
0100
0000
0001
0000
0000
0001
0010
0001
1000
0000
1000
0000
0010
0010
0000
0000
,  // measure 58
1000
0000
0000
0000
0000
0000
0001
0000
0000
1000
0000
0000
0000
0000
0000
0000
0000
0000
1000
0000
0000
0000
0000
0000
0100
0000
0000
0000
0100
0000
0000
0000
0100
0000
0000
0000
0010
0000
0000
0001
0000
0000
0100
0000
0000
0010
0000
0000
,  // measure 59
2000
0100
3000
0002
0100
0003
2000
0000
,  // measure 60
3001
0000
0010
0100
0000
0010
0000
1000
0000
0010
0002
0000
0003
0000
0000
0001
,  // measure 61
0100
0000
0010
0100
0000
1000
0000
0100
0000
0010
2000
0000
3000
0000
1000
0100
,  // measure 62
0020
0000
0000
0031
0000
0001
0200
0000
1000
0000
0000
0000
1300
0100
0001
0010
,  // measure 63
2000
0000
0000
3010
0000
0010
0002
0000
0000
0000
0000
0003
1000
0010
0100
0001
;

//---------------dance-single - ----------------
#NOTEDATA:;
#CHARTNAME:;
#STEPSTYPE:dance-single;
#DESCRIPTION:;
#CHARTSTYLE:;
#DIFFICULTY:Hard;
#METER:12;
#RADARVALUES:0.522042,0.516482,0.207718,0.530835,0.296190,475.000000,448.000000,27.000000,69.000000,0.000000,0.000000,0.000000,0.000000,0.000000,0.522042,0.516482,0.207718,0.530835,0.296190,475.000000,448.000000,27.000000,69.000000,0.000000,0.000000,0.000000,0.000000,0.000000;
#CREDIT:;
#NOTES:
// measure 0
0000
0000
0000
0000
,  // measure 1
2002
0000
3003
1000
0100
0010
0001
0001
,  // measure 2
0000
0000
0001
0000
0100
0000
0010
0000
1000
0000
1000
0000
0000
0000
0001
0010
,  // measure 3
0001
0000
0100
0000
0100
0000
0010
1000
0010
0000
0100
0000
0100
0000
0002
0000
,  // measure 4
0023
1000
1030
0010
0001
0001
0100
0000
,  // measure 5
1002
0000
0000
0103
0001
0010
2000
0000
,  // measure 6
3002
0000
0000
0000
0000
0000
0103
0000
1000
0000
0010
0000
0010
0000
1000
0001
,  // measure 7
1000
0000
0100
0000
0200
0000
0000
0000
0010
0000
0000
0000
0300
0000
1000
0001
,  // measure 8
1000
0000
0010
0000
0020
0000
0000
0000
0130
0000
0000
0210
0000
0000
0310
0000
,  // measure 9
2002
3003
1000
1000
0100
0001
0100
2000
,  // measure 10
0000
3001
0001
1000
0010
0001
2000
0000
,  // measure 11
3200
0001
0001
0301
0010
1000
0010
0002
,  // measure 12
0000
1003
1000
0010
0100
1000
0100
0001
,  // measure 13
0202
0000
0303
1000
0100
0010
0010
0000
,  // measure 14
0001
0000
0010
0000
1000
0000
0010
0000
0001
0000
1000
0010
2000
0000
0100
0000
,  // measure 15
3100
0010
0001
0100
0100
0010
2000
0001
,  // measure 16
3002
1000
0000
1003
0000
1001
1001
0000
,  // measure 17
1000
0000
0100
0000
0001
0000
0100
0000
0010
0000
0001
1000
0001
0000
0100
0000
,  // measure 18
1000
0000
0100
0000
0010
0000
1000
0000
0001
0010
0001
0000
1000
0000
0010
0000
,  // measure 19
0001
0000
0010
0000
1000
0000
0100
0000
0010
0000
0001
0200
0000
0000
0310
0000
,  // measure 20
1000
0000
0100
0000
0001
0000
0100
0000
1000
0000
0010
0200
0000
0000
0301
0000
,  // measure 21
0010
0000
0100
0000
1000
0000
0001
0100
0001
0100
0002
0000
0000
0000
1003
0000
,  // measure 22
0010
0000
0100
0000
0001
0000
1000
0100
1000
0100
2000
0000
0000
0000
3001
0010
,  // measure 23
0001
0000
1000
0000
0000
1000
0010
1000
0010
0000
1000
0001
1000
0000
0001
0000
,  // measure 24
0000
0000
1000
0000
0100
0010
0100
0010
0001
0000
2000
0000
0000
3001
0100
0000
,  // measure 25
0202
0303
2020
3030
2200
3300
0022
0033
,  // measure 26
2002
0000
3003
0001
0100
0010
1000
1000
,  // measure 27
0000
0000
1000
0000
0100
0000
0010
0000
0001
0000
0001
0000
0000
0000
1000
0010
,  // measure 28
1000
0000
0100
0000
0100
0000
0010
0001
0010
0000
0100
0000
0100
0000
2000
0000
,  // measure 29
3020
0001
0031
0010
1000
1000
0100
0000
,  // measure 30
2001
0000
0000
3100
1000
0010
0002
0000
,  // measure 31
2003
0000
0000
0000
0000
0000
3100
0000
0001
0000
0010
0000
0010
0000
0001
1000
,  // measure 32
0001
0000
0100
0000
0200
0000
0000
0000
0010
0000
0000
0000
0300
0000
0001
1000
,  // measure 33
0001
0000
0010
0000
0020
0000
0000
0130
1000
0000
0001
0000
1000
0000
0010
0100
,  // measure 34
0020
0000
0000
0030
1000
0000
0100
0000
0001
0000
0100
0000
1000
0000
0010
0000
,  // measure 35
0200
0000
0301
0100
1000
0100
0001
0010
,  // measure 36
0200
0000
0000
0310
0001
0000
2000
0000
0000
0000
3001
0000
0200
0000
2300
0000
,  // measure 37
3200
0000
0000
0000
0001
0000
0000
0000
0310
1000
0010
1000
0000
0001
0010
0001
,  // measure 38
0020
0000
0031
0010
1000
1000
0010
0001
,  // measure 39
0100
0000
0000
0000
0001
0000
0100
0000
1000
0000
0001
0000
0010
0000
1000
0100
,  // measure 40
0010
0000
0100
0000
0100
0000
0010
0001
1000
0000
0001
0000
0001
0000
0200
0000
,  // measure 41
0320
0000
1000
0000
1030
0000
0100
0000
0010
0001
0010
0001
0000
1000
0010
1000
,  // measure 42
0010
0000
1001
1000
0100
0001
0100
1000
,  // measure 43
0010
0000
1010
1000
0010
0001
0010
1000
,  // measure 44
0100
0000
0000
0000
1100
0000
1000
0000
0010
0000
0100
0000
0001
0000
0000
1000
,  // measure 45
0200
0000
0000
0000
0001
0000
0000
0000
0310
0001
0010
0001
0000
1000
0010
1000
,  // measure 46
0010
0000
1001
0001
0100
1000
0100
0001
,  // measure 47
0010
0000
0011
0001
0010
1000
0010
0001
,  // measure 48
0100
0000
0000
0100
1000
0000
0000
1000
0010
0000
0000
0010
0001
0000
0000
0000
,  // measure 49
2001
0000
0000
0000
3001
0000
0102
0000
0000
0000
1000
0000
1003
0000
0100
0010
,  // measure 50
0001
0001
1000
1000
,  // measure 51
1010
0101
0011
1100
,  // measure 52
2001
0000
0000
0000
0000
0000
3001
0000
1000
0010
1000
0010
1000
0000
0000
0000
,  // measure 53
0001
0000
0010
0000
0000
0010
0000
0100
1000
0000
0010
0000
0010
0100
0000
0100
,  // measure 54
0002
0000
1000
1003
,  // measure 55
1000
0000
0100
0000
0000
0100
0000
0010
0001
0000
0001
0000
0100
0010
0000
0000
,  // measure 56
1002
0000
0000
0000
0000
0000
1003
0000
0001
0010
0001
0010
0001
0000
0000
0000
,  // measure 57
1000
0000
0010
0000
0000
0010
0000
0100
0001
0000
0010
0000
0010
0200
0000
0000
,  // measure 58
0000
0000
0000
0000
0000
0300
0000
0000
1000
0000
0010
0000
0001
0000
0000
0000
,  // measure 59
0120
0000
0030
2000
0000
3000
0002
0000
,  // measure 60
0013
0000
0100
0010
0000
0100
0000
0010
0000
0100
2000
0000
3000
0000
0000
1000
,  // measure 61
0010
0000
0100
0010
0000
0100
0000
0010
0000
0100
0002
0000
0003
0000
1000
0001
,  // measure 62
2000
0000
0000
3100
0000
1000
0200
0000
0000
0000
0000
0000
0300
0000
0000
0000
,  // measure 63
0020
0000
0000
0031
0000
1000
0020
0000
0000
0000
0030
0000
1000
0001
1000
0001
;

//---------------dance-single - ----------------
#NOTEDATA:;
#CHARTNAME:;
#STEPSTYPE:dance-single;
#DESCRIPTION:;
#CHARTSTYLE:;
#DIFFICULTY:Medium;
#METER:9;
#RADARVALUES:0.392356,0.367834,0.192331,0.446209,0.038466,357.000000,332.000000,25.000000,58.000000,0.000000,0.000000,0.000000,0.000000,0.000000,0.392356,0.367834,0.192331,0.446209,0.038466,357.000000,332.000000,25.000000,58.000000,0.000000,0.000000,0.000000,0.000000,0.000000;
#CREDIT:;
#NOTES:
// measure 0
0000
0000
0000
0000
,  // measure 1
1002
0000
0000
0013
0001
0010
0001
1000
,  // measure 2
0000
0000
1000
0010
1000
0100
0000
0010
,  // measure 3
0001
0001
0100
0010
1000
1000
0100
0000
,  // measure 4
0012
0000
1003
0100
0010
0001
0000
0000
,  // measure 5
2001
0000
0000
3010
0100
0010
1000
0000
,  // measure 6
2200
0000
0300
0000
0001
0000
3001
0100
,  // measure 7
0001
0001
0020
0000
0130
0000
0000
0100
,  // measure 8
1000
0000
1000
0000
0020
0000
0000
0000
0100
0000
0000
0130
0000
0000
0000
0000
,  // measure 9
1001
0000
1000
0100
1000
0100
1000
0002
,  // measure 10
0000
0103
0001
0100
0001
0010
0002
0000
,  // measure 11
2003
0000
3001
0100
0001
0100
0001
2000
,  // measure 12
0000
3100
1000
0100
1000
0010
0100
0000
,  // measure 13
0220
0000
0330
0000
0001
1000
0100
0000
,  // measure 14
0010
0010
0010
0100
0010
0001
2000
0000
,  // measure 15
3001
0100
1000
0000
1000
0100
0002
0000
,  // measure 16
2000
0003
0000
3000
0000
1000
0001
0000
,  // measure 17
1000
0100
0010
0100
1000
0001
0100
0000
,  // measure 18
0010
0100
0001
1000
0100
0010
0001
0000
,  // measure 19
0100
0010
0100
0001
1000
0001
0010
0000
,  // measure 20
0100
0010
0100
1000
0001
1000
0010
0000
,  // measure 21
0100
0001
0010
0001
0100
0000
1001
0000
,  // measure 22
0100
1000
0010
1000
0100
0000
1001
0000
,  // measure 23
0001
0100
0010
0000
0010
0100
0001
0000
,  // measure 24
1000
0000
0010
1000
0100
0010
0001
0000
,  // measure 25
2000
3020
0032
0203
,  // measure 26
2300
0000
0000
3010
1000
0010
1000
0001
,  // measure 27
0000
0000
0001
0010
0001
0100
0000
0010
,  // measure 28
1000
1000
0100
0010
0001
0001
0100
0000
,  // measure 29
2010
0000
3001
0100
0010
1000
0000
0000
,  // measure 30
1002
0000
0000
0013
0100
0010
0001
0000
,  // measure 31
0202
0000
0300
0000
1000
0000
1003
0100
,  // measure 32
1000
1000
0020
0000
0130
0000
0000
0100
,  // measure 33
0001
0001
0020
0000
0130
0010
0100
0000
,  // measure 34
1001
0000
0001
0000
0010
0001
1000
0001
,  // measure 35
0100
0000
0010
1000
0001
1000
0100
0000
,  // measure 36
0012
0000
0000
1000
0000
0000
2000
0000
0003
0000
0000
0000
3001
0000
0100
0000
,  // measure 37
2000
0000
3100
0000
1000
0100
0001
0000
,  // measure 38
1001
0000
1000
0000
0010
1000
0100
1000
,  // measure 39
0010
0000
0100
0001
0010
0001
0100
0000
,  // measure 40
0001
0001
0010
0000
1000
1000
0010
0000
,  // measure 41
0001
0100
0010
1000
0100
0010
0001
0000
,  // measure 42
1002
0000
0103
0000
0001
0010
0001
0010
,  // measure 43
0200
0000
0310
0000
1000
0010
1000
0010
,  // measure 44
0200
0000
0310
0000
0001
1000
0020
0000
,  // measure 45
2030
0000
0100
0000
0001
0001
3001
0000
,  // measure 46
2001
0000
3100
0000
1000
0010
1000
0010
,  // measure 47
0200
0000
0310
0000
0001
0010
0001
0010
,  // measure 48
2000
3200
0320
0032
,  // measure 49
0203
0000
0010
0320
0000
1030
1001
0000
,  // measure 50
0100
0100
0100
0100
,  // measure 51
1001
0011
1001
1010
,  // measure 52
2002
0000
3003
0000
1000
0100
0001
0000
,  // measure 53
0000
0000
0100
0000
0000
0100
0000
0000
0100
0000
1000
0000
0010
0000
0000
0000
,  // measure 54
2010
0000
0000
0000
0001
0000
3001
0001
,  // measure 55
0100
0000
0000
0000
0010
1000
0001
0000
,  // measure 56
2002
0000
3003
0000
0001
0010
1000
0000
,  // measure 57
0000
0000
0010
0000
0000
0010
0000
0000
0010
0000
0001
0000
0100
0000
0000
0000
,  // measure 58
0002
0000
0000
0000
1000
1000
1003
0000
,  // measure 59
2001
0000
3000
0200
0000
0300
0020
0000
,  // measure 60
0031
0000
0000
0100
0000
0000
0000
0100
0000
0000
0001
0000
0000
0000
0000
0000
,  // measure 61
1000
0000
0000
0100
0000
0000
0000
0100
0000
0000
1000
0000
0000
0000
0000
0000
,  // measure 62
0020
0000
0000
0230
0000
0000
0002
0000
0000
0000
0000
0000
0303
0000
0000
0000
,  // measure 63
2000
0000
0000
3200
0000
0000
0002
0000
0000
0000
0000
0000
0303
0000
0000
0000
;

//---------------dance-single - ----------------
#NOTEDATA:;
#CHARTNAME:;
#STEPSTYPE:dance-single;
#DESCRIPTION:;
#CHARTSTYLE:;
#DIFFICULTY:Easy;
#METER:5;
#RADARVALUES:0.247283,0.245222,0.100012,0.338503,0.000000,225.000000,212.000000,13.000000,44.000000,0.000000,0.000000,0.000000,0.000000,0.000000,0.247283,0.245222,0.100012,0.338503,0.000000,225.000000,212.000000,13.000000,44.000000,0.000000,0.000000,0.000000,0.000000,0.000000;
#CREDIT:;
#NOTES:
// measure 0
0000
0000
0000
0000
,  // measure 1
2002
3003
1000
0100
,  // measure 2
0000
1000
0010
0000
,  // measure 3
1000
1000
0001
0001
,  // measure 4
0020
0100
0130
0000
,  // measure 5
2100
0000
3001
0100
,  // measure 6
0210
0000
1000
1300
,  // measure 7
0100
0002
0013
0000
,  // measure 8
0100
2000
3010
0000
,  // measure 9
1001
1000
0100
0002
,  // measure 10
0003
0001
0100
0010
,  // measure 11
0010
0001
0100
2000
,  // measure 12
3000
1000
0100
0001
,  // measure 13
2002
3003
0110
0000
,  // measure 14
0001
0010
1000
0010
,  // measure 15
0001
0100
0002
2000
,  // measure 16
0000
0000
0000
3003
,  // measure 17
1000
0100
0001
0100
,  // measure 18
1000
0100
0010
0001
,  // measure 19
0100
1000
0100
0001
,  // measure 20
0100
0010
1000
0001
,  // measure 21
0010
0010
0001
0100
,  // measure 22
0010
0010
1000
0100
,  // measure 23
0001
0001
0100
1000
,  // measure 24
0001
0100
0100
0010
,  // measure 25
2000
3200
0320
0032
,  // measure 26
2000
3003
0001
0100
,  // measure 27
0000
0001
0010
0000
,  // measure 28
0001
0001
1000
1000
,  // measure 29
0020
0100
0130
0000
,  // measure 30
0102
0000
1003
0100
,  // measure 31
0210
0000
0001
0301
,  // measure 32
0100
2000
3010
0000
,  // measure 33
0100
0002
0010
0013
,  // measure 34
0001
0100
0001
0100
,  // measure 35
1000
0100
1000
0100
,  // measure 36
0001
0010
0100
0010
,  // measure 37
0002
0100
0103
1001
,  // measure 38
1000
0100
1000
0100
,  // measure 39
0001
0100
0001
0100
,  // measure 40
1000
0010
0001
1000
,  // measure 41
0100
0001
0010
0001
,  // measure 42
1000
1000
0010
0100
,  // measure 43
1000
1000
0010
0100
,  // measure 44
1000
1000
0010
0100
,  // measure 45
0001
0100
1000
0100
,  // measure 46
0001
0001
0010
0100
,  // measure 47
0001
0001
0010
0100
,  // measure 48
0002
0023
0230
2300
,  // measure 49
3002
0100
2003
0100
,  // measure 50
3001
0001
0001
0001
,  // measure 51
1000
0010
0100
0001
,  // measure 52
2002
3003
0100
0000
,  // measure 53
0001
1000
0001
0010
,  // measure 54
0002
0003
0100
0100
,  // measure 55
0010
0000
0010
0010
,  // measure 56
2002
3003
0010
0000
,  // measure 57
1000
0001
1000
0010
,  // measure 58
2000
0000
0001
3001
,  // measure 59
0020
0030
0200
0300
,  // measure 60
1000
0010
0002
0003
,  // measure 61
0001
0010
2000
3000
,  // measure 62
2200
0000
0000
3300
,  // measure 63
0022
0000
0000
0033
;

//---------------dance-single - ----------------
#NOTEDATA:;
#CHARTNAME:;
#STEPSTYPE:dance-single;
#DESCRIPTION:;
#CHARTSTYLE:;
#DIFFICULTY:Beginner;
#METER:2;
#RADARVALUES:0.112102,0.147133,0.061546,0.100012,0.000000,102.000000,94.000000,8.000000,13.000000,0.000000,0.000000,0.000000,0.000000,0.000000,0.112102,0.147133,0.061546,0.100012,0.000000,102.000000,94.000000,8.000000,13.000000,0.000000,0.000000,0.000000,0.000000,0.000000;
#CREDIT:;
#NOTES:
// measure 0
0000
0000
0000
0000
,  // measure 1
1001
0000
0000
0000
,  // measure 2
0100
0000
0000
0000
,  // measure 3
0010
0000
0100
0000
,  // measure 4
0010
0000
0000
0000
,  // measure 5
1001
0000
1000
0000
,  // measure 6
0001
0000
0000
0000
,  // measure 7
2000
0000
3000
0000
,  // measure 8
0002
0000
0003
0000
,  // measure 9
1001
0000
0000
0000
,  // measure 10
0100
0000
0000
0000
,  // measure 11
1000
0000
0000
0000
,  // measure 12
0001
0000
0000
0000
,  // measure 13
1001
0000
0000
0000
,  // measure 14
1000
0000
0000
0000
,  // measure 15
0100
0000
0100
0000
,  // measure 16
0100
0000
0000
0000
,  // measure 17
1000
0000
1000
0000
,  // measure 18
0010
0000
0010
0000
,  // measure 19
0100
0000
0100
0000
,  // measure 20
0001
0000
0001
0000
,  // measure 21
2000
0000
3000
0000
,  // measure 22
0002
0000
0003
0000
,  // measure 23
0010
0000
0010
0000
,  // measure 24
0100
0000
0100
0000
,  // measure 25
1000
0000
0001
0000
,  // measure 26
1001
0000
0000
0000
,  // measure 27
0100
0000
0000
0000
,  // measure 28
0010
0000
0100
0000
,  // measure 29
0010
0000
0000
0000
,  // measure 30
1001
0000
0001
0000
,  // measure 31
1000
0000
0000
0000
,  // measure 32
0002
0000
0003
0000
,  // measure 33
2000
0000
3000
0000
,  // measure 34
0001
0000
0001
0000
,  // measure 35
0100
0000
0100
0000
,  // measure 36
0010
0000
1000
0000
,  // measure 37
0002
0000
0003
0000
,  // measure 38
1000
0000
1000
0000
,  // measure 39
0100
0000
0100
0000
,  // measure 40
0010
0000
0001
0000
,  // measure 41
1000
0000
1000
0000
,  // measure 42
0001
0000
0001
0000
,  // measure 43
0100
0000
0100
0000
,  // measure 44
1000
0000
1000
0000
,  // measure 45
0010
0000
0010
0000
,  // measure 46
0001
0000
0001
0000
,  // measure 47
0100
0000
0100
0000
,  // measure 48
1000
0000
1000
0000
,  // measure 49
0010
0000
0010
0000
,  // measure 50
0001
0000
1000
0000
,  // measure 51
0001
0000
1000
0000
,  // measure 52
2002
0000
3003
0000
,  // measure 53
0100
0000
0000
0000
,  // measure 54
0001
0000
0000
0000
,  // measure 55
0010
0000
0000
0000
,  // measure 56
2002
0000
3003
0000
,  // measure 57
0100
0000
0000
0000
,  // measure 58
1000
0000
0000
0000
,  // measure 59
0010
0000
0000
0000
,  // measure 60
1000
0000
1000
0000
,  // measure 61
0001
0000
0001
0000
,  // measure 62
0020
0000
0000
0030
,  // measure 63
0200
0000
0000
0300
;

//---------------dance-single - True Style----------------
#NOTEDATA:;
#CHARTNAME:;
#STEPSTYPE:dance-single;
#DESCRIPTION:True Style;
#CHARTSTYLE:;
#DIFFICULTY:Edit;
#METER:15;
#RADARVALUES:0.719869,0.891997,0.130785,0.561608,1.761755,655.000000,638.000000,17.000000,73.000000,0.000000,0.000000,1.000000,0.000000,0.000000,0.719869,0.891997,0.130785,0.561608,1.761755,655.000000,638.000000,17.000000,73.000000,0.000000,0.000000,1.000000,0.000000,0.000000;
#CREDIT:;
#OFFSET:0.014669;
#BPMS:0.000000=60.000000
,34.000000=120.000000
,70.000000=60.000000
,85.875000=240.000000
,85.958336=120.000000
,157.666672=80.000000
,158.000000=60.000000
;
#STOPS:;
#DELAYS:;
#WARPS:;
#TIMESIGNATURES:0.000000=4=4
;
#TICKCOUNTS:0.000000=4
;
#COMBOS:0.000000=1
;
#SPEEDS:0.000000=1.000000=0.000000=0
;
#SCROLLS:0.000000=1.000000
,85.875000=0.250000
,85.958336=0.500000
,86.166664=1.000000
,150.416672=0.000000
,150.916672=1.000000
,151.416672=0.000000
,151.916672=1.000000
,152.416672=0.000000
,152.916672=1.000000
,153.416672=0.000000
,153.916672=1.000000
,154.416672=0.000000
,154.916672=1.000000
,155.416672=0.000000
,155.916672=1.000000
,156.166672=0.000000
,156.666672=1.000000
,157.666672=1.500000
,158.000000=1.000000
;
#FAKES:;
#LABELS:0.000000=Song Start
;
#NOTES:
// measure 0
0000
0000
0000
0000
0000
0000
0000
0000
0000
0000
0000
0000
0000
0000
0000
0000
2002
0000
0000
0000
3003
0000
1000
0010
1000
0001
0010
0001
0100
0000
0100
0000
,  // measure 1
0000
0000
0100
0000
0001
0100
0010
1000
0100
0000
0100
0000
0010
0010
0001
0100
0010
0000
0100
0000
1000
0000
0100
0010
1000
0000
0100
0000
0001
0000
2000
0000
,  // measure 2
3020
0000
0000
0000
0000
0000
0000
0000
0000
0000
0000
0000
0031
0000
0000
0000
0000
0000
0010
0000
0000
0000
0000
0000
0001
0000
0000
0000
0000
0000
0100
0000
0000
0000
0000
0000
0001
0000
0000
0000
0000
0000
0100
0000
0000
0000
0000
0000
0010
0000
0000
0000
0000
0000
0000
0000
0010
0000
0000
0000
0000
0000
0000
0000
1000
0000
0000
0000
0000
0000
0000
0000
0100
0000
0000
0000
0000
0000
0000
0000
0100
0000
0000
0000
0000
0000
0000
0000
0010
0000
0000
0000
0000
0000
0000
0000
2002
0000
0000
0000
0000
0000
0000
0000
0000
0000
0000
0000
0000
0000
0000
0000
0000
0000
0000
0000
0000
0000
0000
0000
3003
0000
0000
0000
0000
0000
0000
0000
0000
0000
0000
0000
0001
0000
0000
0000
0000
0000
0100
0000
0000
0000
0000
0000
0001
0000
0000
0000
0000
0000
1000
0000
0000
0000
0000
0000
0100
0000
0000
0000
0000
0000
0010
0000
0000
0000
0000
0000
0002
0000
0000
0000
0000
0000
0000
0000
0000
0000
0000
0000
0000
0000
0000
0000
0000
0000
0000
0000
0000
0000
0000
0000
,  // measure 3
0203
0000
0001
0000
0000
0010
0000
1300
0100
0000
0001
0000
0010
0000
0100
1000
0010
0000
0001
0000
0020
0000
1000
0000
0130
0000
0000
0100
0000
0000
0100
0001
,  // measure 4
0010
0000
1000
0000
0020
0000
0001
0000
0130
0000
1000
0002
0000
0000
0103
0000
0220
0000
0330
0000
1000
0010
1000
0001
0010
0000
0001
0100
0010
0100
2000
0000
,  // measure 5
0000
0000
3100
0010
0100
0001
1000
0100
0010
0000
0001
0000
2000
0001
0000
3001
0200
0000
0301
0010
0001
1000
0010
1000
0100
0000
1000
0100
0010
0100
0002
0000
,  // measure 6
0000
0000
0000
0000
0000
0000
0000
0000
0000
0000
0000
0000
0103
0000
0000
0000
0000
0000
0010
0000
0000
0000
0000
0000
0100
0000
0000
0000
0000
0000
1000
0000
0000
0000
0000
0000
0001
0000
0000
0000
0000
0000
0100
0000
0000
0000
0000
0000
0010
0000
0000
0000
0000
0000
0000
0000
0010
0000
0000
0000
0000
0000
0000
0000
0010
0000
0000
0000
0000
0000
0000
0000
1000
0000
0000
0000
0000
0000
0100
0000
0000
0000
0000
0000
0010
0000
0000
0000
0000
0000
0001
0000
0000
0000
0000
0000
2002
0000
0000
0000
0000
0000
0000
0000
0000
0000
0000
0000
0000
0000
0000
0000
0000
0000
0000
0000
0000
0000
0000
0000
3003
0000
0000
0000
0000
0000
0000
0000
0000
0000
0000
0000
1000
0000
0000
0000
0000
0000
1000
0000
0000
0000
0000
0000
0001
0000
0000
0000
0000
0000
0100
0000
0000
0000
0000
0000
0010
0000
0000
0000
0000
0000
0100
0000
0000
0000
0000
0000
2000
0000
0000
0000
0000
0000
0000
0000
0000
0000
0000
0000
0000
0000
0000
0000
0000
0000
0000
0000
0000
0000
0000
0000
,  // measure 7
3200
0000
0302
0000
0023
0000
0130
0000
1000
0000
0001
0100
0020
0000
1030
0100
1000
0100
0010
0001
0100
0000
0001
0100
0001
0100
0010
0000
2000
0000
0001
0000
,  // measure 8
3001
0000
0101
0000
0000
0000
1001
0000
0000
0000
0011
0000
0001
0010
0001
0010
0001
0000
0100
0000
0010
0000
1000
0000
0100
0000
0000
0000
0100
0000
0000
0000
,  // measure 9
1000
0000
0100
0010
0001
0000
1000
0010
0100
0001
0100
0001
0010
0001
0100
0010
,  // measure 10
1000
0100
0010
0000
0001
0000
1000
0010
0100
0010
0100
0001
1000
0000
0100
1000
,  // measure 11
0001
0000
0001
0200
0000
0000
0310
1000
0100
0000
0001
0000
0100
0000
1000
0000
,  // measure 12
0010
0000
0001
0020
0000
0000
1030
0010
0100
0001
0010
0100
1000
0000
0001
0100
,  // measure 13
0001
0100
0002
0000
1003
0000
0001
0100
0010
1000
0100
0010
0001
0000
1000
0100
,  // measure 14
1000
0100
2000
0000
3001
0000
1000
0001
0100
0000
0100
0000
0001
1000
0100
0010
,  // measure 15
0100
0000
0010
0001
1000
0000
1000
0000
0001
0000
0100
0000
0010
1000
0100
0010
,  // measure 16
0001
0000
0001
0000
1000
0001
0100
0000
0202
0000
0303
0000
2020
0000
3030
0000
,  // measure 17
2200
0000
0000
0000
3300
0000
0000
0000
0022
0000
0000
0000
0033
0000
0000
0000
2002
0000
0000
0000
3003
0000
0001
0010
0001
1000
0010
1000
0100
0000
0100
0000
,  // measure 18
0000
0000
0100
0000
1000
0100
0010
0001
0100
0000
0100
0000
0010
0010
1000
0100
0010
0000
0100
0000
0001
0000
0100
0010
0001
0000
0100
0000
1000
0000
0002
0000
,  // measure 19
0023
0000
1030
0010
1000
0100
1000
0100
0010
0000
0010
0000
0001
0001
0000
0000
2002
0000
0000
0000
3003
0000
1000
0100
1000
0001
0100
0010
2000
0000
0000
0000
,  // measure 20
3200
0000
0000
0000
0000
0000
0000
0000
0000
0000
0000
0000
1000
0000
0000
0000
0000
0000
0000
0000
0000
0000
0000
0000
0000
0000
0000
0000
0000
0000
0010
0000
0000
0000
0000
0000
0000
0000
0000
0000
0000
0000
0301
0000
0000
0000
0000
0000
0100
0000
0000
0000
0000
0000
0000
0000
0000
0000
0000
0000
1000
0000
0000
0000
0000
0000
0000
0000
0000
0000
0000
0000
0010
0000
0000
0000
0000
0000
0000
0000
0000
0000
0000
0000
0100
0000
0000
0000
0000
0000
0001
0000
0000
0000
0000
0000
0010
0000
0000
0000
0000
0000
0000
0000
0000
0000
0000
0000
1000
0000
0000
0000
0000
0000
0000
0000
0000
0000
0000
0000
0020
0000
0000
0000
0000
0000
0000
0000
0000
0000
0000
0000
0001
0000
0000
0000
0000
0000
0000
0000
0000
0000
0000
0000
0130
0000
0000
0000
0000
0000
0000
0000
1000
0000
0000
0000
0000
0000
0000
0000
0001
0000
0000
0000
0000
0000
0000
0000
0100
0000
0000
0000
0000
0000
0000
0000
0000
0000
0000
0000
0010
0000
0000
0000
0000
0000
1000
0000
0000
0000
0000
0000
,  // measure 21
0010
0000
0000
0000
0000
0000
0000
0000
0000
0000
0000
0000
0001
0000
0000
0000
0000
0000
0000
0000
0000
0000
0000
0000
0020
0000
0000
0000
0000
0000
0000
0000
0000
0000
0000
0000
0000
0000
0000
0000
0000
0000
0030
1000
0000
0000
0000
0000
0001
0000
0000
0000
0000
0000
0000
0000
0000
0000
0000
0000
1000
0000
0000
0000
0000
0000
0000
0000
0000
0000
0000
0000
0100
0000
0000
0000
0000
0000
0000
0000
0000
0000
0000
0000
0010
0000
0000
0000
0000
0000
0001
0000
0000
0000
0000
0000
0000
0000
0000
0000
0000
0000
0000
0000
2000
0000
0000
0000
0000
0000
0000
0000
0000
0000
0000
0000
0000
0000
0000
0000
0000
0000
0000
0000
0000
0000
0000
0000
0000
0000
0000
0000
0000
0000
0000
0000
0000
0000
0000
0000
0000
0000
0000
0000
0000
0000
0000
0000
0000
0000
0000
0000
3010
0000
0000
0000
0000
0000
0000
0000
0000
0000
0000
0000
0000
0000
0000
0000
0000
0000
0000
0000
0000
0000
0000
0000
0100
0000
0000
0000
0000
0000
0000
0000
0000
0000
0000
0000
0001
0000
0000
0000
,  // measure 22
0000
0000
0100
0000
0000
0001
0000
0000
0010
0000
0000
0100
0000
0000
1000
0000
0000
0000
0000
0000
0010
0000
0000
0000
0000
0000
0200
0000
0000
0000
0000
0000
0000
0000
0000
0000
0000
0000
1300
0000
0000
0100
0000
0000
0010
0000
0000
0100
,  // measure 23
0000
0000
0001
0000
0000
0000
0000
0000
0001
0000
0000
0000
0000
0000
1000
0000
0000
0100
0000
0000
0010
0000
0000
0001
0000
0000
2000
0000
0000
0000
0000
0000
0000
0000
0000
3010
0000
0000
0100
0000
0000
0000
0000
0000
0002
0000
0000
0000
,  // measure 24
0000
0000
0100
0000
0000
0000
0000
0000
0000
0000
0000
0000
0000
0000
2003
0000
0000
0000
0000
0000
3200
0000
0000
0000
0000
0000
0320
0000
0000
0001
0000
0000
0000
0000
0000
0100
0000
0000
0000
0000
0000
0000
0000
0000
0130
0000
0000
0000
,  // measure 25
0000
0000
0010
0000
0000
0001
0000
0000
0100
0000
0000
0010
0000
0000
0000
0000
0000
0100
0000
0000
0010
0000
0000
1000
0000
0000
0002
0000
0000
0000
0000
0000
0000
0000
0000
0000
0000
0000
0013
0000
0000
0000
0000
0000
0001
0000
0000
0100
,  // measure 26
0000
0000
0010
0000
0000
0100
0000
0000
1000
0000
0000
0100
0000
0000
0010
0000
0000
0000
0000
0000
0100
0000
0000
0000
0000
0000
0002
0000
0000
0000
0000
0000
0000
0000
0000
0000
0000
0000
1003
0000
0000
0100
0000
0000
0001
0000
0000
0100
,  // measure 27
0000
0000
1000
0000
0000
0000
0000
0000
1000
0000
0000
0000
0000
0000
0001
0000
0000
0000
0000
0000
1000
0000
0000
0010
0000
0000
0001
0000
0000
0000
0000
0000
1000
0000
0000
0000
0000
0000
0100
0000
0000
0000
0000
0000
0001
0000
0000
0010
,  // measure 28
0000
0000
1000
0000
0000
0000
0000
0000
0001
0000
0000
0000
0000
0000
0100
0000
0000
0000
0000
0000
2000
0000
0000
0000
0000
0000
3002
0000
0000
0000
0000
0000
0013
0000
0000
0001
0000
0000
0100
0000
0000
0001
0000
0000
0100
0000
0000
0001
,  // measure 29
0000
0000
1000
0000
0000
0100
0000
0000
0010
0000
0000
0001
0000
0000
0000
0000
0000
0001
0000
0000
0100
0000
0000
0010
0000
0000
1000
0000
0000
0100
0000
0000
1000
0000
0000
0100
0000
0000
1000
0000
0000
0000
0000
0000
0001
0000
0000
0100
,  // measure 30
0000
0000
0010
0000
0000
0100
0000
0000
0010
0000
0000
0100
0000
0000
1000
0000
0000
0000
0000
0000
1000
0000
0000
0000
0000
0000
0100
0000
0000
0000
0000
0000
0001
0000
0000
0100
0000
0000
0001
0000
0000
0000
0000
0000
1000
0000
0000
0100
,  // measure 31
0000
0000
0010
0000
0000
0100
0000
0000
0010
0000
0000
0100
0000
0000
0001
0000
0000
0000
0000
0000
0001
0000
0000
0000
0000
0000
0100
0000
0000
0010
0000
0000
0100
0000
0000
0010
0000
0000
0100
0000
0000
0000
0000
0000
0010
0000
0000
0100
,  // measure 32
0000
0000
1000
0000
0000
0001
0000
0000
1000
0000
0000
0001
0000
0000
0100
0000
0000
0000
0000
0000
0010
0000
0000
1000
0000
0000
0100
0000
0000
0000
0000
0000
0010
0000
0000
0100
0000
0000
0010
0000
0000
0000
0000
0000
0100
0000
0000
0010
,  // measure 33
0000
0000
0001
0000
0000
0100
0000
0000
0010
0000
0000
1000
0000
0000
0000
0000
0000
1000
0000
0000
0010
0000
0000
0100
0000
0000
0001
0000
0000
0010
0000
0000
0001
0000
0000
0010
0000
0000
0001
0000
0000
0000
0000
0000
1000
0000
0000
0010
,  // measure 34
0000
0000
0100
0000
0000
0010
0000
0000
0100
0000
0000
0010
0000
0000
0001
0000
0000
0000
0000
0000
0001
0000
0000
0000
0000
0000
0010
0000
0000
0000
0000
0000
1000
0000
0000
0010
0000
0000
1000
0000
0000
0000
0000
0000
0001
0000
0000
0010
,  // measure 35
0000
0000
0100
0000
0000
0010
0000
0000
0100
0000
0000
0010
0000
0000
1000
0000
0000
0000
0000
0000
0010
0000
0000
0000
0000
0000
0001
0000
0000
1000
0000
0000
0001
0000
0000
1000
0000
0000
0001
0000
0000
0000
0000
0000
0100
0000
0000
0010
,  // measure 36
0000
0000
1000
0000
0000
0000
0000
0000
0100
0000
0000
0010
0000
0000
0001
0000
0000
0000
0000
0000
0100
0000
0000
0010
0000
0000
2000
0000
0000
0000
0000
0000
0000
0000
0000
0000
0000
0000
3010
0000
0000
0000
0000
0000
2001
0000
0000
0000
,  // measure 37
0000
0000
0100
0000
0000
0000
0000
0000
3100
0000
0000
0010
0000
0000
0001
0000
0000
0000
0000
0000
0100
0000
0000
0010
0000
0000
1000
0000
0000
0001
0000
0000
0000
0000
0000
0000
0000
0000
1000
0000
0000
0001
0000
0000
0000
0000
0000
0000
,  // measure 38
0000
0000
1000
0000
0000
0001
0000
0000
0000
0000
0000
0000
0000
0000
1000
0000
0000
0001
0000
0000
0000
0000
0000
0000
0000
0000
1000
0000
0000
0100
0000
0000
0000
0000
0000
0000
0000
0000
0010
0000
0000
0001
0000
0000
0000
0000
0000
0000
,  // measure 39
0000
0000
0000
0000
0000
0000
0000
0000
1001
0000
0000
0000
0000
0000
0000
0000
0000
0000
0000
0000
0000
0000
0000
0000
0000
0000
0000
0000
0000
0000
0000
0000
0000
0000
0000
0000
0000
0000
0000
0000
0000
0000
0000
0000
0001
0000
0000
0000
0000
0000
0000
0000
0000
0000
0000
0000
0100
0000
0000
0000
0000
0000
0000
0000
0000
0000
0000
0000
0001
0000
0000
0000
0000
0000
0000
0000
0000
0000
0000
0000
0100
0000
0000
0000
0000
0000
0000
0000
0000
0000
0000
0000
0000
0000
0000
0000
2010
0000
0000
0000
0000
0000
0000
0000
0000
0000
0000
0000
0000
0000
0000
0000
0000
0000
0000
0000
0000
0000
0000
0000
0000
0000
0000
0000
0000
0000
0000
0000
0000
0000
0000
0000
3001
0000
0000
0000
0000
0000
0001
0000
0000
0000
0000
0000
1000
0000
0000
0000
0000
0000
0100
0000
0000
0000
0000
0000
0010
0000
0000
0000
0000
0000
0100
0000
0000
0000
0000
0000
0002
0000
0000
0000
0000
0000
0000
0000
0000
0000
0000
0000
0000
0000
0000
0000
0000
0000
0000
0000
0000
0000
0000
0000
,  // measure 40
0103
0000
1000
0000
0000
1000
0100
1000
0001
0000
0001
0100
0001
0001
0000
0010
0002
0000
0000
0000
0103
0000
0000
0000
0010
1000
0000
0010
1000
0100
1000
0100
,  // measure 41
0040
0000
0000
0000
0031
0000
0000
0001
0100
0000
0010
0000
1000
1000
0000
0000
1002
0000
0000
0000
0000
0000
1003
1000
0001
0100
0010
0100
1000
0100
0000
0010
,  // measure 42
0100
0000
0000
0000
0000
0000
0000
0000
0000
0000
0000
0000
0001
0000
0000
0000
0000
0000
0000
0000
0000
0000
0000
0000
0000
0000
0000
0000
0000
0000
0001
0000
0000
0000
0000
0000
0010
0000
0000
0000
0000
0000
0001
0000
0000
0000
0000
0000
1000
0000
0000
0000
0000
0000
0000
0000
0000
0000
0000
0000
1000
0000
0000
0000
0000
0000
0000
0000
0000
0000
0000
0000
0010
0000
0000
0000
0000
0000
0010
0000
0000
0000
0000
0000
0000
0000
0000
0000
0000
0000
0000
0000
0000
0000
0000
0000
1000
0000
0000
0000
0000
0000
0000
0000
0000
0000
0000
0000
0001
0000
0000
0000
0000
0000
1000
0000
0000
0000
0000
0000
0000
0000
0000
0000
0000
0000
0000
0000
0000
0000
0000
0000
1000
0000
0000
0000
0000
0000
0000
0000
0000
0000
0000
0000
0100
0000
0000
0000
0000
0000
0000
0000
0100
0000
0000
0000
0000
0000
0000
0000
0100
0000
0000
0000
0000
0000
0000
0000
0010
0000
0000
0000
0000
0000
0001
0000
0000
0000
0000
0000
0100
0000
0000
0000
0000
0000
0010
0000
0000
0000
0000
0000
,  // measure 43
2000
0000
0100
0000
3000
0000
0002
0000
0100
0000
0003
0000
2000
0000
0000
0000
3001
0000
0010
0100
0000
0010
0000
1000
0000
0010
0002
0000
0003
0000
0000
0001
,  // measure 44
0100
0000
0010
0100
0000
1000
0000
0100
0000
0010
2000
0000
3000
0000
1000
0100
0020
0000
0000
0031
0000
0001
0200
0000
1000
0000
0000
0000
1300
0100
0001
0010
,  // measure 45
2000
0000
0000
3010
0000
0010
0002
0000
0000
0000
0000
0003
1000
0010
0100
0001
0000
0000
0000
0000
0000
0000
0000
0000
0000
0000
0000
0000
0000
0000
0000
0000
;
