#VERSION:0.83;
#TITLE:Proof of the existence;
#SUBTITLE:;
#ARTIST:猫叉Master+;
#TITLETRANSLIT:;
#SUBTITLETRANSLIT:;
#ARTISTTRANSLIT:Nekomata Master+;
#GENRE:Hard Electronica;
#ORIGIN:;
#CREDIT:;
#BANNER:Proof of the existence.png;
#BACKGROUND:Proof of the existence-bg.png;
#PREVIEWVID:;
#JACKET:Proof of the existence-jacket.png;
#CDIMAGE:;
#DISCIMAGE:;
#LYRICSPATH:;
#CDTITLE:cdtitle.png;
#MUSIC:Proof of the existence.ogg;
#OFFSET:-0.207518;
#SAMPLESTART:90.562469;
#SAMPLELENGTH:11.294113;
#SELECTABLE:YES;
#BPMS:0.000=85.000,
32.000=170.000,
128.000=85.000,
143.000=170.000,
177.000=85.000,
191.000=170.000,
259.000=85.000;
#STOPS:;
#DELAYS:;
#WARPS:;
#TIMESIGNATURES:0.000=4=4;
#TICKCOUNTS:0.000=4;
#COMBOS:0.000=1;
#SPEEDS:0.000=1.000=0.000=0;
#SCROLLS:0.000=1.000;
#FAKES:;
#LABELS:0.000=Song Start;
#BGCHANGES:;
#KEYSOUNDS:;
#ATTACKS:
;

//---------------dance-single - ----------------
#NOTEDATA:;
#CHARTNAME:;
#STEPSTYPE:dance-single;
#DESCRIPTION:;
#CHARTSTYLE:;
#DIFFICULTY:Challenge;
#METER:16;
#RADARVALUES:0.697698,0.918028,0.375683,0.406351,0.824203,637.000000,588.000000,49.000000,53.000000,0.000000,0.000000,0.000000,0.000000,27.000000,0.697698,0.918028,0.375683,0.406351,0.824203,637.000000,588.000000,49.000000,53.000000,0.000000,0.000000,0.000000,0.000000,27.000000;
#CREDIT:;
#OFFSET:-0.207518;
#BPMS:0.000000=85.000000
,32.000000=170.000000
,144.000000=85.000000
,159.000000=170.000000
,193.000000=85.000000
,207.000000=170.000000
,291.000000=85.000000
;
#STOPS:;
#DELAYS:;
#WARPS:62.500000=16.000000
,209.666672=16.000000
;
#TIMESIGNATURES:0.000000=4=4
;
#TICKCOUNTS:0.000000=4
;
#COMBOS:0.000000=1
;
#SPEEDS:0.000000=1.000000=0.000000=0
,14.000000=2.000000=2.000000=0
,62.500000=0.000000=0.000000=0
,78.500000=1.000000=1.500000=0
,209.666672=0.000000=0.000000=0
,225.666672=1.000000=1.330000=0
;
#SCROLLS:0.000000=0.500000
,30.750000=0.250000
,32.000000=0.500000
,78.500000=1.000000
,207.000000=0.000000
,207.500000=2.000000
,207.666672=0.000000
,208.166672=2.000000
,208.333328=0.000000
,208.833328=2.000000
,209.000000=0.000000
,209.500000=2.000000
,209.666672=0.000000
,209.833328=2.000000
,210.000000=0.250000
,218.000000=4.000000
,225.666672=1.000000
,305.000000=0.500000
;
#FAKES:;
#LABELS:0.000000=Song Start
;
#NOTES:
// measure 0
0000
0000
0000
0000
,  // measure 1
0000
0000
0000
0000
,  // measure 2
0000
0000
0000
0000
,  // measure 3
0000
0000
0000
0000
,  // measure 4
1000
0000
0010
0000
0000
0000
0010
0000
1000
0000
0001
0000
0000
0000
0001
1000
0100
0000
1000
0000
0100
0000
1000
0000
0001
0000
0100
0000
0010
0000
1000
0000
,  // measure 5
0001
0000
0010
0000
0000
0000
0010
0000
0001
0000
1000
0000
0000
0000
1000
0001
0100
0000
0001
0000
0100
0000
0001
0000
0010
0000
0100
0000
1000
0000
0010
0000
,  // measure 6
0100
0000
0001
0000
0000
0000
0001
0000
1000
0000
0001
0000
0000
0000
0001
0010
0100
0000
0010
0000
0100
0000
0010
0000
0001
0000
0100
0000
0010
0000
1000
0000
,  // measure 7
0100
0000
0000
0000
0100
0000
0000
0000
0100
0000
0000
0000
1000
0000
0000
0000
0010
0000
0000
0000
0100
0000
0000
0000
0002
0000
0000
0000
0000
0000
0000
0000
0000
0200
0000
0000
0000
0000
0000
0000
0000
0000
0303
0000
0000
0000
0000
0000
,  // measure 8
0010
0000
1000
0010
1000
0000
0001
0010
0001
0000
1000
0010
1000
0000
0100
1000
,  // measure 9
0100
0000
0010
0001
0010
0000
0100
1000
0100
0000
0010
0001
0010
0000
0001
0100
,  // measure 10
0001
0000
1000
0100
1000
0000
0001
0100
0001
0000
1000
0100
1000
0000
0010
1000
,  // measure 11
0010
0000
0100
0001
0100
0000
0010
1000
0010
0000
0100
0001
0100
0000
0010
1000
,  // measure 12
0001
0000
1000
0001
0010
0000
0100
1000
0001
0000
1000
0001
0100
0000
0010
0100
,  // measure 13
0001
0000
0100
0001
1000
0000
0001
1000
0100
0000
1000
0100
0010
0000
0001
0100
,  // measure 14
0010
0000
1000
0100
0010
0000
0100
1000
0010
0000
0100
0001
0010
0000
0100
1000
,  // measure 15
0001
0100
0001
0100
0010
1000
0010
1000
0100
0010
0002
0000
0000
0000
0000
0000
,  // measure 16
0003
0000
0000
0000
,  // measure 17
0000
0000
0000
0000
,  // measure 18
0000
0000
0000
0000
,  // measure 19
0000
0000
0000
0000
0000
0002
0000
0000
,  // measure 20
1003
0000
1100
0000
1000
0010
0110
0010
,  // measure 21
1000
0000
0000
0000
0000
0000
1010
0000
0000
0000
0000
0000
0010
0000
0000
1000
0000
0000
0010
1000
0001
0010
0000
0000
,  // measure 22
0001
0000
0101
0000
0001
0010
0110
0010
,  // measure 23
0001
0000
0000
0000
0000
0000
0011
0000
0000
2000
0000
0000
0000
0000
0000
3010
0000
0000
1000
0001
1000
0001
0000
0000
,  // measure 24
1000
0000
1100
0000
1000
0010
0110
0100
,  // measure 25
0001
0000
0000
0000
0000
0000
0101
0000
0000
1000
0100
1000
0100
0000
0000
0001
0000
0000
1000
0000
0000
0010
0000
0000
,  // measure 26
0001
0000
1001
0000
0001
0100
0110
0020
,  // measure 27
0000
0000
0000
0000
0000
0000
1030
0000
0010
0000
1000
0000
0001
0000
0000
0000
0000
0000
2000
0000
0000
0000
0000
0000
0000
0000
0000
0000
0000
0000
3100
0000
0000
0010
0000
0000
0100
0000
0000
0010
0000
0000
0100
0000
0000
1000
0000
0000
,  // measure 28
0001
0000
0101
0000
0001
0010
1100
0010
,  // measure 29
0001
0000
0000
0000
0000
0000
0011
0000
0000
0000
0000
0000
0010
0000
0000
0001
0000
0000
0010
0001
1000
0010
0000
0000
,  // measure 30
1000
0000
1100
0000
1000
0010
0101
0010
,  // measure 31
1000
0000
0000
0000
0000
0000
1010
0000
0000
0002
0000
0000
0000
0000
0000
0013
0000
0000
0001
1000
0001
1000
0000
0000
,  // measure 32
0001
0000
0101
0000
0001
0100
1001
0100
,  // measure 33
1000
0000
0000
0000
0000
0000
1100
0000
0000
0001
0100
0001
0100
0000
0000
1000
0000
0000
0001
0000
0000
0010
0000
0000
,  // measure 34
1000
0000
1001
0000
1000
0100
0110
0020
,  // measure 35
0000
0000
0000
0031
0010
0001
1000
0000
0000
0002
0000
0000
0000
0000
0000
2000
0000
0000
0003
0000
0000
3001
0000
0000
,  // measure 36
0100
0000
0010
0000
1000
0010
1000
0000
0100
0000
0010
0000
0002
0000
0000
0000
0000
0000
1003
0000
1000
0000
1000
0000
,  // measure 37
0100
0000
0010
0000
0001
0010
0001
0000
0100
0000
0010
0000
2000
0000
0000
0000
0000
0000
3000
0000
0000
0010
1000
0001
,  // measure 38
1000
0000
0100
0000
0001
0100
1000
0000
0010
0000
0001
0000
0020
0000
1000
0000
1030
0000
0010
0000
0100
0000
0001
0000
,  // measure 39
0010
0000
1000
0000
0010
0001
0100
0000
1000
0100
0001
0000
0020
0000
0100
0000
0130
0000
1100
0000
0000
0000
0110
0000
,  // measure 40
0000
0000
0000
0000
0011
0000
0000
0000
0000
0000
0000
0000
1001
0000
0000
0000
0000
0000
0000
0000
0000
1000
0000
0000
0010
0000
0000
0000
0000
0000
0001
0000
0000
0010
0000
0000
0100
0000
0000
0000
0000
0000
0000
0000
0000
0100
0000
0000
,  // measure 41
0010
0000
1000
0000
0002
0000
0000
0000
0100
0000
0000
0000
0103
0000
0000
0010
,  // measure 42
1000
0000
1000
0000
0001
0000
0000
0001
0010
0000
1000
0010
0100
0000
0000
0100
,  // measure 43
0010
0001
2000
0000
0100
0000
3001
0000
,  // measure 44
1000
0010
0100
0001
1000
0000
0000
1000
0100
0000
0001
0000
1000
0000
0000
1000
,  // measure 45
0010
0000
0001
0000
0200
0000
0000
0000
1000
0000
0000
0000
0310
0000
0000
0010
,  // measure 46
1000
0000
1000
0000
0001
0000
0000
0001
0100
0000
1000
0100
0010
0000
0000
0010
,  // measure 47
0100
0000
0001
0000
0020
0000
0000
0000
0130
0000
0000
0000
0100
0010
0100
0010
,  // measure 48
0001
1000
0010
0000
0210
0000
0000
0000
0301
0000
0000
0000
0002
0000
1000
0000
,  // measure 49
1003
0000
2000
0000
3100
0000
0200
0010
,  // measure 50
0310
0012
1003
2010
,  // measure 51
3001
0010
0001
1000
0010
1000
0001
0100
0001
1100
0000
1001
,  // measure 52
0000
0000
0000
0000
1010
0000
0000
0000
0000
0000
0000
0000
0101
0000
0000
0000
0000
0000
0000
0000
2001
0000
0000
0000
3100
0000
0000
0000
0000
0000
1000
0000
0000
0001
0000
0000
0100
0000
0000
0000
0000
0000
0001
0000
0000
1000
0000
0000
,  // measure 53
0010
0000
1000
0001
0010
0000
0001
1000
0100
0000
1000
0001
0100
0000
0001
1000
,  // measure 54
0100
0000
0010
0001
1000
0000
0001
1000
0000
0000
0000
0000
0000
0000
0000
0000
,  // measure 55
0000
0000
0000
0000
,  // measure 56
0000
0000
0000
0000
0000
0000
0000
0000
0000
0000
0000
0000
0000
0000
0000
0000
0000
0000
0000
0000
2001
0000
0000
0000
0000
0000
0000
0000
0000
0000
0000
0000
0000
0000
0000
0000
3200
0000
0000
0000
0000
0000
1000
0000
0000
0001
0000
0000
,  // measure 57
0000
0000
0301
1000
0020
0000
1000
0001
0000
0000
0031
1000
0200
0000
1000
0001
,  // measure 58
0000
0000
0301
1000
0100
0000
0010
0001
1000
0000
0001
1000
0200
0000
0010
0001
,  // measure 59
0000
0000
0310
1000
0020
0000
0100
0001
0000
0000
0130
0010
0002
0000
0100
0010
,  // measure 60
0000
0000
0013
0100
0001
1000
0000
1000
0100
0000
0010
0001
0200
0000
0001
1000
,  // measure 61
0000
0000
1300
0001
0020
0000
0100
1000
0000
0000
0130
0001
1000
0000
1000
0010
,  // measure 62
0001
0000
0001
0010
1000
0000
1000
0100
0001
0000
0001
0100
2000
0000
0100
0010
,  // measure 63
0000
0000
3010
0100
2000
0000
0010
0100
0000
0000
3100
0010
0200
0000
0001
1000
,  // measure 64
0000
0000
1300
0100
0010
0000
0011
0000
1001
0000
1010
0000
0201
0000
0001
1000
,  // measure 65
0000
0000
1300
0001
0020
0000
0001
1000
0000
0000
1030
0001
0200
0000
0001
1000
,  // measure 66
0000
0000
1300
0001
0100
0000
0010
1000
0001
0000
1000
0001
0200
0000
0010
1000
,  // measure 67
0000
0000
0310
0001
0020
0000
0100
1000
0000
0000
0130
0010
2000
0000
0100
0010
,  // measure 68
0000
0000
3010
0100
1000
0001
0000
0001
0100
0000
0010
1000
0200
0000
1000
0001
,  // measure 69
0000
0000
0301
1000
0020
0000
0100
0001
0000
0000
0130
1000
0001
0000
0010
0001
,  // measure 70
0100
0000
0000
0000
0000
0000
0010
0000
0000
1000
0000
0000
0100
0000
0000
0000
0000
0000
0010
0000
0000
0001
0000
0000
0100
0000
0000
0000
0000
0000
0010
0000
0000
0000
0000
0000
1010
0000
0000
0000
0000
0000
0000
0000
0110
0000
0000
0000
,  // measure 71
0000
0000
0000
0000
0101
0000
0000
0000
0000
0000
0000
0000
1010
0000
0000
0000
0000
0000
0110
0000
0000
0000
0000
0000
0110
0000
0000
0000
0000
0000
0101
0000
0000
0000
0000
0000
1000
0000
0000
0010
0000
0000
0100
0000
0000
0001
0000
0000
,  // measure 72
0010
0000
0000
0000
0000
0000
0001
0000
0000
0000
0000
0000
0010
0000
0000
0001
0000
0000
0100
0000
0000
0010
0000
0000
1000
0000
0000
0000
0100
0000
0000
0000
0010
0000
0000
0000
0200
0000
0000
0000
0000
0000
0000
0000
0000
0000
0000
0000
,  // measure 73
1300
0000
2000
0001
3001
0000
0002
0000
,  // measure 74
0103
0000
0200
0010
0310
1000
2010
0000
,  // measure 75
3001
0000
0012
1000
1003
0000
2100
0000
,  // measure 76
3001
0202
0000
0000
,  // measure 77
0000
0303
0000
0000
;

//---------------dance-single - ----------------
#NOTEDATA:;
#CHARTNAME:;
#STEPSTYPE:dance-single;
#DESCRIPTION:;
#CHARTSTYLE:;
#DIFFICULTY:Hard;
#METER:12;
#RADARVALUES:0.476450,0.690222,0.268345,0.498355,0.138006,435.000000,400.000000,35.000000,65.000000,0.000000,0.000000,0.000000,0.000000,0.000000,0.476450,0.690222,0.268345,0.498355,0.138006,435.000000,400.000000,35.000000,65.000000,0.000000,0.000000,0.000000,0.000000,0.000000;
#CREDIT:;
#OFFSET:-0.207518;
#BPMS:0.000000=85.000000
,32.000000=170.000000
,128.000000=85.000000
,143.000000=170.000000
,177.000000=85.000000
,191.000000=170.000000
,259.000000=85.000000
;
#STOPS:;
#DELAYS:;
#WARPS:;
#TIMESIGNATURES:0.000000=4=4
;
#TICKCOUNTS:0.000000=4
;
#COMBOS:0.000000=1
;
#SPEEDS:0.000000=1.000000=0.000000=0
;
#SCROLLS:0.000000=1.000000
,62.500000=2.000000
,62.875000=1.000000
,63.250000=0.500000
,64.000000=1.000000
,193.666672=2.000000
,194.000000=1.000000
,194.333328=0.500000
,195.000000=1.000000
,273.000000=0.500000
;
#FAKES:;
#LABELS:0.000000=Song Start
;
#NOTES:
0000
0000
0000
0000
,
0000
0000
0000
0000
,
0000
0000
0000
0000
,
0000
0000
0000
0000
,
2000
3100
0010
0100
0001
0100
0010
0100
,
2000
3010
0100
0010
0001
0010
0100
0010
,
2000
3100
0010
0001
0200
1300
0100
0001
,
0020
0000
0130
0000
0001
0000
0100
0000
2000
0000
0000
0002
0000
0000
3003
0000
,
1000
0010
0001
0000
0001
0010
1000
0000
,
1000
0100
0001
0000
0001
0100
1000
0000
,
0001
0010
1000
0000
1000
0010
0001
0000
,
0001
0100
1000
0000
1000
0100
0001
0000
,
1000
0100
0010
0000
0010
0100
0001
0000
,
0001
1000
0010
0000
0010
0100
1000
0000
,
0001
0100
0010
0000
0010
0100
1000
0000
,
1000
0001
0010
1000
0100
0020
0000
0000
,
0031
0000
0011
0000
0001
0010
0100
0010
,
0001
0000
0011
0000
0001
0100
1000
0100
,
0001
0000
0101
0000
0001
0010
0100
0010
,
0001
0000
0001
0200
0000
0310
1000
0100
,
0010
0000
0110
0000
0010
0100
1000
0001
,
0100
0000
0001
0100
0010
1000
0010
0100
,
1000
0000
1100
0000
1000
0100
0010
1000
,
0000
1000
0001
0010
0000
0010
0001
0001
,
1000
0000
0110
0000
1000
0010
0100
0010
,
1000
0000
0101
0000
1000
0100
0001
0100
,
1000
0000
0110
0000
1000
0010
0100
0010
,
1000
0000
1000
0200
0000
0310
0001
0100
,
0010
0000
1001
0000
0010
1000
0001
1000
,
0100
0000
1000
0100
0010
0001
0010
0100
,
0001
0000
0101
0000
0001
0100
0010
0001
,
0000
0001
1000
0020
0000
0230
0000
0301
,
1000
0100
0010
0001
0100
0010
2000
0000
0000
3001
1000
1000
,
0001
0000
0100
0000
0010
0000
1000
0000
0100
0000
0010
0000
0002
0000
0000
0000
0000
0000
0003
0000
0000
0010
0000
0000
,
0001
0100
1000
0001
0010
1000
0002
1000
1003
0001
0010
0001
,
1000
0100
0001
1000
0010
0001
2000
0001
3001
1001
0000
1001
,
0000
0000
1001
0000
0000
0000
1001
0000
0000
0000
0000
0000
1000
0000
0000
0010
0000
0000
0001
0000
0000
0000
0000
0000
,
0001
0010
2000
0000
0100
0000
3001
0100
,
0010
1000
0001
0000
0001
0010
1000
0000
,
1000
0010
0002
0000
0100
0000
1003
0000
,
0001
0100
0010
0000
1000
0100
0001
0000
,
0001
0100
2000
0000
0010
0000
3001
0010
,
0100
1000
0001
0000
0001
0100
1000
0000
,
1000
0100
0002
0000
0010
0000
1003
0100
,
0001
0100
2000
0000
3100
0000
0002
0000
,
0103
2000
3010
0002
,
0013
2000
3200
0302
,
0023
0000
0000
2030
0000
0000
3200
0000
0000
0310
0000
0100
,
0000
0010
0000
0100
0000
2002
0000
3003
0000
0201
0000
0000
,
0301
0100
2000
0000
3100
0001
0020
0000
,
0130
1000
1100
0000
0101
0000
2100
0000
,
3100
1000
0020
0000
1030
0010
0002
0000
,
0013
0000
0100
0000
0001
1000
0000
1000
0001
0000
0100
0000
0102
0000
0000
0000
,
1003
0100
0020
0000
1030
0001
0200
1000
,
2300
0010
3020
0100
0130
0001
2010
0000
,
3010
1000
0102
0000
0013
0001
2100
0000
,
3100
0001
1000
0010
0001
1000
1200
0000
,
1300
0100
0002
0000
0103
1000
0020
0000
,
0130
0001
0101
0000
1100
0000
0102
0000
,
0103
0001
0020
0000
0031
0010
2000
0000
,
3010
0000
0100
0000
1000
0001
0000
0001
1000
0000
0100
0000
2100
0000
0000
0000
,
3001
0100
0020
0000
0031
0010
1010
0000
,
0101
0000
0000
0011
0000
0000
1100
0000
0000
1001
0000
1001
,
0000
0000
1001
0000
0000
0000
0001
0000
0000
1000
0000
0000
0001
0000
0000
1000
0000
0000
0001
0000
0000
0010
0000
0000
,
1000
0010
0001
0100
1000
0100
0002
0000
,
0013
2000
3010
0002
,
0103
2000
3100
0002
,
0023
2030
3200
0302
,
0023
0200
0000
0000
,
0000
0330
0000
0000
;

//---------------dance-single - ----------------
#NOTEDATA:;
#CHARTNAME:;
#STEPSTYPE:dance-single;
#DESCRIPTION:;
#CHARTSTYLE:;
#DIFFICULTY:Medium;
#METER:9;
#RADARVALUES:0.376779,0.451299,0.122672,0.682364,0.046002,344.000000,328.000000,16.000000,89.000000,0.000000,0.000000,0.000000,0.000000,0.000000,0.376779,0.451299,0.122672,0.682364,0.046002,344.000000,328.000000,16.000000,89.000000,0.000000,0.000000,0.000000,0.000000,0.000000;
#CREDIT:;
#NOTES:
0000
0000
0000
0000
,
0000
0000
0000
0000
,
0000
0000
0000
0000
,
0000
0000
0000
0000
,
2000
0000
3010
0000
1000
0010
1010
0000
,
0002
0000
0013
0000
0001
0010
0011
0000
,
2001
0000
3100
0000
1002
0100
0103
0000
,
0001
1000
0100
0010
0200
0000
0000
0300
,
1000
0100
1000
0000
0010
1000
0010
0000
,
0100
0001
0100
0000
0001
0010
0001
0000
,
1000
0010
1000
0000
0100
1000
0100
0000
,
0010
0001
0010
0000
0001
0100
0001
0000
,
1000
0100
0010
0000
0100
0010
0001
0000
,
0001
0100
0010
0000
0100
0010
1000
0000
,
1000
0100
0010
0000
0001
0100
0010
0000
,
1000
0001
1000
0001
1000
0200
0000
0300
,
2100
0000
3000
0000
0000
0001
1000
0020
,
0000
0030
0000
0000
0000
0010
1000
0002
,
0000
0003
0000
0000
0000
0001
1000
0200
,
0000
0300
0000
1200
0000
0310
0001
0100
,
0002
0000
0003
0000
0000
0100
0001
0020
,
0000
0030
0000
0100
1000
0001
1000
0010
,
2000
0000
3000
0000
0000
0010
1000
0200
,
0000
0310
0001
0200
0000
0310
0000
0100
,
0002
0000
1003
0000
0000
1000
0001
0020
,
0000
0030
0001
0000
0000
0010
0001
2000
,
0000
3000
0001
0000
0000
1000
0001
0200
,
0000
0300
0001
0200
0000
0310
1000
0100
,
2000
0000
3100
0000
0000
0100
1000
0020
,
0000
0030
0100
0001
1000
0001
0010
0001
,
2000
0000
3001
0000
0000
0010
0001
0200
,
0000
0310
1000
0002
0000
0023
0000
0000
,
0130
0000
0100
1000
0000
1000
0002
0000
0000
0103
0000
0000
,
0010
0000
0000
0000
0010
0000
1000
0000
0000
0000
1000
0000
0002
0000
0000
0000
0000
0000
1003
0000
0000
0100
0000
0000
,
0010
0000
0010
0001
0000
0001
0100
0000
0100
1000
0000
1000
,
0100
0000
0100
0001
0000
0001
0010
0000
0000
2002
0000
0000
,
3003
0000
1001
0000
0001
0010
0001
0000
,
0010
0100
2000
0000
0100
0000
3001
0000
,
0100
0000
0010
0000
1000
0010
1000
0000
,
0010
0100
0002
0000
0100
0000
1003
0000
,
0001
1000
0001
0000
1000
0100
1000
0000
,
0100
0010
0002
0000
0010
0000
1003
0000
,
0100
0000
0010
0000
0001
0100
0001
0000
,
0100
0010
2000
0000
0010
0000
3001
0100
,
0010
1000
0002
0000
0013
0000
0020
0000
,
0130
0200
1300
2000
,
3001
2000
3020
2030
,
3002
0023
0031
2002
,
0000
0000
0000
0000
0000
3003
0000
0000
0000
2001
0000
0000
,
3010
1000
0200
0000
0310
0001
0200
0000
,
0310
1000
0200
0000
0302
0000
0203
0000
,
0310
0100
2000
0000
3010
0100
2000
0000
,
3100
0001
2000
0000
3002
0000
0203
0000
,
0301
0010
0200
0000
0310
0100
0002
0000
,
2003
3020
0032
2003
,
3010
1000
0200
0000
0310
0001
0100
0000
,
1001
0000
0001
0100
0010
1000
0002
0000
,
0013
0001
0200
0000
0310
1000
0200
0000
,
0310
0001
0200
0000
2300
0000
3200
0000
,
0310
0100
0002
0000
0013
0100
0002
0000
,
0103
1000
0002
0000
2003
0000
3200
0000
,
1300
0010
0200
0000
0310
0100
0101
0000
,
0011
0000
0000
1100
0000
0000
1010
0000
0000
0001
0000
1000
,
0000
0000
0001
0000
0000
0000
1000
0000
0000
0001
0000
0000
1000
0000
0000
0001
0000
0000
2000
0000
0000
0010
0000
0000
,
3010
0000
2000
0010
3010
0100
0201
0000
,
0301
0002
1003
2000
,
3100
0200
0310
0002
,
0023
0032
2003
3020
,
2030
0200
0000
0000
,
0000
3300
0000
0000
;

//---------------dance-single - ----------------
#NOTEDATA:;
#CHARTNAME:;
#STEPSTYPE:dance-single;
#DESCRIPTION:;
#CHARTSTYLE:;
#DIFFICULTY:Easy;
#METER:6;
#RADARVALUES:0.269441,0.371658,0.069003,0.659363,0.000000,246.000000,237.000000,9.000000,86.000000,0.000000,0.000000,0.000000,0.000000,0.000000,0.269441,0.371658,0.069003,0.659363,0.000000,246.000000,237.000000,9.000000,86.000000,0.000000,0.000000,0.000000,0.000000,0.000000;
#CREDIT:;
#NOTES:
0000
0000
0000
0000
,
0000
0000
0000
0000
,
0000
0000
0000
0000
,
0000
0000
0000
0000
,
2000
0000
3010
0000
1000
1000
0010
0000
,
0002
0000
0013
0000
0001
0001
0010
0000
,
2000
0000
3100
0000
0002
0100
0103
0000
,
2000
0000
3001
0000
0200
0000
0000
0300
,
0001
0100
0010
0100
,
1000
0100
0010
0100
,
0001
0010
0100
0010
,
1000
0010
0100
0010
,
0001
0100
1000
0100
,
0001
0010
1000
0010
,
0001
0100
0010
1000
,
0100
0010
2002
3003
,
0002
0000
0003
0000
0000
1000
0000
0020
,
0000
0030
0000
0000
0000
1000
0000
0200
,
0000
0300
0000
0000
0000
1000
0000
0020
,
0000
0030
0000
1000
0000
0000
1000
0000
,
0200
0000
0300
0000
0000
1000
0000
0020
,
0000
0030
0000
0000
1000
0000
0001
0000
,
0020
0000
0030
0000
0000
0100
0000
0010
,
0000
0100
0000
1000
0000
0002
0000
0003
,
2000
0000
3001
0000
0000
0001
0000
0020
,
0000
0030
0001
0000
0000
0001
0000
0200
,
0000
0300
0001
0000
0000
0001
0000
0020
,
0000
0030
0000
0001
0000
0000
0001
0000
,
0200
0000
0301
0000
0000
0001
0000
0020
,
0000
0030
0001
0000
1000
0000
0010
0000
,
0200
0000
0310
0000
0000
0100
0000
0010
,
0000
0100
0000
0001
0000
1002
0000
0000
,
1003
0100
0002
0103
,
0001
0010
2000
3010
,
1000
0100
0001
0010
,
0001
0100
1000
0020
,
0000
0030
0000
1000
0000
0000
0010
0000
0000
0001
0000
0000
,
0010
2000
3100
1000
,
1000
0001
0010
1000
,
0010
0002
0103
0010
,
1000
0001
0100
1000
,
0100
0002
0013
0001
,
0001
1000
0100
0001
,
0100
2000
3010
0001
,
0010
2000
3100
0200
,
0310
0020
0031
0002
,
1003
0002
0203
0302
,
2003
3200
2300
0002
,
0000
0000
0000
0000
0000
3003
0000
0000
0000
2000
0000
0000
,
0010
3002
0010
2003
,
0100
3002
0203
0302
,
0010
2003
0001
3020
,
1000
0230
0302
0023
,
0001
0230
1000
0320
,
2030
3020
0032
0203
,
1000
0320
1000
0230
,
0001
0320
2030
3002
,
0010
2003
0010
3002
,
0100
2003
3200
2300
,
0010
3002
1000
0023
,
0001
0230
2300
3020
,
1000
0230
0301
1010
,
0101
0011
1100
0001
,
0001
1000
1000
1001
,
0010
1001
0100
1002
,
0103
0200
0310
0020
,
1030
2000
3100
2000
,
3200
2300
3002
0203
,
0302
2000
0000
0000
,
0000
3003
0000
0000
;

//---------------dance-single - ----------------
#NOTEDATA:;
#CHARTNAME:;
#STEPSTYPE:dance-single;
#DESCRIPTION:;
#CHARTSTYLE:;
#DIFFICULTY:Beginner;
#METER:3;
#RADARVALUES:0.159912,0.238827,0.023001,0.076670,0.000000,146.000000,143.000000,3.000000,10.000000,0.000000,0.000000,0.000000,0.000000,0.000000,0.159912,0.238827,0.023001,0.076670,0.000000,146.000000,143.000000,3.000000,10.000000,0.000000,0.000000,0.000000,0.000000,0.000000;
#CREDIT:;
#OFFSET:-0.207518;
#BPMS:0.000000=170.000000
;
#STOPS:;
#DELAYS:;
#WARPS:;
#TIMESIGNATURES:0.000000=4=4
;
#TICKCOUNTS:0.000000=4
;
#COMBOS:0.000000=1
;
#SPEEDS:0.000000=1.000000=0.000000=0
;
#SCROLLS:0.000000=1.000000
;
#FAKES:;
#LABELS:0.000000=Song Start
;
#NOTES:
0000
0000
0000
0000
,
0000
0000
0000
0000
,
0000
0000
0000
0000
,
0000
0000
0000
0000
,
0000
0000
0000
0000
,
0000
0000
0000
0000
,
0000
0000
0000
0000
,
0000
0000
0000
0000
,
1000
0000
0000
0000
,
0000
0000
0000
0000
,
0010
0000
0000
0000
,
0000
0000
0000
0000
,
0001
0000
0000
0000
,
0100
0000
0000
0000
,
1000
0000
0000
0000
,
0002
0000
0000
0003
0000
0000
0000
0000
,
1000
0000
0010
0000
,
1000
0000
0010
0000
,
0100
0000
0001
0000
,
0100
0000
0001
0000
,
0010
0000
0001
0000
,
0010
0000
0001
0000
,
1000
0000
0100
0000
,
1000
0000
1000
0000
,
0001
0000
0000
1000
,
1000
0000
0000
0001
,
0001
0000
0000
1000
,
1000
0000
0001
0000
,
1000
0000
0000
0001
,
0001
0000
0010
0010
,
0010
0000
0000
0100
,
0000
1000
0000
1000
,
1000
0000
0000
0010
,
0010
0000
0000
1000
,
1000
0000
0000
0001
,
0001
0000
0010
0000
,
0001
0000
0000
1000
,
1000
0000
0010
0010
,
0010
0000
0000
0100
,
0000
0001
0000
0000
,
0001
0000
0100
0000
,
0001
0000
0000
0000
,
1000
0000
0100
0000
,
1000
0000
0000
0000
,
0001
0000
0100
0000
,
0010
0000
1000
0000
,
0100
0000
0010
0000
,
0001
0000
0000
0000
,
1000
1000
1000
0000
,
0100
0000
0010
0000
,
0001
0001
0001
0000
,
0100
0000
0010
0000
,
0100
0100
0100
0000
,
0001
0000
1000
0000
,
0100
0100
0100
0000
,
0010
0000
0001
0000
,
1000
0000
0000
0000
,
0010
0000
0000
0000
,
0100
0000
0000
0000
,
0001
0000
0000
0000
,
2000
0000
3000
0000
,
0020
0000
0030
0000
,
0200
0000
0300
0000
,
2002
0000
3003
0000
,
0001
0000
0010
0000
,
0100
0000
1000
1000
,
1000
0000
0100
0000
,
0010
0000
0001
0001
,
0001
0000
0100
0000
,
0010
0010
0010
0000
,
1000
0000
0001
0000
,
0001
0000
1000
1000
,
1000
0000
0010
0000
,
0100
0000
0001
0001
,
0001
0000
0100
0000
,
0010
0000
1000
1000
,
1000
0000
0100
0000
,
0010
0010
0010
0000
,
0001
0000
1000
0000
,
0110
0000
1001
0000
,
0001
0000
0000
0000
,
0010
0000
0000
0000
,
0100
0000
0000
0000
,
1000
0000
0000
0000
,
0002
0000
0003
0000
,
0020
0000
0030
0000
,
0200
0000
0300
0000
,
2000
0000
0000
0000
,
0000
0000
0000
0000
,
3000
0000
0000
0000
;
