#VERSION:0.83;
#TITLE:PrayStation;
#SUBTITLE:;
#ARTIST:Ras;
#TITLETRANSLIT:;
#SUBTITLETRANSLIT:;
#ARTISTTRANSLIT:;
#GENRE:Electro;
#ORIGIN:;
#CREDIT:;
#BANNER:PrayStation.png;
#BACKGROUND:PrayStation-bg.png;
#PREVIEWVID:;
#JACKET:PrayStation-jacket.png;
#CDIMAGE:;
#DISCIMAGE:;
#LYRICSPATH:;
#CDTITLE:cdtitle.png;
#MUSIC:PrayStation.ogg;
#OFFSET:1.219864;
#SAMPLESTART:39.343517;
#SAMPLELENGTH:13.521130;
#SELECTABLE:YES;
#BPMS:0.000=142.000;
#STOPS:;
#DELAYS:;
#WARPS:;
#TIMESIGNATURES:0.000=4=4;
#TICKCOUNTS:0.000=4;
#COMBOS:0.000=1;
#SPEEDS:0.000=1.000=0.000=0;
#SCROLLS:0.000=1.000;
#FAKES:;
#LABELS:0.000=Song Start;
#BGCHANGES:3.875=PrayStation.avi=1.000=1=0=0=StretchNoLoop==CrossFade==,
99999=-nosongbg-=1.000=0=0=0 // don't automatically add -songbackground-
;
#KEYSOUNDS:;
#ATTACKS:
;

//---------------dance-single - ----------------
#NOTEDATA:;
#CHARTNAME:;
#STEPSTYPE:dance-single;
#DESCRIPTION:;
#CHARTSTYLE:;
#DIFFICULTY:Challenge;
#METER:16;
#RADARVALUES:0.845514,0.846260,0.478180,0.369913,0.947337,656.000000,603.000000,53.000000,41.000000,38.000000,0.000000,6.000000,0.000000,0.000000,0.845514,0.846260,0.478180,0.369913,0.947337,656.000000,603.000000,53.000000,41.000000,38.000000,0.000000,6.000000,0.000000,0.000000;
#CREDIT:;
#NOTES:
// measure 0
0000
0000
0000
0000
,  // measure 1
0000
0000
0000
0000
,  // measure 2
0000
0000
0000
0000
,  // measure 3
0000
0000
0000
0000
0000
0000
0000
0000
0000
0000
0000
0000
200M
0000
3010
0010
,  // measure 4
M002
0000
0013
0010
200M
0000
3010
0010
M002
0000
0013
0010
400M
0000
0000
0000
,  // measure 5
3001
0000
0010
0001
0000
0001
1000
0000
0001
0100
00MM
0100
1000
0000
0010
0000
,  // measure 6
1000
0000
0100
0010
0000
0010
0001
0000
1000
0001
0100
0001
1000
0001
0100
0001
,  // measure 7
1000
0000
0100
1000
0100
0000
0010
0000
0001
0000
0100
0001
0100
0001
0010
0001
,  // measure 8
0100
0000
0010
1000
0000
1000
0100
0000
0010
0000
0010
0000
0010
0000
0001
0001
,  // measure 9
1000
0000
0010
1000
0000
1000
0001
0000
1000
0100
M0M0
0100
0001
0000
0010
0000
,  // measure 10
0001
0000
0100
0010
0000
0010
1000
0000
0001
1000
0100
1000
0001
1000
0100
1000
,  // measure 11
0001
0000
0100
0001
0100
0000
0010
0000
1000
0000
0100
1000
0100
1000
0010
1000
,  // measure 12
0100
0000
0010
0001
0000
0001
0100
0000
0010
0000
0010
0000
0010
0000
1000
1000
,  // measure 13
0001
0000
1000
0010
0000
1000
0100
0000
0010
0001
0MM0
0001
0100
0000
1000
0000
,  // measure 14
0001
0000
0100
0010
0000
0010
1000
0000
0001
0010
0100
0010
0001
0010
0100
0010
,  // measure 15
0001
0000
0100
0010
0100
0000
1000
0000
0001
0000
0010
0100
0010
1000
0001
1000
,  // measure 16
0100
0000
0010
0001
0000
0100
0010
0000
1000
0000
1000
0000
1000
0000
0001
0001
,  // measure 17
1000
0000
0001
0010
0000
0001
0100
0000
0010
1000
0MM0
1000
0100
0000
0001
0000
,  // measure 18
1000
0000
0100
0010
0000
0010
0001
0000
1000
0010
0100
0010
1000
0010
0100
0010
,  // measure 19
1000
0000
0100
0010
0100
0000
0001
0000
1000
0000
0010
0100
0010
0001
1000
0001
,  // measure 20
0100
0000
0001
0100
0000
0010
0100
0000
0001
0100
0000
0010
0100
0000
1000
0100
,  // measure 21
0000
0010
0100
0000
1000
0100
0000
0001
0100
0000
1000
0100
0000
0100
0001
0000
,  // measure 22
1000
0001
1000
0001
1000
0001
1000
0001
1000
0001
1000
0001
1000
0001
1000
0001
,  // measure 23
4000
0004
0000
0000
0000
0000
0000
0000
0000
0000
0000
0000
0000
0000
0000
0000
0000
0000
0000
0000
0000
0000
3003
0000
M00M
0000
0000
0000
0000
0000
0000
0000
,  // measure 24
1000
0000
0010
0001
0000
0010
1000
0000
0100
0001
0000
0100
1000
0000
1010
0000
,  // measure 25
0001
0000
1000
0010
0000
1000
0100
0000
0001
0100
0010
0100
0001
0100
0010
0100
,  // measure 26
1000
0000
0010
0100
0001
0000
0011
0000
1100
0000
0010
0100
1000
0010
MM1M
0010
,  // measure 27
1000
0000
0100
0010
0000
0001
0100
0000
0101
0000
1010
0000
0101
0000
0001
1000
,  // measure 28
0001
0000
0010
1000
0000
0010
0001
0000
0100
1000
0000
0100
0001
0000
0011
0000
,  // measure 29
1000
0000
0001
0010
0000
0001
0100
0000
1000
0100
0010
0100
1000
0100
0010
0100
,  // measure 30
0001
0000
0010
0100
1000
0000
1010
0000
0101
0000
0010
0100
0001
0010
MM1M
0010
,  // measure 31
0001
0000
0100
0010
0000
1000
0100
0000
1100
0000
0011
0000
1100
0000
1000
0001
,  // measure 32
1000
0000
0001
0100
0000
0100
1000
0000
0001
0010
0000
1000
0010
0000
0110
0000
,  // measure 33
0001
0000
1000
0100
0000
0100
0010
0000
1000
0010
0100
0010
1000
0010
0100
0010
,  // measure 34
0001
0000
0100
0010
1000
0000
0011
0000
1100
0000
0100
0010
0001
0100
M1MM
0100
,  // measure 35
0001
0000
1000
0100
0000
0001
0100
0000
1100
0000
1001
0000
0101
0000
0001
1000
,  // measure 36
0001
0000
1000
0100
0000
0100
0001
0000
1000
0010
0000
0001
0010
0000
0110
0000
,  // measure 37
1000
0000
0001
0100
0000
0100
0010
0000
0001
0010
0100
0010
0001
0010
0100
0010
,  // measure 38
1000
0000
0100
0010
0001
0000
1010
0000
0101
0000
0100
0010
1000
0100
M1MM
0100
,  // measure 39
2000
0000
3000
0000
1000
0000
0010
1000
0200
0000
1300
0000
M01M
0010
0M10
0010
,  // measure 40
M01M
0000
0000
0000
0000
0000
1000
0000
1000
0000
1000
0000
1001
0000
0000
0010
0000
0000
1000
0000
0000
0010
0000
0000
,  // measure 41
1001
0000
0100
1000
0100
0000
1000
0000
1200
0000
0000
0000
0302
0000
0203
0000
,  // measure 42
1300
1000
1000
1000
2020
0000
0030
3001
,  // measure 43
0100
0000
0001
0100
0000
0000
1100
0000
0012
0000
0000
0020
0000
0030
1003
0001
,  // measure 44
0100
0000
0000
0000
0000
0000
0001
0000
0001
0000
0001
0000
1001
0000
0000
0010
0000
0000
0001
0000
0000
0010
0000
0000
,  // measure 45
1001
0000
0100
0001
0100
0000
0001
0000
0201
0000
0000
0000
2300
0000
3200
0000
,  // measure 46
0301
0000
0000
0000
0000
0000
0000
0000
0000
0001
0000
0000
0000
0000
0000
0000
0000
0000
0001
0000
0000
0000
0000
0000
0011
0000
0000
0000
0000
0000
0100
0000
0000
0000
0000
0000
1000
0000
0000
0000
0001
0000
0000
0000
0010
0000
0000
0000
,  // measure 47
0100
0000
0000
1100
0000
0000
0011
0000
1001
0000
0000
0000
2000
0000
0000
0000
,  // measure 48
3020
0000
0000
0032
0000
0000
1003
0000
0110
0000
0002
0000
0000
0000
0023
0000
,  // measure 49
0000
0230
0000
1300
0110
0000
2000
3002
,  // measure 50
0023
0000
0000
2030
0000
0000
3001
0000
0110
0000
2000
0000
0000
0000
3002
0000
,  // measure 51
0000
0203
0000
0310
1001
0000
2000
3002
,  // measure 52
2003
0000
0000
3020
0000
0000
0031
0000
1001
0000
0002
0000
0000
0000
0203
0000
,  // measure 53
0000
2300
0000
3001
1001
0000
0100
0010
,  // measure 54
2001
0100
3001
0012
0100
1003
2010
0100
,  // measure 55
3001
0000
0012
0000
0100
0000
1003
0000
1010
0000
0000
1001
0000
0000
0011
0000
,  // measure 56
1001
0000
0001
0100
1000
0000
0001
0000
1000
0100
0001
0000
1000
0000
0001
0000
,  // measure 57
1000
0100
0001
0000
1000
0000
1000
0000
0001
0100
0000
0100
1000
0000
1010
0000
,  // measure 58
0001
0000
0000
0100
0000
0000
0001
0000
0000
0100
0000
0000
0010
0000
0000
1000
0000
0000
0100
0000
0000
0000
0000
0000
0010
0000
0000
0001
0000
0000
0000
0000
0000
0001
0000
0000
0100
0000
0000
0000
0000
0000
0010
0000
1000
0000
0010
0000
,  // measure 59
1000
0000
0001
0100
0010
1000
0100
1000
0400
0340
0034
0003
0010
0001
0010
0001
,  // measure 60
1000
0010
0001
0010
1000
0000
1002
0000
0000
0000
1003
0000
0001
0000
1001
0000
,  // measure 61
0001
0010
1000
0000
0001
0000
1000
0010
0001
1000
0000
1000
0001
0000
0101
0000
,  // measure 62
0010
0000
0000
1000
0000
0000
0010
0000
0000
1000
0000
0000
0100
0000
0000
0010
0000
0000
0001
0000
0000
0000
0000
0000
1000
0000
0000
0010
0000
0000
0000
0000
0000
1000
0000
0000
0100
0000
0000
0000
0000
0000
0010
0000
0001
0000
0010
0000
,  // measure 63
0001
0000
1000
0001
0100
0001
0100
0000
1000
0100
0001
0000
1MM1
0000
1000
0100
,  // measure 64
0000
0000
000M
0000
0000
M000
0000
0000
000M
0000
0000
M000
0000
0000
0000
0000
;

//---------------dance-single - ----------------
#NOTEDATA:;
#CHARTNAME:;
#STEPSTYPE:dance-single;
#DESCRIPTION:;
#CHARTSTYLE:;
#DIFFICULTY:Hard;
#METER:13;
#RADARVALUES:0.647025,0.634547,0.415024,0.342846,0.568402,502.000000,456.000000,46.000000,38.000000,26.000000,0.000000,5.000000,0.000000,0.000000,0.647025,0.634547,0.415024,0.342846,0.568402,502.000000,456.000000,46.000000,38.000000,26.000000,0.000000,5.000000,0.000000,0.000000;
#CREDIT:;
#NOTES:
// measure 0
0000
0000
0000
0000
,  // measure 1
0000
0000
0000
0000
,  // measure 2
0000
0000
0000
0000
,  // measure 3
0000
0000
0000
1010
,  // measure 4
0101
0011
1100
4001
,  // measure 5
3001
0000
0010
0001
0000
1000
0000
0000
0001
0100
0000
0001
0100
0000
0010
0000
,  // measure 6
1000
0000
0001
0010
0000
0001
0000
0000
1000
0000
0010
0000
0100
0000
0010
0000
,  // measure 7
1000
0000
1000
0100
0000
0000
0010
0000
0001
0000
0001
0100
0000
0010
1000
0010
,  // measure 8
0000
0000
1000
0000
0000
0100
0010
0000
0001
0000
0001
0000
0001
0000
0000
0000
,  // measure 9
1000
0000
0010
1000
0000
0001
0000
0000
1000
0100
0000
1000
0100
0000
0010
0000
,  // measure 10
0001
0000
1000
0010
0000
1000
0000
0000
0001
0000
0010
0000
0100
0000
0010
0000
,  // measure 11
0001
0000
0001
0100
0000
0000
0010
0000
1000
0000
1000
0100
0000
0010
0001
0010
,  // measure 12
0000
0000
0001
0000
0000
0100
0010
0000
1000
0000
1000
0000
1000
0000
0000
0000
,  // measure 13
0001
0000
0010
0100
0000
0010
0000
0000
0001
0100
0000
0001
0100
0000
1000
0000
,  // measure 14
0100
0000
0010
1000
0000
0001
0000
0000
1000
0000
0100
0000
0001
0000
0100
0000
,  // measure 15
1000
0000
1000
0010
0000
0000
0100
0000
0001
0000
0001
0010
0000
0001
0100
0001
,  // measure 16
0000
0000
1000
0000
0000
0100
0010
0000
0001
0000
0001
0000
0001
0000
0000
0000
,  // measure 17
1000
0000
0010
0100
0000
0010
0000
0000
1000
0100
0000
1000
0100
0000
0001
0000
,  // measure 18
0100
0000
0010
0001
0000
1000
0000
0000
0001
0000
0100
0000
1000
0000
0100
0000
,  // measure 19
0001
0000
0001
0010
0000
0000
0100
0000
1000
0000
1000
0010
0000
0100
0001
0000
,  // measure 20
1000
0000
0000
1100
0000
0000
0100
0000
0000
0110
0000
0000
0010
0000
0000
0011
,  // measure 21
0000
0000
0001
0000
0000
0101
0000
0000
0100
0000
0000
0110
0000
0000
0010
0000
,  // measure 22
1000
0001
1000
0001
1000
0001
1000
0001
,  // measure 23
4000
0004
0000
0000
0000
0000
0000
0000
0000
0000
0000
3003
M00M
0000
0000
0000
,  // measure 24
1000
0000
0100
0010
0000
0010
0001
0000
1000
0100
0000
0001
0100
0000
1000
0000
,  // measure 25
0001
0000
0100
0010
0000
0100
0001
0000
2000
0000
0010
0000
3002
0000
0010
0000
,  // measure 26
1003
0000
0010
0100
0000
0000
1010
0000
0001
0000
0010
0100
0000
0010
0001
0100
,  // measure 27
0000
0000
0101
0000
0000
0010
1000
0000
0100
0000
0110
0000
1100
0000
0000
0000
,  // measure 28
0001
0000
0100
0010
0000
0010
1000
0000
0001
0100
0000
1000
0100
0000
0001
0000
,  // measure 29
1000
0000
0100
0010
0000
0100
1000
0000
0002
0000
0010
0000
2003
0000
0010
0000
,  // measure 30
3001
0000
0010
0100
0000
0000
0011
0000
1000
0000
0010
0100
0000
0010
1000
0100
,  // measure 31
0000
0000
1100
0000
0000
0010
0001
0000
0100
0000
0110
0000
0101
0000
0000
0000
,  // measure 32
1000
0000
0010
0100
0000
0100
0010
0000
0001
0010
0000
1000
0100
0000
0001
0000
,  // measure 33
0100
0000
1000
0010
0000
1000
0001
0000
2000
0000
0100
0000
3002
0000
0010
0000
,  // measure 34
1003
0000
0001
0100
0000
0000
0110
0000
0001
0000
1000
0100
0000
0010
0001
0100
,  // measure 35
0000
0000
0110
0000
0000
1000
0010
0000
1000
0000
1100
0000
0011
0000
0000
0000
,  // measure 36
0001
0000
0010
0100
0000
0100
0010
0000
1000
0010
0000
0001
0100
0000
1000
0000
,  // measure 37
0100
0000
0001
0010
0000
0001
1000
0000
0002
0000
0100
0000
2003
0000
0010
0000
,  // measure 38
3001
0000
1000
0100
0000
0000
0110
0000
1000
0000
0001
0100
0000
0010
1000
0100
,  // measure 39
0020
0000
0030
0000
0001
0000
0001
0100
0020
0000
0000
0000
0130
0000
0100
0000
,  // measure 40
1001
0000
0000
0000
0000
0000
1000
0000
0100
0000
1000
0000
0100
0000
0000
1000
0000
0000
0100
0000
0000
0010
0000
0000
,  // measure 41
0001
0000
1000
0000
0200
0000
0000
0300
0201
0000
0000
0000
0001
0000
0010
0000
,  // measure 42
1300
1000
1000
0010
0220
0000
0330
1000
,  // measure 43
0010
0000
0100
0001
0000
0000
0010
0000
0011
0000
0000
1100
0000
0000
0011
0000
,  // measure 44
1001
0000
0000
0000
0000
0000
0001
0000
0100
0000
0001
0000
0100
0000
0000
0001
0000
0000
0100
0000
0000
0010
0000
0000
,  // measure 45
1000
0000
0001
0000
0200
0000
0000
0300
0201
0000
0000
0000
1000
0000
0010
0000
,  // measure 46
0301
0000
0000
0000
0000
0000
0000
0000
0000
0001
0000
0000
0000
0000
0000
0000
0000
0000
0001
0000
0000
0000
0000
0000
0010
0000
0000
0000
0000
0000
0100
0000
0000
0000
0000
0000
1000
0000
0000
0000
0001
0000
0000
0000
0010
0000
0000
0000
,  // measure 47
0100
0000
0000
1100
0000
0000
0011
0000
1001
0000
0000
0000
2000
0000
0000
0000
,  // measure 48
3020
0000
0000
0032
0000
0000
0013
0000
MMMM
0000
0020
0000
0000
0000
2030
0000
,  // measure 49
0000
3200
0000
0310
MMMM
0000
2000
3002
,  // measure 50
0023
0000
0000
2030
0000
0000
3010
0000
MMMM
0000
0020
0000
0000
0000
0032
0000
,  // measure 51
0000
0203
0000
1300
MMMM
0000
0002
2003
,  // measure 52
3020
0000
0000
0032
0000
0000
1003
0000
MMMM
0000
0002
0000
0000
0000
0203
0000
,  // measure 53
0000
2300
0000
3001
MMMM
0000
1000
0010
,  // measure 54
1010
0000
0001
0011
0000
1000
1100
0000
,  // measure 55
0001
0000
0011
0000
0000
0000
0001
0000
1001
0000
0000
0101
0000
0000
1001
0000
,  // measure 56
1001
0000
0000
0010
1000
0000
0100
0000
0001
0000
0000
0010
0001
0000
0100
0000
,  // measure 57
1000
0000
0000
0010
1000
0000
0100
0000
0010
0001
0000
0001
0100
0000
1001
0000
,  // measure 58
1000
0000
0100
0000
0010
0001
0000
0000
0001
0100
0000
0010
1000
0000
0004
0000
,  // measure 59
0013
0000
0000
0000
0010
0000
0100
0000
1000
0010
1000
0000
0001
0010
0001
0010
,  // measure 60
0001
0100
0010
2002
3003
0001
1000
0010
,  // measure 61
0100
0000
0001
0000
1000
0001
1000
0000
0100
1000
0000
1000
0010
0000
1001
0000
,  // measure 62
0001
0000
0010
0000
0100
1000
0000
0000
1000
0010
0000
0100
0001
0000
4000
0000
,  // measure 63
3100
0000
0000
0010
0001
1000
0100
0000
0010
0000
0001
0000
0101
0000
0010
1000
;

//---------------dance-single - ----------------
#NOTEDATA:;
#CHARTNAME:;
#STEPSTYPE:dance-single;
#DESCRIPTION:;
#CHARTSTYLE:;
#DIFFICULTY:Medium;
#METER:9;
#RADARVALUES:0.456268,0.490332,0.297735,0.333824,0.090223,354.000000,321.000000,33.000000,37.000000,0.000000,0.000000,1.000000,0.000000,0.000000,0.456268,0.490332,0.297735,0.333824,0.090223,354.000000,321.000000,33.000000,37.000000,0.000000,0.000000,1.000000,0.000000,0.000000;
#CREDIT:;
#NOTES:
// measure 0
0000
0000
0000
0000
,  // measure 1
0000
0000
0000
0000
,  // measure 2
0000
0000
0000
0000
,  // measure 3
0000
0000
0000
0011
,  // measure 4
1100
0000
1010
0000
0101
0000
2002
3003
,  // measure 5
1000
0010
1000
0000
0100
0000
0010
0001
,  // measure 6
0010
0000
0100
0000
1000
0010
0100
0010
,  // measure 7
1000
0000
0100
0010
0001
0000
0100
0010
,  // measure 8
1000
0000
0001
0000
1000
1000
1000
0000
,  // measure 9
0001
0010
0001
0000
0100
0000
0010
1000
,  // measure 10
0010
0000
0100
0000
0001
0010
0100
0010
,  // measure 11
0001
0000
0100
0010
1000
0000
0100
0010
,  // measure 12
0001
0000
1000
0000
0001
0001
0001
0000
,  // measure 13
1000
0100
0010
0000
1000
0000
0010
0100
,  // measure 14
1000
0000
0010
0000
1000
0100
0001
0100
,  // measure 15
1000
0000
0100
1000
0010
0000
0100
0001
,  // measure 16
0010
0000
0001
0000
1000
1000
1000
0000
,  // measure 17
0001
0100
0010
0000
0001
0000
0010
0100
,  // measure 18
0001
0000
0010
0000
0001
0100
1000
0100
,  // measure 19
0001
0000
0100
0001
0010
0000
0100
1000
,  // measure 20
0020
0000
0000
0000
,  // measure 21
0000
0000
0000
0030
,  // measure 22
0010
0100
0010
0100
0010
0100
0010
0100
,  // measure 23
0040
0000
0000
0030
,  // measure 24
1000
0000
0000
0010
0000
0100
0000
0000
0001
0000
0000
0000
0010
0000
0001
0000
,  // measure 25
0100
0000
0000
0010
0000
1000
0000
0000
0001
0000
0010
0000
0100
0000
0010
0000
,  // measure 26
0011
0000
0100
0010
1010
0000
1000
0100
,  // measure 27
0001
0100
0000
0110
1000
1000
1000
0000
,  // measure 28
0001
0000
0000
0010
0000
0100
0000
0000
1000
0000
0000
0000
0010
0000
1000
0000
,  // measure 29
0100
0000
0000
0010
0000
0001
0000
0000
1000
0000
0010
0000
0100
0000
0010
0000
,  // measure 30
1010
0000
0100
0010
0011
0000
0001
0100
,  // measure 31
1000
0100
0000
0110
0001
0001
0001
0000
,  // measure 32
1000
0000
0000
0010
0000
1000
0000
0000
0100
0000
0000
0000
0010
0000
0001
0000
,  // measure 33
0100
0000
0000
0010
0000
1000
0000
0000
0001
0000
0010
0000
1000
0000
0010
0000
,  // measure 34
0011
0000
0001
1000
1010
0000
1000
0010
,  // measure 35
0001
0010
0000
0110
1000
1000
1000
0000
,  // measure 36
0001
0000
0000
0010
0000
0001
0000
0000
0100
0000
0000
0000
0010
0000
1000
0000
,  // measure 37
0100
0000
0000
0010
0000
0001
0000
0000
1000
0000
0010
0000
0001
0000
0010
0000
,  // measure 38
1010
0000
1000
0001
0011
0000
0001
0010
,  // measure 39
0200
0000
1300
0010
0200
0000
0310
0010
,  // measure 40
0110
0000
0001
0100
0001
0100
0001
0100
,  // measure 41
0001
0100
0020
0000
2030
0000
3001
0010
,  // measure 42
0100
0100
0022
0033
,  // measure 43
0100
0100
2020
3030
,  // measure 44
0001
0000
1000
0100
1000
0100
1000
0100
,  // measure 45
1000
0100
0020
0000
0032
0000
1003
0010
,  // measure 46
0100
0100
2002
3003
,  // measure 47
1000
0100
0010
0001
,  // measure 48
0102
0000
0000
1003
2020
0000
3030
0000
,  // measure 49
1000
0000
0000
0001
0000
0000
0010
0000
0022
0000
0000
0000
0033
0000
0000
0000
,  // measure 50
2100
0000
0000
3001
0202
0000
0303
0000
,  // measure 51
0001
0000
0000
0100
0000
0000
0010
0000
2020
0000
0000
0000
3030
0000
0000
0000
,  // measure 52
2100
0000
0000
3001
0022
0000
0033
0000
,  // measure 53
0001
0000
0000
1000
0000
0000
0010
0000
2020
0000
0000
0000
3030
0000
0000
0000
,  // measure 54
2000
0000
3010
0002
0000
0013
2000
0000
,  // measure 55
3100
0000
0002
0000
0000
0000
0103
0000
1000
0000
0000
0001
0000
0000
1000
0000
,  // measure 56
1001
0000
0001
0100
0001
0000
0100
1000
,  // measure 57
0100
0000
0001
0100
1000
0100
0001
0000
,  // measure 58
1000
1000
0100
0000
0010
0010
0001
0000
,  // measure 59
1100
0000
0101
0000
0020
0000
0130
0100
,  // measure 60
0010
1000
0001
0020
0000
0130
1000
0100
,  // measure 61
0001
0000
0100
1000
0100
0001
0100
0000
,  // measure 62
1000
1000
0010
0000
0100
0100
0001
0000
,  // measure 63
1001
0000
0000
0000
0001
0000
0010
0000
0100
0000
1000
0000
0002
0000
0000
0003
;

//---------------dance-single - ----------------
#NOTEDATA:;
#CHARTNAME:;
#STEPSTYPE:dance-single;
#DESCRIPTION:;
#CHARTSTYLE:;
#DIFFICULTY:Easy;
#METER:6;
#RADARVALUES:0.326090,0.403802,0.252623,0.315779,0.000000,253.000000,225.000000,28.000000,35.000000,0.000000,0.000000,0.000000,0.000000,0.000000,0.326090,0.403802,0.252623,0.315779,0.000000,253.000000,225.000000,28.000000,35.000000,0.000000,0.000000,0.000000,0.000000,0.000000;
#CREDIT:;
#NOTES:
// measure 0
0000
0000
0000
0000
,  // measure 1
0000
0000
0000
0000
,  // measure 2
0000
0000
0000
0000
,  // measure 3
0000
0000
0000
1001
,  // measure 4
0110
0000
1001
0000
0110
0000
2002
3003
,  // measure 5
1000
1000
0100
0100
,  // measure 6
0010
0010
0001
1000
,  // measure 7
0010
0010
1000
1000
,  // measure 8
0001
0000
1000
0000
1000
0100
1000
0000
,  // measure 9
0001
0001
0100
0100
,  // measure 10
0010
0010
1000
0001
,  // measure 11
0010
0010
0001
0001
,  // measure 12
1000
0000
0001
0000
0001
0100
0001
0000
,  // measure 13
0010
0010
0001
0001
,  // measure 14
0100
0100
0010
1000
,  // measure 15
0100
0100
0010
0010
,  // measure 16
0001
0000
1000
0000
1000
0001
1000
0000
,  // measure 17
0010
0010
1000
1000
,  // measure 18
0100
0100
0010
0001
,  // measure 19
0100
0100
0010
0010
,  // measure 20
2002
0000
0000
0000
,  // measure 21
0000
0000
0000
3003
,  // measure 22
0001
0100
0010
1000
,  // measure 23
0200
0000
0000
0300
,  // measure 24
1000
0100
0001
0100
,  // measure 25
1000
0010
1000
1000
,  // measure 26
1001
0010
1001
0010
,  // measure 27
0001
0000
0010
0000
0010
0100
0010
0000
,  // measure 28
0001
0100
1000
0100
,  // measure 29
0001
0010
0001
0001
,  // measure 30
1001
0010
1001
0010
,  // measure 31
1000
0000
0010
0000
0010
0100
0010
0000
,  // measure 32
1000
0100
0001
1000
,  // measure 33
0010
0001
0100
0100
,  // measure 34
1001
0010
1001
0100
,  // measure 35
0001
0000
0010
0000
0010
0100
0010
0000
,  // measure 36
0001
0100
1000
0001
,  // measure 37
0010
1000
0100
0100
,  // measure 38
1001
0010
1001
0100
,  // measure 39
2000
3000
0002
0003
,  // measure 40
2001
3100
0100
0100
,  // measure 41
0100
0100
2001
3010
,  // measure 42
0100
0001
2002
3003
,  // measure 43
0100
1000
2002
3003
,  // measure 44
1002
0103
0100
0100
,  // measure 45
0100
0100
1002
0013
,  // measure 46
0200
0300
2000
3000
,  // measure 47
0001
0100
0010
1000
,  // measure 48
0002
0000
0003
0010
0002
0000
0003
0000
,  // measure 49
0001
0100
0202
0303
,  // measure 50
2000
0000
3000
0010
2000
0000
3000
0000
,  // measure 51
1000
0100
2200
3300
,  // measure 52
0002
0000
0003
1000
0020
0000
0030
0000
,  // measure 53
1000
0100
0220
0330
,  // measure 54
0110
0001
0100
0110
,  // measure 55
1000
0001
2002
3003
,  // measure 56
0001
0010
1000
0100
,  // measure 57
0001
0000
0010
0000
0001
0010
0001
0000
,  // measure 58
1000
0001
0100
0010
,  // measure 59
1000
1000
0002
2003
,  // measure 60
3100
0000
0000
0110
0000
0000
0001
0000
,  // measure 61
1000
0000
0010
0000
1000
0010
1000
0000
,  // measure 62
0100
0001
0010
1000
,  // measure 63
0100
0000
0000
0000
0010
0000
0000
0000
0100
0000
0000
0000
2002
0000
0000
3003
;

//---------------dance-single - ----------------
#NOTEDATA:;
#CHARTNAME:;
#STEPSTYPE:dance-single;
#DESCRIPTION:;
#CHARTSTYLE:;
#DIFFICULTY:Beginner;
#METER:3;
#RADARVALUES:0.194623,0.230068,0.126312,0.189467,0.000000,151.000000,137.000000,14.000000,21.000000,0.000000,0.000000,0.000000,0.000000,0.000000,0.194623,0.230068,0.126312,0.189467,0.000000,151.000000,137.000000,14.000000,21.000000,0.000000,0.000000,0.000000,0.000000,0.000000;
#CREDIT:;
#NOTES:
// measure 0
0000
0000
0000
0000
,  // measure 1
0000
0000
0000
0000
,  // measure 2
0000
0000
0000
0000
,  // measure 3
0000
0000
0000
2002
,  // measure 4
0000
0000
0000
3003
,  // measure 5
1000
0000
1000
0000
,  // measure 6
0100
0000
0100
0100
,  // measure 7
0100
0000
0100
0000
,  // measure 8
1000
0000
0001
1000
,  // measure 9
0001
0000
0001
0000
,  // measure 10
0100
0000
0100
0100
,  // measure 11
0100
0000
0100
0000
,  // measure 12
0001
0000
1000
0001
,  // measure 13
1000
0000
1000
0000
,  // measure 14
0010
0000
0010
0010
,  // measure 15
0010
0000
0010
0000
,  // measure 16
1000
0000
0001
1000
,  // measure 17
0001
0000
0001
0000
,  // measure 18
0010
0000
0010
0010
,  // measure 19
0010
0000
0010
0000
,  // measure 20
2002
0000
0000
0000
,  // measure 21
0000
0000
3003
0000
,  // measure 22
1000
0001
1000
0001
,  // measure 23
2000
0000
0000
3000
,  // measure 24
0001
0000
0010
0000
,  // measure 25
0001
0000
1000
1000
,  // measure 26
1000
0000
0110
0000
,  // measure 27
1001
0000
1000
0001
,  // measure 28
1000
0000
0100
0000
,  // measure 29
1000
0000
0001
0001
,  // measure 30
0001
0000
0110
0000
,  // measure 31
1001
0000
0001
1000
,  // measure 32
0001
0000
0100
0000
,  // measure 33
0001
0000
1000
1000
,  // measure 34
1000
0000
1001
0000
,  // measure 35
0110
0000
1000
0001
,  // measure 36
1000
0000
0010
0000
,  // measure 37
1000
0000
0001
0001
,  // measure 38
0001
0000
1001
0000
,  // measure 39
0220
0000
0330
0000
,  // measure 40
2002
3003
0100
0000
,  // measure 41
0100
0000
2002
3003
,  // measure 42
1000
0000
0002
0003
,  // measure 43
0001
0000
2000
3000
,  // measure 44
2002
3003
0100
0000
,  // measure 45
0100
0000
2002
3003
,  // measure 46
0002
0000
0003
0000
,  // measure 47
2000
0000
3000
0000
,  // measure 48
0010
0000
1000
0000
,  // measure 49
0001
0001
0001
0000
,  // measure 50
0010
0000
0001
0000
,  // measure 51
1000
1000
1000
0000
,  // measure 52
0010
0000
0100
0000
,  // measure 53
0001
0001
0001
0000
,  // measure 54
1000
0000
0001
0000
,  // measure 55
1000
0001
2000
3000
,  // measure 56
0001
0000
0010
0000
,  // measure 57
1000
0000
0010
0010
,  // measure 58
0010
0000
0001
0000
,  // measure 59
0100
0000
0100
0010
,  // measure 60
0200
0000
0000
0300
0000
0000
0001
0000
,  // measure 61
0001
0000
1000
1000
,  // measure 62
1000
0000
0100
0000
,  // measure 63
0010
0010
0010
0100
;
