#VERSION:0.83;
#TITLE:Power Attack;
#SUBTITLE:;
#ARTIST:EBIMAYO;
#TITLETRANSLIT:;
#SUBTITLETRANSLIT:;
#ARTISTTRANSLIT:;
#GENRE:Powerstomp;
#ORIGIN:;
#CREDIT:;
#BANNER:;
#BACKGROUND:;
#PREVIEWVID:;
#JACKET:;
#CDIMAGE:;
#DISCIMAGE:;
#LYRICSPATH:;
#CDTITLE:cdtitle.png;
#MUSIC:Power Attack.ogg;
#OFFSET:1.050567;
#SAMPLESTART:85.616081;
#SAMPLELENGTH:10.666664;
#SELECTABLE:YES;
#DISPLAYBPM:90.000000:180.000000;
#BPMS:0.000=180.000,
132.000=90.000,
148.000=180.000;
#STOPS:;
#DELAYS:;
#WARPS:;
#TIMESIGNATURES:0.000=4=4;
#TICKCOUNTS:0.000=4;
#COMBOS:0.000=1;
#SPEEDS:0.000=1.000=0.000=0;
#SCROLLS:0.000=1.000;
#FAKES:;
#LABELS:0.000=Song Start;
#BGCHANGES:3.146=Power Attack.avi=1.000=1=0=0=StretchNoLoop==CrossFade==,
99999=-nosongbg-=1.000=0=0=0 // don't automatically add -songbackground-
;
#KEYSOUNDS:;
#ATTACKS:
;

//---------------dance-single - ----------------
#NOTEDATA:;
#CHARTNAME:;
#STEPSTYPE:dance-single;
#DESCRIPTION:;
#CHARTSTYLE:;
#DIFFICULTY:Challenge;
#METER:14;
#RADARVALUES:0.791546,0.923980,0.481478,0.267488,0.462372,725.000000,662.000000,63.000000,35.000000,26.000000,0.000000,4.000000,0.000000,0.000000,0.791546,0.923980,0.481478,0.267488,0.462372,725.000000,662.000000,63.000000,35.000000,26.000000,0.000000,4.000000,0.000000,0.000000;
#CREDIT:;
#OFFSET:1.050567;
#BPMS:0.000000=180.000000
,132.000000=90.000000
,148.000000=180.000000
,240.000000=360.000000
,240.250000=180.000000
,240.375000=90.000000
,240.625000=180.000000
,240.750000=360.000000
,241.250000=180.000000
,241.375000=90.000000
,241.625000=180.000000
,241.750000=360.000000
,242.250000=180.000000
,242.375000=90.000000
,242.625000=180.000000
,242.750000=360.000000
,243.500000=180.000000
,243.750000=90.000000
,244.000000=180.000000
;
#STOPS:;
#DELAYS:;
#WARPS:;
#TIMESIGNATURES:0.000000=4=4
;
#TICKCOUNTS:0.000000=4
;
#COMBOS:0.000000=1
;
#SPEEDS:0.000000=1.000000=0.000000=0
;
#SCROLLS:0.000000=1.000000
;
#FAKES:;
#LABELS:0.000000=Song Start
;
#DISPLAYBPM:90.000000:180.000000;
#NOTES:
0000
0000
0000
0000
,
0000
0000
0000
0000
,
0000
0000
0000
0000
,
0000
0000
0000
0000
,
0000
0000
0000
0000
,
1100
0001
0100
0001
1100
0000
0101
0000
,
1010
0001
1000
1000
0001
1000
0011
0000
,
1010
0100
0001
0000
0011
0000
1100
0010
,
0001
0000
0001
0100
1000
0100
0001
0000
,
0101
0001
1000
0100
1001
0000
0110
0000
,
1001
0010
1000
1000
0001
0010
1001
0000
,
0101
0010
1000
0000
1100
0000
0011
0100
,
1000
0000
1000
0010
0001
0010
1000
0000
,
1010
0001
0010
0001
1010
0000
0011
0000
,
1100
0001
0100
0100
0010
1000
0011
0000
,
1100
0010
0001
0000
0101
0000
1010
0100
,
0001
0000
0001
0000
1000
0100
0010
0001
,
1000
0000
0010
0000
1000
0100
1000
0001
0000
000M
0010
0000
1000
0000
0001
0000
,
1000
0000
0100
0000
1000
0010
1000
0001
0000
000M
0100
0000
1000
0000
0001
0000
,
1000
0000
0010
0000
1000
0100
1000
0001
0000
000M
0010
0000
1000
0000
1000
0000
,
0100
0010
0100
1000
0010
0001
0010
1000
,
0001
0000
0010
0000
0001
0100
0001
1000
0000
M000
0010
0000
0001
0000
1000
0000
,
0001
0000
0100
0000
0001
0010
0001
1000
0000
M000
0100
0000
0001
0000
1000
0000
,
0001
0000
0010
0000
0001
0100
0001
1000
0000
M000
0010
0000
0001
0000
0100
0000
,
0110
1010
1001
0011
,
1000
0000
0100
0000
0010
0001
1000
0001
0000
000M
0010
0000
1000
0000
0100
0000
,
1000
0000
0010
0000
0100
0001
1000
0001
0000
000M
0100
0000
1000
0000
0010
0000
,
1000
0000
0100
0000
0010
0001
1000
0001
0000
000M
0010
0000
1000
0000
1000
0000
,
0100
0010
0001
0100
1000
0100
0001
0010
,
0001
0000
0100
0000
0010
1000
0001
1000
0000
M000
0010
0000
0001
0000
0100
0000
,
0001
0000
0010
0000
0100
1000
0001
1000
0000
M000
0100
0000
0001
0000
0010
0000
,
0001
0000
0100
0000
0010
1000
0001
1000
0000
M000
0010
0000
0001
0000
0100
0000
,
0040
4000
0000
0000
0000
0000
0000
0000
0000
0000
0000
0000
0000
0000
0030
3000
,
0002
0000
0000
0000
0103
0001
1000
0100
2000
0000
0000
0000
3100
1000
0001
0100
,
0002
0000
0100
0103
0000
0010
1000
0001
0010
0100
0010
0100
1000
0100
0001
0100
,
2000
0000
0000
0000
3001
1000
0010
0100
0002
0000
0203
0000
0320
0000
2030
0000
,
3200
0000
0000
0000
0300
0000
0010
0100
0010
0000
0100
0000
1000
0000
0002
0000
0000
0000
0103
0000
0010
0000
0100
0000
1000
0000
0100
0000
0001
0000
0000
0000
,
1000
0000
0100
0000
0010
0000
0001
1000
0001
0000
0100
0000
0010
0000
1000
0000
,
0001
0010
1010
0000
0011
0000
0101
0000
,
2100
0000
0001
3001
0000
0110
0000
0001
,
0002
0000
1000
1003
0000
0110
0000
1000
,
0001
0000
0100
0000
0010
0000
1000
0001
1000
0000
0100
0000
0010
0000
0001
0000
,
1000
0010
0011
0000
1010
0000
1100
0000
,
0102
0000
0000
0000
0010
0000
0013
0000
0000
0000
0001
0000
1000
0001
1000
0001
,
2000
3020
0032
0203
,
1300
0000
0010
0000
0100
0000
0010
0000
1000
0000
0001
0000
0011
0000
0000
0010
,
0001
0000
0010
0000
0100
0000
0010
0000
0001
0000
1000
0000
1010
0000
0000
0010
,
1000
0001
1000
0100
0010
0001
0100
0010
,
1000
0100
0001
0100
1000
0010
0110
0000
,
0101
0010
1000
0010
1000
0100
0010
0011
,
0000
0010
0001
0010
0001
0100
0010
1010
,
0000
0000
1000
0000
0001
0000
0000
1000
0001
0000
1000
0000
0001
0000
1000
0000
,
0100
0001
0100
1000
1001
0000
1000
0010
,
0001
0010
1000
0100
0001
0100
1000
0010
,
0100
1000
0100
0001
0010
0100
0001
0100
,
0010
0001
1000
0010
0001
0010
0100
1000
,
0100
0010
1000
0001
0010
0100
1000
0001
,
1000
0000
0010
0000
0100
0001
0100
0001
0000
0000
1000
0000
0010
0000
0100
0000
,
0001
0000
0010
0000
0100
1000
0100
1000
0000
0000
0001
0000
0010
0000
0100
0000
,
1000
0000
0010
0000
1000
0001
1000
0001
0000
0000
1000
0000
0100
0000
0010
0000
,
0200
00M0
00M0
0310
,
0001
0000
0100
0000
0010
0000
1000
0100
0010
0000
0001
0000
0100
0000
1000
0000
,
0100
0001
0011
0000
1100
0000
0101
0000
,
2010
0000
0000
0000
3001
0010
0001
0000
0000
0000
1100
0000
0000
0000
0010
0000
,
0002
0000
0000
0000
1003
0010
1000
0000
0000
0000
0101
0000
0000
0000
0010
0000
,
1000
0000
0100
0000
0010
0000
0001
0100
0010
0000
1000
0000
0100
0000
0001
0000
,
0100
1000
1010
0000
0101
0000
1100
0000
,
0012
0000
0000
0000
0100
0000
0103
0000
0000
0000
0001
0000
1000
0010
1000
0010
,
2000
0000
0000
0000
0100
0000
3100
0000
0000
0000
1000
0000
0001
1000
0001
1000
,
0001
0000
0100
0000
0010
0000
0100
0001
1000
0000
0001
0000
0010
0000
1000
0000
,
0010
0001
0101
0000
1010
0000
1001
0000
,
0021
0000
0000
0000
0130
0010
0100
0000
0000
0000
1001
0000
0000
0000
1000
0000
,
0020
0000
0000
0000
0130
0010
0100
0000
0000
0000
0100
0000
0001
0000
1000
0000
,
0200
0000
0000
0000
0310
0000
0001
1000
0002
0000
0000
0000
0203
0000
0000
0000
,
2300
3002
0023
1030
,
1001
0000
0000
0000
0000
0000
4000
0004
0000
0000
0000
0000
0000
0000
3000
0003
,
2000
0000
0000
0000
3200
0000
0000
0000
0320
0000
0000
0000
0031
0100
0001
0100
,
0001
0000
1000
0000
0001
0010
0001
0100
0000
0M00
1000
0000
0100
0000
0010
0000
,
0001
0000
1000
0000
0001
0100
0001
0010
0000
00M0
1000
0000
0010
0000
0100
0000
,
0001
0000
1000
0000
0001
0010
0001
0100
0000
0M00
1000
0000
0100
0000
0100
0000
,
0010
0001
1000
0001
0100
0010
0100
0010
,
1000
0000
0001
0000
1000
0010
1000
0100
0000
0M00
0001
0000
0100
0000
0010
0000
,
1000
0000
0001
0000
1000
0100
1000
0010
0000
00M0
0001
0000
0010
0000
0100
0000
,
1000
0000
0001
0000
1000
0010
1000
0100
0000
0M00
0001
0000
0100
0000
0100
0000
,
0020
0000
1030
0100
0001
0100
1000
0000
,
1001
0000
0001
0000
0100
0001
0010
0001
0000
000M
0100
0000
1000
0000
1000
0000
,
0010
0000
1000
0000
0100
1000
0010
1000
0000
M000
0100
0000
0001
0000
0001
0000
,
0010
0000
0001
0000
0100
0001
0010
0001
0000
000M
0100
0000
1000
0000
1000
0000
,
0010
1000
0001
1000
0100
0010
0100
0010
,
0001
0000
0100
0000
0001
0010
0001
0100
0000
0M00
1000
0000
0010
0000
0010
0000
,
1000
0000
0100
0000
1000
0010
1000
0100
0000
0M00
0001
0000
0010
0000
0010
0000
,
0001
0000
0100
0000
0001
0010
0001
0100
0000
0M00
1000
0000
0010
0000
1000
0000
,
0200
0000
0301
0100
1000
0010
0001
0000
,
0110
0000
0000
0000
;

//---------------dance-single - ----------------
#NOTEDATA:;
#CHARTNAME:;
#STEPSTYPE:dance-single;
#DESCRIPTION:;
#CHARTSTYLE:;
#DIFFICULTY:Hard;
#METER:12;
#RADARVALUES:0.615768,0.604141,0.565546,0.351556,0.011464,564.000000,490.000000,74.000000,46.000000,52.000000,0.000000,0.000000,0.000000,0.000000,0.615768,0.604141,0.565546,0.351556,0.011464,564.000000,490.000000,74.000000,46.000000,52.000000,0.000000,0.000000,0.000000,0.000000;
#CREDIT:;
#DISPLAYBPM:90.000000:180.000000;
#NOTES:
0000
0000
0000
0000
,
0000
0000
0000
0000
,
0000
0000
0000
0000
,
0000
0000
0000
0000
,
0000
0000
0000
0000
,
1001
0000
0100
0010
0100
0000
1001
0000
,
0001
0010
0001
0010
0001
1000
0010
0000
,
0110
0000
0001
0000
0110
0000
1000
0001
,
2000
0100
0100
3100
,
1001
0000
0001
0100
0001
0000
1001
0000
,
1000
0100
1000
0100
0010
0001
0100
0000
,
1010
0000
0100
0000
0011
0000
0010
0001
,
2000
0001
0001
3001
,
1001
0000
1000
0100
1000
0000
1001
0000
,
0001
0100
0001
0100
0010
1000
0100
0000
,
0011
0000
0100
0000
1010
0000
0010
1000
,
0001
0000
0001
0000
0010
0100
0010
0100
,
1000
0001
0100
0000
M11M
0000
0100
1000
,
0001
1000
0100
0000
M11M
0000
0100
0001
,
1000
0001
0100
0000
M11M
0000
0100
1000
,
0002
0203
0320
2030
,
3001
1000
0010
0000
M11M
0000
0010
0001
,
1000
0001
0010
0000
M11M
0000
0010
1000
,
0001
1000
0010
0000
M11M
0000
0010
0001
,
1000
1010
0110
0101
,
1000
0100
0010
0000
MM11
0000
0010
1000
,
0001
0100
0010
0000
1M1M
0000
0010
0001
,
1000
0100
0010
0000
MM11
0000
0010
1000
,
0002
0023
0230
2300
,
3010
1000
0100
0000
11MM
0000
0100
0001
,
0010
0001
0100
0000
M1M1
0000
0100
1000
,
0010
1000
0100
0000
11MM
0000
0100
0001
,
0020
0100
0100
0130
,
1002
0000
0100
0100
2003
0000
0100
0100
,
3001
0000
0000
0001
0000
0000
0100
0000
0010
0000
1000
0000
1000
0000
0100
0000
,
0220
0000
0330
0100
1000
0001
0100
0010
,
0220
0000
0330
0000
0010
0000
1000
0001
0000
0001
1000
0000
0100
0000
0010
0000
,
0001
0001
0100
0100
,
0010
1000
0010
0000
1010
0000
0101
0000
,
2001
0000
0100
3100
0000
0110
0000
1000
,
0002
0000
0100
0103
0000
0110
0000
0001
,
1000
1000
0100
0100
,
0010
0001
0010
0000
1100
0000
0011
0000
,
2100
0000
0001
3001
0000
0001
0100
0010
,
1000
0101
1010
0101
,
1000
0010
1000
0000
0001
0010
0001
0000
,
1000
0100
1000
0000
0001
0100
0001
0000
,
1000
0100
0010
0000
0100
1000
0001
0000
,
1000
0010
0100
0000
0001
0010
0100
0000
,
1000
0001
1000
0000
1100
0000
0101
0000
,
0001
1000
0001
0000
0101
0000
1100
0000
,
1000
0010
1000
0000
0001
0100
0001
0000
,
1000
0010
0100
0001
0010
0100
1000
0000
,
0001
0010
0001
0000
0010
1000
0010
0000
,
1000
0100
1000
0000
0100
0001
0100
0000
,
0001
0010
0001
0000
0010
1000
0010
0000
,
1000
0100
1000
0000
0100
0001
0100
0000
,
0001
0010
0100
0010
0001
0000
0011
0000
,
1000
0010
0100
0010
1000
0000
1010
0000
,
0001
0010
0100
0010
0001
0000
1001
0000
,
0200
0000
0000
0000
0000
0300
MMMM
0000
,
0001
0100
0001
0100
0010
0100
0001
1000
,
0001
0010
1000
0000
0110
0000
0011
0000
,
2001
0000
0010
3010
0000
1010
0000
0001
,
0002
0000
0010
0013
0000
0011
0000
0001
,
1000
0010
1000
0010
0100
0010
1000
0001
,
1000
0100
0001
0000
0110
0000
1001
0000
,
0110
0000
0001
0020
0000
0130
1000
1000
,
0001
0000
1000
0020
0000
0130
0001
0001
,
1000
0100
1000
0100
0010
0100
1000
0001
,
1000
0010
0001
0000
0110
0000
1010
0000
,
1002
0000
0010
0013
0000
0011
0000
1000
,
2000
0000
0010
3010
0000
1000
0010
0100
,
0002
0000
0000
1003
0200
0000
0302
0000
,
2003
3020
0032
0103
,
1001
0000
0000
1000
0001
1000
0001
1000
,
0002
0000
0023
0000
0230
0000
1300
0001
,
0010
0001
0100
0000
M1M1
0000
0100
1000
,
0001
1000
0010
0000
1M1M
0000
0010
0001
,
1000
0001
0100
0000
M1M1
0000
0100
1000
,
0002
0203
0320
2030
,
3010
1000
0100
0000
11MM
0000
0100
0001
,
1000
0001
0010
0000
MM11
0000
0010
1000
,
0001
1000
0100
0000
11MM
0000
0100
0001
,
0020
0100
0100
0130
,
1000
0010
0001
0000
M11M
0000
0001
0010
,
1000
0010
0001
0000
M11M
0000
1000
0010
,
0001
0010
1000
0000
M11M
0000
0001
1000
,
0002
0203
0320
2030
,
3001
0100
1000
0000
M11M
0000
1000
0100
,
0001
0100
1000
0000
M11M
0000
0001
0100
,
1000
0100
0001
0000
M11M
0000
1000
0001
,
2000
0000
3001
0010
0100
1000
0001
0000
,
0110
0000
0000
0000
;

//---------------dance-single - ----------------
#NOTEDATA:;
#CHARTNAME:;
#STEPSTYPE:dance-single;
#DESCRIPTION:;
#CHARTSTYLE:;
#DIFFICULTY:Medium;
#METER:8;
#RADARVALUES:0.468377,0.533065,0.298058,0.420338,0.000000,429.000000,390.000000,39.000000,55.000000,0.000000,0.000000,0.000000,0.000000,0.000000,0.468377,0.533065,0.298058,0.420338,0.000000,429.000000,390.000000,39.000000,55.000000,0.000000,0.000000,0.000000,0.000000,0.000000;
#CREDIT:;
#DISPLAYBPM:90.000000:180.000000;
#NOTES:
0000
0000
0000
0000
,
0000
0000
0000
0000
,
0000
0000
0000
0000
,
0000
0000
0000
0000
,
0000
0000
0000
0000
,
1001
0000
1100
0101
,
0001
0100
0001
0000
1000
0100
1000
0000
,
1001
0000
0101
1010
,
0102
1000
1000
0013
,
1100
0000
0011
1100
,
1000
0010
1000
0000
0001
0010
0001
0000
,
1010
0000
1100
0011
,
1002
0100
1000
1003
,
0101
0000
1010
0101
,
0001
0010
0001
0000
1000
0010
1000
0000
,
0011
0000
0101
1010
,
2002
0000
0000
3003
,
0001
0010
0001
0000
0010
0000
0001
0000
,
0100
0001
0100
0000
0001
0000
0100
0000
,
0010
0100
0010
0000
0100
0000
0010
0000
,
2000
3200
0320
0032
,
1003
0010
1000
0000
0010
0000
1000
0000
,
0100
1000
0100
0000
1000
0000
0100
0000
,
0010
0100
0010
0000
0100
0000
0010
0000
,
1001
0110
1001
0110
,
0001
0100
0001
0000
0010
0000
0100
0000
,
1000
0100
1000
0000
0010
0000
0100
0000
,
0001
0100
0001
0000
0010
0000
0100
0000
,
2000
3020
0230
0302
,
0013
0100
0010
0000
0001
0000
1000
0000
,
0010
0100
0010
0000
1000
0000
0001
0000
,
0010
0100
0010
0000
0001
0000
1000
0000
,
2002
0000
0000
3003
,
0002
0103
2000
3100
,
0001
0100
0001
0000
0010
0010
0100
1000
,
0002
0000
1003
0010
0001
0010
1000
0100
,
0020
0000
0031
0010
1000
0010
0001
0100
,
0010
1000
0100
0001
,
0100
1000
0010
0100
,
0002
0000
1003
0100
0000
0010
0000
0100
,
2000
0000
3001
0100
0000
0010
0000
0100
,
0001
0010
0100
1000
,
0010
0001
0010
1000
,
0200
0000
0310
0001
0000
0001
0100
0000
,
0220
0000
0000
0330
,
0010
0000
0010
0000
1000
0001
1000
0000
,
0100
0000
0100
0000
1000
0001
1000
0000
,
0001
0000
0100
0000
0010
1000
0010
0000
,
1000
0000
0100
0000
0010
0001
0010
0000
,
0001
0001
0100
1000
,
0001
0001
0010
1000
,
0100
0010
0100
0010
,
0001
0100
0001
0000
1000
0100
1000
0000
,
1010
0001
0100
0001
,
0011
1000
0100
1000
,
0101
1000
0010
1000
,
1100
0001
0010
0001
,
1000
0010
1000
0000
0010
0000
0010
0000
,
1000
0100
1000
0000
0100
0000
0100
0000
,
1000
0010
1000
0000
0010
0000
0010
0000
,
2002
0000
0000
3003
,
0001
0010
1000
0010
,
0001
1000
0001
0000
0100
0000
0010
0000
,
2010
0000
3001
0010
0000
0001
0000
0010
,
0002
0000
1003
0010
0000
1000
0000
0010
,
1000
0100
0001
0100
,
1000
0010
1000
0000
1010
0000
1001
0000
,
0021
0000
0130
1000
0000
0100
1000
0000
,
0002
0000
0103
0001
0000
0100
0001
0000
,
1000
0010
0001
0010
,
1000
0001
1000
0000
0100
0000
0010
0000
,
0012
0000
1003
0010
0000
1000
0000
0010
,
2000
0000
3001
0010
0000
0001
0100
0000
,
0220
0330
2000
3002
,
0203
2300
3002
0023
,
2030
0000
0000
3100
0010
0100
0010
0100
,
0020
0032
0203
0302
,
1003
0100
1000
0000
0010
0000
0100
0000
,
0001
0010
0001
0000
0100
0000
0010
0000
,
1000
0100
1000
0000
0010
0000
0100
0000
,
0002
0023
0230
2300
,
3001
0100
0001
0000
1000
0000
0010
0000
,
1000
0100
1000
0000
0001
0000
0010
0000
,
0001
0100
0001
0000
1000
0000
0010
0000
,
2002
0000
0000
3003
,
1000
0010
1000
0000
0010
0000
1000
0000
,
0010
0001
0010
0000
0001
0000
0010
0000
,
0001
0100
0001
0000
0100
0000
1000
0000
,
0020
0230
0302
2003
,
3001
0010
0001
0000
0010
0000
0001
0000
,
0010
1000
0010
0000
1000
0000
0010
0000
,
1000
0100
1000
0000
0100
0000
0001
0000
,
0020
0000
0000
0000
,
0130
0000
0000
0000
;

//---------------dance-single - ----------------
#NOTEDATA:;
#CHARTNAME:;
#STEPSTYPE:dance-single;
#DESCRIPTION:;
#CHARTSTYLE:;
#DIFFICULTY:Easy;
#METER:6;
#RADARVALUES:0.349372,0.355377,0.328628,0.175778,0.000000,320.000000,277.000000,43.000000,23.000000,0.000000,0.000000,0.000000,0.000000,0.000000,0.349372,0.355377,0.328628,0.175778,0.000000,320.000000,277.000000,43.000000,23.000000,0.000000,0.000000,0.000000,0.000000,0.000000;
#CREDIT:;
#DISPLAYBPM:90.000000:180.000000;
#NOTES:
0000
0000
0000
0000
,
0000
0000
0000
0000
,
0000
0000
0000
0000
,
0000
0000
0000
0000
,
0000
0000
0000
0000
,
1001
0000
0001
0001
,
1000
1000
0001
1000
,
1001
0000
0100
0010
,
0200
0000
0000
0300
,
1001
0000
1000
1000
,
0100
0010
0001
0100
,
1001
0000
1000
0010
,
0200
0010
0010
0310
,
1001
0000
0001
0001
,
0100
0010
1000
0100
,
1001
0000
0001
0010
,
0200
0000
1000
1300
,
0001
0100
0101
0000
,
1000
0100
1100
0000
,
0001
0100
0101
0000
,
0001
0100
0010
1000
,
0001
0010
0011
0000
,
1000
0010
1010
0000
,
0001
0010
0011
0000
,
1000
0001
1000
0001
,
1000
0010
0110
0000
,
0001
0100
0110
0000
,
1000
0010
0110
0000
,
0001
0100
0010
1000
,
0001
0010
0110
0000
,
1000
0100
0110
0000
,
0001
0010
0110
0000
,
1000
0100
0010
0001
,
2002
3003
0220
0330
,
0001
0001
0010
0100
,
2200
3300
1000
1000
,
0010
0000
0100
0000
0001
1000
0001
0000
,
0010
0010
0001
0001
,
0010
0001
0100
0001
,
2000
0000
3010
0000
,
2000
0000
3010
0000
,
0010
0010
1000
1000
,
0010
1000
0100
0010
,
0002
0000
0013
0000
,
0001
0001
0001
0000
,
1000
0010
1000
0000
,
1000
0100
1000
0000
,
0001
0010
0001
0000
,
0001
0100
0001
0000
,
1000
0100
0010
0000
,
0001
0100
0010
0000
,
1000
0001
1000
0001
,
0010
0010
0010
0000
,
0001
0100
0001
0000
,
0100
1000
0100
0000
,
1000
0010
1000
0000
,
0010
0001
0010
0000
,
0001
0010
1001
0000
,
1000
0010
1001
0000
,
0001
0010
1001
0000
,
0200
0000
0000
0300
,
0001
0010
0100
0010
,
0001
0100
0010
1000
,
2010
0000
3001
0000
,
2010
0000
3001
0000
,
1000
0010
0100
0010
,
1000
0100
0010
0001
,
0012
0000
1003
0000
,
0012
0000
1003
0000
,
0001
0100
0010
1000
,
0100
0010
0001
0100
,
0120
0000
1030
0000
,
0210
0000
0301
0000
,
1001
0000
1000
0100
,
0010
0001
0100
0010
,
1000
0000
1000
1000
,
0100
0010
0001
0001
,
1000
0010
0110
0000
,
0001
0010
0110
0000
,
1000
0010
0110
0000
,
0002
1000
1000
1003
,
0001
0100
0110
0000
,
1000
0100
0110
0000
,
0001
0100
0110
0000
,
2000
0000
0002
3003
,
1000
0100
0011
0000
,
0001
0010
1100
0000
,
1000
0100
0011
0000
,
0002
1000
1000
1003
,
0001
0100
1010
0000
,
1000
0010
0101
0000
,
0001
0100
1010
0000
,
0001
0010
0001
0100
,
1000
0000
0000
0000
;

//---------------dance-single - ----------------
#NOTEDATA:;
#CHARTNAME:;
#STEPSTYPE:dance-single;
#DESCRIPTION:;
#CHARTSTYLE:;
#DIFFICULTY:Beginner;
#METER:4;
#RADARVALUES:0.224908,0.259463,0.015285,0.183420,0.000000,206.000000,204.000000,2.000000,24.000000,0.000000,0.000000,0.000000,0.000000,0.000000,0.224908,0.259463,0.015285,0.183420,0.000000,206.000000,204.000000,2.000000,24.000000,0.000000,0.000000,0.000000,0.000000,0.000000;
#CREDIT:;
#OFFSET:1.050567;
#BPMS:0.000000=180.000000
;
#STOPS:;
#DELAYS:;
#WARPS:;
#TIMESIGNATURES:0.000000=4=4
;
#TICKCOUNTS:0.000000=4
;
#COMBOS:0.000000=1
;
#SPEEDS:0.000000=1.000000=0.000000=0
;
#SCROLLS:0.000000=1.000000
;
#FAKES:;
#LABELS:0.000000=Song Start
;
#DISPLAYBPM:90.000000:180.000000;
#NOTES:
// measure 0
0000
0000
0000
0000
,  // measure 1
0000
0000
0000
0000
,  // measure 2
0000
0000
0000
0000
,  // measure 3
0000
0000
0000
0000
,  // measure 4
0000
0000
0000
0000
,  // measure 5
1000
0000
1000
0000
,  // measure 6
0001
0000
1000
0000
,  // measure 7
0001
0000
0001
0000
,  // measure 8
0020
0000
0030
0000
,  // measure 9
0001
0000
0001
0000
,  // measure 10
0100
0000
0001
0000
,  // measure 11
1000
0000
1000
0000
,  // measure 12
0200
0000
0300
0000
,  // measure 13
1000
0000
1000
0000
,  // measure 14
0010
0000
1000
0000
,  // measure 15
0001
0000
0001
0000
,  // measure 16
0020
0000
0030
0000
,  // measure 17
0001
0001
0001
0000
,  // measure 18
0001
0001
0001
0000
,  // measure 19
0001
0001
0001
0000
,  // measure 20
0010
0000
0100
0000
,  // measure 21
1000
1000
1000
0000
,  // measure 22
1000
1000
1000
0000
,  // measure 23
1000
1000
1000
0000
,  // measure 24
0020
0000
0030
0000
,  // measure 25
1000
1000
1000
0000
,  // measure 26
0010
0010
0010
0000
,  // measure 27
1000
1000
1000
0000
,  // measure 28
0100
0000
0010
0000
,  // measure 29
0001
0001
0001
0000
,  // measure 30
0010
0010
0010
0000
,  // measure 31
0001
0001
0001
0000
,  // measure 32
0100
0000
0010
0000
,  // measure 33
2000
0000
3000
0000
,  // measure 34
0200
0000
0300
0000
,  // measure 35
0020
0000
0030
0000
,  // measure 36
0002
0000
0003
0000
,  // measure 37
2000
0000
3000
0000
,  // measure 38
0020
0000
0030
0000
,  // measure 39
0200
0000
0300
0000
,  // measure 40
0002
0000
0003
0000
,  // measure 41
1000
0000
1000
0000
,  // measure 42
0100
0100
0100
0000
,  // measure 43
0020
0000
0030
0000
,  // measure 44
0020
0000
0030
0000
,  // measure 45
0001
0000
0001
0000
,  // measure 46
0100
0100
0100
0000
,  // measure 47
0020
0000
0030
0000
,  // measure 48
2002
0000
3003
0000
,  // measure 49
1000
0000
1000
0000
,  // measure 50
0001
0000
0001
0000
,  // measure 51
1000
0000
0001
0000
,  // measure 52
1000
0000
1000
0000
,  // measure 53
0001
0000
0100
0000
,  // measure 54
0001
0000
0010
0000
,  // measure 55
0001
0000
0001
0000
,  // measure 56
1000
0000
1000
0000
,  // measure 57
0010
0010
0010
0000
,  // measure 58
1000
1000
1000
0000
,  // measure 59
0001
0001
0001
0000
,  // measure 60
0010
0010
0010
0000
,  // measure 61
0100
0100
0100
0000
,  // measure 62
0100
0100
0100
0000
,  // measure 63
0100
0100
0100
0000
,  // measure 64
0200
0000
0300
0000
,  // measure 65
1000
0000
0010
0000
,  // measure 66
0100
0100
0100
0000
,  // measure 67
0001
1000
0001
0000
,  // measure 68
1000
0001
1000
0000
,  // measure 69
0001
0000
0010
0000
,  // measure 70
0100
0100
0100
0000
,  // measure 71
1000
0001
1000
0000
,  // measure 72
0001
1000
0001
0000
,  // measure 73
0100
0000
0010
0000
,  // measure 74
1000
1000
1000
0000
,  // measure 75
0100
0010
0100
0000
,  // measure 76
0010
0100
0010
0000
,  // measure 77
0001
0000
0100
0000
,  // measure 78
0010
0010
0010
0000
,  // measure 79
1000
0000
2002
0000
,  // measure 80
3003
0000
0000
0000
,  // measure 81
1000
1000
1000
0000
,  // measure 82
0010
0010
0010
0000
,  // measure 83
1000
1000
1000
0000
,  // measure 84
0200
0000
0300
0000
,  // measure 85
0001
0001
0001
0000
,  // measure 86
0010
0010
0010
0000
,  // measure 87
0001
0001
0001
0000
,  // measure 88
0200
0000
0300
0000
,  // measure 89
1000
0010
1000
0000
,  // measure 90
0010
0100
0010
0000
,  // measure 91
1000
0010
1000
0000
,  // measure 92
0200
0000
0300
0000
,  // measure 93
0001
0010
0001
0000
,  // measure 94
0010
0100
0010
0000
,  // measure 95
0001
0010
0001
0000
,  // measure 96
0200
0000
0000
0000
,  // measure 97
0300
0000
0000
0000
;
