#VERSION:0.83;
#TITLE:Pop It;
#SUBTITLE:(Shirobon Remix);
#ARTIST:Anamanaguchi feat. meesh彡☆;
#TITLETRANSLIT:;
#SUBTITLETRANSLIT:;
#ARTISTTRANSLIT:;
#GENRE:Chip Pop;
#ORIGIN:;
#CREDIT:;
#BANNER:Pop It (Shirobon Remix).png;
#BACKGROUND:Pop It (Shirobon Remix)-bg.png;
#PREVIEWVID:;
#JACKET:Pop It (Shirobon Remix)-jacket.png;
#CDIMAGE:;
#DISCIMAGE:;
#LYRICSPATH:;
#CDTITLE:cdtitle.png;
#MUSIC:Pop It (Shirobon Remix).ogg;
#OFFSET:-0.051280;
#SAMPLESTART:48.248005;
#SAMPLELENGTH:15.737705;
#SELECTABLE:YES;
#BPMS:0.000=122.000,
130.000=61.000,
146.000=122.000;
#STOPS:;
#DELAYS:;
#WARPS:;
#TIMESIGNATURES:0.000=4=4;
#TICKCOUNTS:0.000=4;
#COMBOS:0.000=1;
#SPEEDS:0.000=1.000=0.000=0;
#SCROLLS:0.000=1.000;
#FAKES:;
#LABELS:0.000=Song Start;
#BGCHANGES:;
#KEYSOUNDS:;
#ATTACKS:
;

//---------------dance-single - ----------------
#NOTEDATA:;
#CHARTNAME:;
#STEPSTYPE:dance-single;
#DESCRIPTION:;
#CHARTSTYLE:;
#DIFFICULTY:Challenge;
#METER:15;
#RADARVALUES:0.632136,0.690079,0.492530,0.656707,0.887336,566.000000,503.000000,63.000000,84.000000,21.000000,0.000000,0.000000,0.000000,0.000000,0.632136,0.690079,0.492530,0.656707,0.887336,566.000000,503.000000,63.000000,84.000000,21.000000,0.000000,0.000000,0.000000,0.000000;
#CREDIT:;
#NOTES:
// measure 0
0000
0000
0000
0000
,  // measure 1
0000
0000
0000
0000
,  // measure 2
0000
0000
0000
0000
,  // measure 3
0000
0000
0000
0000
,  // measure 4
0011
0000
1100
0000
0001
0000
1000
0010
0100
0001
0000
0001
0010
0000
0100
0010
,  // measure 5
0000
0010
0000
0001
0100
0000
0010
1000
0100
0010
0000
0001
0100
0000
0010
0000
,  // measure 6
1010
0000
0101
0000
1000
0000
0001
0010
0100
1000
0000
1000
0010
0000
0100
0010
,  // measure 7
0000
0010
0000
1000
0100
0000
0012
0000
0103
0000
2010
0000
3100
0010
0001
0100
,  // measure 8
0010
0000
0000
1010
0000
0000
2002
0000
0000
0000
0000
0000
0000
0000
0000
0000
,  // measure 9
3003
0000
0000
0000
0000
0000
1000
0100
0000
0100
0000
0000
0100
0000
0000
0000
,  // measure 10
1100
0000
0000
0000
0000
0000
0011
0000
0000
0000
0000
0000
2002
0000
0000
0000
0000
0000
0000
0000
0000
0000
0000
3000
M000
0000
0000
0000
0000
0000
0000
0000
,  // measure 11
0103
0000
0000
0000
0000
0000
0001
0100
0000
0100
0000
0000
1001
0000
0000
0000
,  // measure 12
0011
0000
0000
1010
0000
1000
0200
0000
0000
0000
0000
0000
0010
0000
0000
0000
,  // measure 13
0000
0000
0310
0000
0100
0000
0010
0001
2000
0000
3020
0000
0130
0001
0100
0010
,  // measure 14
1000
0100
0010
0001
0000
0001
2000
0000
0001
0000
0000
0000
0010
0000
0000
0000
,  // measure 15
0001
0000
0100
0000
3001
0100
0010
1000
,  // measure 16
0100
0010
0100
0000
0010
0000
0001
0000
0000
0000
0001
0000
0100
0000
0010
0000
2010
0000
0000
0000
0000
0000
0000
0000
3100
0000
M00M
0000
0100
0000
0001
0000
,  // measure 17
1000
0001
0000
0001
0010
0000
1000
0010
0000
0100
0010
0001
0200
0000
0001
0000
,  // measure 18
0310
1000
0000
1000
0100
0010
0001
0000
0012
0000
0000
0000
0103
M00M
0100
1000
,  // measure 19
0001
1000
0000
1000
0010
0000
0001
0010
0000
0110
0000
0010
1000
0100
0020
0000
,  // measure 20
0130
1000
0010
0000
0000
0101
0000
0000
1002
0000
0000
0000
0013
M00M
0010
1000
,  // measure 21
0100
0010
0000
0010
0001
0000
0100
1000
0000
0100
0001
1000
0200
0000
1000
0000
,  // measure 22
0310
0001
0000
0001
0100
0010
1000
0000
2001
0000
0000
0000
3010
M00M
0010
0001
,  // measure 23
0100
0010
0000
0010
1000
0000
0100
0001
0000
0001
0000
0001
0100
0010
0100
1000
,  // measure 24
1001
0000
0000
0000
0000
0000
0000
0000
0100
0010
0100
0000
0010
0000
0000
0000
1001
0000
0000
0000
0101
0000
0000
0000
1000
0000
0000
0000
0010
0000
1000
0000
,  // measure 25
0100
0010
0000
0010
0001
0000
0100
1000
0000
1000
0MMM
1000
0010
0000
0100
0001
,  // measure 26
1000
0100
0000
0100
1000
0000
0010
0000
1001
0000
1100
0000
0001
0000
0010
0001
,  // measure 27
0100
0010
0000
0010
1000
0000
0100
0001
0000
0001
MMM0
0001
0010
0000
0100
1000
,  // measure 28
0010
0100
0000
0010
0100
0001
0010
0000
1100
0000
1010
0000
0001
0000
0100
0010
,  // measure 29
0100
1000
0000
0100
0001
0000
0010
1000
0000
1000
0MMM
1000
0100
0000
0010
0001
,  // measure 30
0100
0010
0000
0010
1000
0000
0001
0000
0101
0000
0011
0000
1000
0000
0100
0010
,  // measure 31
0100
0001
0000
0100
1000
0000
0010
0001
0000
0001
MMM0
0001
0100
0000
0010
1000
,  // measure 32
0200
0000
0000
0000
0310
0000
0001
0000
0200
0000
0000
0000
0000
0000
0000
0000
0320
0000
0000
0000
0000
0000
0000
1000
0000
0000
1000
0000
0000
1000
0000
0000
,  // measure 33
2030
0000
0000
0000
0000
0000
0000
0001
0000
0000
0001
0000
0000
0001
0000
0000
3002
0000
0000
0000
0000
0000
0000
0010
0000
0000
0010
0000
0000
0010
0000
0000
,  // measure 34
0023
0000
0000
0000
0000
0000
0000
0100
0000
0000
0100
0000
0000
0100
0000
0000
0230
0000
0000
0000
0000
0000
0000
0001
0000
0000
0010
0000
0000
1000
0000
0000
,  // measure 35
2300
0000
0000
0000
0010
0000
0000
0001
0000
0000
0100
0000
0000
0001
0000
0000
3020
0000
0000
0000
0000
0000
0000
0001
0000
0000
0100
0000
0000
1000
0000
0000
,  // measure 36
2030
0000
0000
0000
0000
0000
0000
0000
0000
0000
0000
0000
0000
0000
0000
0000
3001
0100
0001
0000
0100
0000
0001
0000
1000
0000
0100
0000
0010
0000
0001
0000
1000
0000
0000
0000
0000
0000
0000
0000
0000
0000
0000
0000
1000
0000
0000
0000
0100
0000
0000
0000
0000
0000
0000
0000
0010
0000
0000
0000
0002
0000
0000
0000
,  // measure 37
0000
0000
0203
0000
0000
0320
0000
0000
1030
0000
0000
1000
0010
0000
0100
0002
,  // measure 38
0000
0000
0023
0000
0000
0230
0000
0000
1300
0000
0000
0001
0100
0000
0001
0020
,  // measure 39
0000
0000
0032
0000
0000
0203
0000
0000
0301
0000
0000
1000
0100
0000
1000
0020
,  // measure 40
0000
0000
2030
0000
0000
3200
0000
0000
1300
0000
0000
1000
0100
0000
0001
0200
,  // measure 41
0000
0000
0320
0000
0000
0230
0000
0000
1300
0000
0000
1000
0010
0000
0001
0020
,  // measure 42
0000
0000
0230
0000
0000
0320
0000
0000
1030
0000
0000
0001
0100
0000
0001
0020
,  // measure 43
0000
0000
2030
0000
0000
3002
0000
0000
0103
0000
0000
0100
1000
0000
0001
0100
,  // measure 44
0010
1000
0010
0000
1000
0000
0001
0000
0010
0001
0010
0000
0001
0000
1000
0000
1010
0000
0000
0000
0000
0000
1001
0000
0000
0000
0000
0000
0011
0000
0000
0000
,  // measure 45
0000
1001
0000
0000
1010
0000
1000
0000
1100
0000
0000
0110
0000
0000
0101
0000
,  // measure 46
0000
0110
0000
0000
1100
0000
0000
0000
0002
0010
0003
0020
0100
0030
0200
1000
,  // measure 47
0300
2000
0010
3000
0010
0100
0001
0000
2001
0000
3100
0020
0000
0031
0200
0000
,  // measure 48
0310
2000
0000
3001
1000
0000
0100
0000
0011
0000
0000
1001
0000
0000
1010
0000
,  // measure 49
0000
1001
0000
0000
0011
0000
0001
0000
0101
0000
0000
0110
0000
0000
1100
0000
,  // measure 50
0000
0110
0000
0000
0101
0000
0000
0000
2000
0010
3000
0020
0100
0030
0200
0001
,  // measure 51
0300
0002
0010
0003
0010
0100
1000
0000
1002
0000
0103
0020
0000
1030
0200
0000
,  // measure 52
0310
0000
0001
0000
0010
0000
0001
0000
0100
0010
0100
0000
0010
0000
1000
0000
1020
0000
0000
0000
0000
0000
0100
0000
0000
0000
0000
0000
0001
0000
0000
0000
,  // measure 53
0000
0130
0000
0000
1010
0000
1001
0000
1200
0000
0000
0010
0000
0000
0301
0000
,  // measure 54
0100
0010
0100
0000
1100
0000
1000
0000
0002
0100
0000
2003
0100
0000
3002
0010
,  // measure 55
0000
2003
0010
0000
3010
1000
0100
0000
2001
0000
3001
0200
0000
1300
0002
0000
,  // measure 56
0013
2000
0000
3100
0010
0100
0010
0001
0021
0000
0000
0100
0000
0000
1000
0000
,  // measure 57
0000
0130
0010
0000
0011
0000
1001
0000
0201
0000
0000
0010
0000
0000
1300
0000
,  // measure 58
0100
0010
0100
0000
0101
0000
0001
0000
2000
0100
0000
3002
0100
0000
2003
0010
,  // measure 59
0000
3002
0010
0000
0013
0001
0100
0000
1002
0000
1003
0020
0000
0031
2000
0000
,  // measure 60
3100
0002
0000
0013
2000
0000
0000
0000
0000
0000
0000
0000
0000
0000
3000
0000
;

//---------------dance-single - ----------------
#NOTEDATA:;
#CHARTNAME:;
#STEPSTYPE:dance-single;
#DESCRIPTION:;
#CHARTSTYLE:;
#DIFFICULTY:Hard;
#METER:13;
#RADARVALUES:0.514867,0.571100,0.422169,0.414351,0.590254,461.000000,407.000000,54.000000,53.000000,8.000000,0.000000,0.000000,0.000000,0.000000,0.514867,0.571100,0.422169,0.414351,0.590254,461.000000,407.000000,54.000000,53.000000,8.000000,0.000000,0.000000,0.000000,0.000000;
#CREDIT:;
#NOTES:
// measure 0
0000
0000
0000
0000
,  // measure 1
0000
0000
0000
0000
,  // measure 2
0000
0000
0000
0000
,  // measure 3
0000
0000
0000
0000
,  // measure 4
0001
0000
0010
0000
0011
0000
0000
0000
0010
0001
0000
0001
0100
0000
0000
0010
,  // measure 5
0000
0010
0000
0100
0001
0000
1000
0000
0100
0010
0000
0001
0100
0000
0010
0000
,  // measure 6
1000
0000
0010
0000
1010
0000
0000
0000
0010
1000
0000
1000
0100
0000
0000
0010
,  // measure 7
0000
0010
0000
0100
1000
0000
0002
0000
0100
0000
2003
0000
0100
0000
3001
0000
,  // measure 8
1001
0000
0000
1010
0000
0000
2002
0000
0000
0000
0000
0000
0000
0000
0000
0000
,  // measure 9
3003
0000
0000
0000
0000
0000
1000
0100
0000
0100
0000
0000
0100
0000
0000
0000
,  // measure 10
1001
0000
0000
0011
0000
0000
2002
0000
0000
0000
0000
0000
3000
0000
0000
0000
,  // measure 11
0103
0000
0000
0000
0000
0000
0001
0100
0000
0100
0000
0000
0010
0000
0000
0000
,  // measure 12
1010
0000
0000
0110
0000
0000
0102
0000
0000
0000
0000
0000
0010
0000
0000
0000
,  // measure 13
0100
0000
0010
0000
0103
0010
1000
0100
,  // measure 14
0011
0000
0000
0110
0000
0000
2100
0000
0100
0000
0000
0000
0100
0000
0000
0000
,  // measure 15
0001
0000
0001
0000
0010
0010
0010
0010
,  // measure 16
3010
0000
0000
0000
2010
0000
3010
1000
,  // measure 17
0100
0010
0000
0010
0001
0000
0100
0010
0000
0100
0000
0000
0210
0000
0000
0000
,  // measure 18
1300
0100
0000
0001
0100
0000
0001
0000
0012
0000
0000
0000
0013
0000
0001
0000
,  // measure 19
0100
0010
0000
0010
1000
0000
0100
0010
0000
0100
0000
0000
0210
0000
0001
0000
,  // measure 20
0300
0000
0101
0000
0000
0110
0000
0000
1200
0000
0000
0000
0310
0000
0001
0000
,  // measure 21
0100
0010
0000
0010
1000
0000
0010
0001
0000
0010
0000
0000
2010
0000
0000
0000
,  // measure 22
3100
0001
0000
0100
1000
0000
0001
0000
0201
0000
0000
0000
0310
0000
1000
0000
,  // measure 23
0100
0010
0000
0010
0001
0000
0010
1000
0000
1000
0000
1000
0010
0000
0001
0000
,  // measure 24
1001
0000
1001
0000
0001
0100
0010
0100
,  // measure 25
0001
0100
0000
1000
0100
0000
0001
0010
0000
0010
M00M
0010
1000
0000
0100
0000
,  // measure 26
0010
0001
0000
0001
0100
0000
0010
0000
1000
0000
0100
0000
0010
0000
0100
0000
,  // measure 27
1000
0100
0000
0001
0100
0000
1000
0010
0000
0010
M00M
0010
0001
0000
0100
0000
,  // measure 28
0010
1000
0000
1000
0100
0000
0010
0000
0001
0000
0100
0000
1000
0000
0100
0000
,  // measure 29
0001
0010
0000
1000
0010
0000
0001
0100
0000
0100
M00M
0100
1000
0000
0010
0000
,  // measure 30
0100
0001
0000
0001
0010
0000
0100
0000
1000
0000
0100
0000
0001
0000
0100
0000
,  // measure 31
1000
0010
0000
0001
0010
0000
1000
0100
0000
0100
M00M
0100
0001
0000
0010
0000
,  // measure 32
0100
0000
0000
0000
1000
0000
0100
0000
1000
0000
0000
0000
0000
0000
0000
0000
0002
0000
0000
0000
0000
0000
0000
0100
0000
0000
0100
0000
0000
0100
0000
0000
,  // measure 33
0203
0000
0000
0000
0000
0000
0000
0010
0000
0000
0010
0000
0000
0010
0000
0000
0320
0000
0000
0000
0000
0000
0000
1000
0000
0000
1000
0000
0000
1000
0000
0000
,  // measure 34
2030
0000
0000
0000
0000
0000
0000
0001
0000
0000
0001
0000
0000
0001
0000
0000
3002
0000
0000
0000
0000
0000
0000
1003
0000
0000
0100
0000
0000
0100
0000
0000
,  // measure 35
2000
0000
0000
0000
3001
0000
0000
0001
0000
0000
0100
0000
0000
0100
0000
0000
0002
0000
0000
0000
0000
0000
0000
1003
0000
0000
0010
0000
0000
0100
0000
0000
,  // measure 36
0002
0000
0000
0000
0013
0100
1000
0001
1001
0000
0000
0000
1000
0000
0010
0200
,  // measure 37
0000
0000
0320
0000
0000
2030
0000
0000
3001
0000
0000
0000
0001
0000
0010
0200
,  // measure 38
0000
0000
0320
0000
0000
0032
0000
0000
1003
0000
0000
0000
1000
0000
0001
0200
,  // measure 39
0000
0000
2300
0000
0000
3200
0000
0000
0301
0000
0000
0000
0001
0000
1000
0200
,  // measure 40
0000
0000
0302
0000
0000
0203
0000
0000
1300
0000
0000
0000
1000
0000
0010
0200
,  // measure 41
0000
0000
0302
0000
0000
0023
0000
0000
0031
0000
0000
0000
0001
0000
0010
0200
,  // measure 42
0000
0000
2300
0000
0000
3020
0000
0000
1030
0000
0000
0000
1000
0000
0010
0002
,  // measure 43
0000
0000
0023
0000
0000
2030
0000
0000
3100
0000
0000
0000
0001
0000
0100
2000
,  // measure 44
0000
0000
3001
0000
0100
0010
0100
0000
1010
0000
0000
1000
0000
0000
1001
0000
,  // measure 45
0000
1000
0000
0000
1100
0000
0100
0000
0110
0000
0000
0001
0000
0000
0011
0000
,  // measure 46
0000
1000
0000
0000
0110
0000
0000
0000
0001
0100
0000
0100
0001
0000
1000
0010
,  // measure 47
0000
0010
1000
0000
0001
0100
0001
0000
1002
0000
0000
0010
0000
0000
1000
0000
,  // measure 48
0000
0010
0000
0000
1003
0000
0001
0000
0011
0000
0000
0001
0000
0000
1001
0000
,  // measure 49
0000
0001
0000
0000
0101
0000
0100
0000
0110
0000
0000
1000
0000
0000
1010
0000
,  // measure 50
0000
0001
0000
0000
0110
0000
0000
0000
1000
0100
0000
0100
1000
0000
0001
0010
,  // measure 51
0000
0010
0001
0000
1000
0100
1000
0000
2001
0000
0000
0010
0000
0000
0001
0000
,  // measure 52
0000
0010
0000
0000
3001
1000
0001
0000
0021
0000
0000
0001
0000
0000
0100
0000
,  // measure 53
0000
0100
0000
0000
1030
0000
0010
0000
0012
0000
0000
1000
0000
0000
0103
0000
,  // measure 54
0001
0000
0100
0000
1000
0000
0100
0000
0001
0010
0000
0010
0100
0000
1000
0010
,  // measure 55
0000
0010
0100
0000
0001
1000
0001
0000
1001
0000
0000
0011
0000
0000
1001
0000
,  // measure 56
0000
1010
0000
0000
0101
0000
0010
0000
1020
0000
0000
1000
0000
0000
0100
0000
,  // measure 57
0000
1030
0010
0000
0001
0000
0010
0000
2010
0000
0000
0001
0000
0000
3100
0000
,  // measure 58
1000
0000
0100
0000
0001
0000
0100
0000
1000
0010
0000
0010
0100
0000
0001
0010
,  // measure 59
0000
0010
0100
0000
1000
0001
1000
0000
1001
0000
0000
1010
0000
0000
0011
0000
,  // measure 60
0000
0101
0000
0000
2200
0000
0000
0000
0000
0000
0000
0000
0000
0000
3300
0000
;

//---------------dance-single - ----------------
#NOTEDATA:;
#CHARTNAME:;
#STEPSTYPE:dance-single;
#DESCRIPTION:;
#CHARTSTYLE:;
#DIFFICULTY:Medium;
#METER:9;
#RADARVALUES:0.349573,0.356938,0.211084,0.203266,0.140723,313.000000,286.000000,27.000000,26.000000,0.000000,0.000000,0.000000,0.000000,0.000000,0.349573,0.356938,0.211084,0.203266,0.140723,313.000000,286.000000,27.000000,26.000000,0.000000,0.000000,0.000000,0.000000,0.000000;
#CREDIT:;
#NOTES:
// measure 0
0000
0000
0000
0000
,  // measure 1
0000
0000
0000
0000
,  // measure 2
0000
0000
0000
0000
,  // measure 3
0000
0000
0000
0000
,  // measure 4
0001
0000
1000
0000
0001
0010
0001
0000
,  // measure 5
1000
0000
1000
0000
0010
1000
0010
0000
,  // measure 6
1000
0000
0001
0000
1000
0100
1000
0000
,  // measure 7
0001
0000
0001
0000
0100
0001
0100
0001
,  // measure 8
0010
0000
0000
0010
0000
0000
0022
0000
0000
0000
0000
0000
0000
0000
0000
0000
,  // measure 9
0033
0000
0000
0000
,  // measure 10
0010
0000
0000
0010
0000
0000
2020
0000
0000
0000
0000
0000
0030
0000
0000
0000
,  // measure 11
3000
0000
0000
0000
,  // measure 12
0100
0000
0000
0010
0000
0000
2001
0000
0000
0000
0000
0000
0100
0000
0000
0000
,  // measure 13
0000
0000
3100
0000
1000
0001
0100
0010
,  // measure 14
1001
0000
0000
0110
0000
0000
1002
0000
0000
0000
0000
0000
0100
0000
0000
0000
,  // measure 15
1000
0000
0013
0000
0001
0010
0001
0010
,  // measure 16
0100
0000
0000
0000
1002
0000
0103
0001
,  // measure 17
1000
0000
1000
0010
0001
0010
2000
0000
,  // measure 18
3010
1000
0100
0000
2001
0000
3100
1000
,  // measure 19
0001
0000
0001
0010
1000
0010
0001
2000
,  // measure 20
0000
0000
3001
0000
0000
0100
0000
0000
0210
0000
0000
0000
0301
0000
0100
0000
,  // measure 21
1000
0000
1000
0100
0001
0100
0002
0000
,  // measure 22
1003
0100
0010
0000
0210
0000
1300
0100
,  // measure 23
0001
0000
0001
0100
1000
0000
1000
0100
,  // measure 24
0110
0000
0110
0000
0001
0010
0001
0000
,  // measure 25
0010
0100
0010
0000
0001
0010
0100
0010
,  // measure 26
0001
0000
0011
0000
1000
0010
1000
0000
,  // measure 27
0010
0100
0010
0000
1000
0010
0100
0010
,  // measure 28
1000
0000
1010
0000
0001
0100
0010
0000
,  // measure 29
1000
0100
0010
0000
0001
0010
0100
1000
,  // measure 30
0001
0000
1001
0000
1000
0010
0100
0000
,  // measure 31
0001
0100
0010
0000
1000
0100
0010
0001
,  // measure 32
0100
0010
1000
0000
0002
0000
0000
0000
,  // measure 33
0203
0000
0320
0000
,  // measure 34
2030
0000
3002
0010
,  // measure 35
0023
0100
0230
1000
,  // measure 36
2300
0000
0000
0000
3001
1000
0001
0000
1001
0000
0000
0000
1000
0000
0000
0000
,  // measure 37
0010
1000
0100
0000
0010
0000
0100
0000
,  // measure 38
0010
0100
1000
0000
0001
0000
0001
0000
,  // measure 39
0010
0001
0100
0000
0010
0000
0100
0000
,  // measure 40
0010
0100
0001
0000
1001
0000
1000
0000
,  // measure 41
1000
0100
0001
0000
0100
0000
0100
0000
,  // measure 42
0001
0100
1000
0000
0010
0000
0010
0000
,  // measure 43
1000
0010
0001
0000
0001
0010
1000
0000
,  // measure 44
0100
0000
0010
0000
0100
0000
0010
0000
0001
0000
0000
0001
0000
0000
0001
0000
,  // measure 45
0000
0001
0000
0000
0001
0000
0000
0000
1000
0000
0000
1000
0000
0000
1000
0000
,  // measure 46
0000
1000
0000
0000
1000
0000
0000
0000
0001
0000
0000
0100
0000
0000
0010
0000
,  // measure 47
0000
1000
0000
0000
0100
0000
0000
0000
1001
0000
0000
0010
0000
0000
1001
0000
,  // measure 48
0000
0010
0000
0000
1001
0000
0000
0000
1000
0000
0000
1000
0000
0000
1000
0000
,  // measure 49
0000
1000
0000
0000
1000
0000
0000
0000
0001
0000
0000
0001
0000
0000
0001
0000
,  // measure 50
0000
0001
0000
0000
0001
0000
0000
0000
1000
0000
0000
0100
0000
0000
0010
0000
,  // measure 51
0000
0001
0000
0000
0100
0000
0000
0000
1001
0000
0000
0010
0000
0000
1001
0000
,  // measure 52
0000
0010
0000
0000
1001
0000
0000
0000
0002
0000
0000
0010
0000
0000
0010
0000
,  // measure 53
0000
0013
0000
0000
0001
0000
1000
0000
0002
0000
0000
0100
0000
0000
0103
0000
,  // measure 54
0010
0000
0100
0000
0001
0000
0000
0000
1000
0000
0000
0010
0000
0000
0100
0000
,  // measure 55
0000
0001
0000
0000
1000
0000
0001
0000
0010
0000
0000
0011
0000
0000
0010
0000
,  // measure 56
0000
0110
0000
0000
1000
0000
0001
0000
2000
0000
0000
0010
0000
0000
0010
0000
,  // measure 57
0000
3010
0000
0000
1000
0000
0001
0000
2000
0000
0000
0100
0000
0000
3100
0000
,  // measure 58
0010
0000
0100
0000
1000
0000
0000
0000
0001
0000
0000
0100
0000
0000
0010
0000
,  // measure 59
0000
1000
0000
0000
0100
0000
0010
0000
0100
0000
0000
1001
0000
0000
0010
0000
,  // measure 60
0000
1001
0000
0000
0200
0000
0000
0000
0000
0000
0000
0000
0000
0000
0300
0000
;

//---------------dance-single - ----------------
#NOTEDATA:;
#CHARTNAME:;
#STEPSTYPE:dance-single;
#DESCRIPTION:;
#CHARTSTYLE:;
#DIFFICULTY:Easy;
#METER:4;
#RADARVALUES:0.199916,0.237958,0.281446,0.437804,0.000000,179.000000,143.000000,36.000000,56.000000,0.000000,0.000000,0.000000,0.000000,0.000000,0.199916,0.237958,0.281446,0.437804,0.000000,179.000000,143.000000,36.000000,56.000000,0.000000,0.000000,0.000000,0.000000,0.000000;
#CREDIT:;
#NOTES:
// measure 0
0000
0000
0000
0000
,  // measure 1
0000
0000
0000
0000
,  // measure 2
0000
0000
0000
0000
,  // measure 3
0000
0000
0000
0000
,  // measure 4
1001
0000
0001
0000
,  // measure 5
0010
0001
0010
0000
,  // measure 6
1001
0000
1000
0000
,  // measure 7
0010
1000
0010
1000
,  // measure 8
0200
0000
0000
0000
,  // measure 9
0300
0000
0000
0000
,  // measure 10
0020
0000
0000
0000
,  // measure 11
0030
0000
0000
0000
,  // measure 12
2002
0000
0000
3003
,  // measure 13
0000
0000
0100
0010
,  // measure 14
2002
0000
0000
0000
,  // measure 15
0000
3003
0001
1000
,  // measure 16
0001
0000
0002
0003
,  // measure 17
0001
0001
0010
0000
,  // measure 18
0001
0001
2000
3000
,  // measure 19
1000
1000
0010
0000
,  // measure 20
1000
1000
0002
0003
,  // measure 21
0001
0010
0100
0000
,  // measure 22
0010
0100
2000
3000
,  // measure 23
0010
0100
0010
0000
,  // measure 24
1001
0110
2002
3003
,  // measure 25
0001
0000
0010
0001
,  // measure 26
0100
0010
2002
3003
,  // measure 27
1000
0000
0010
1000
,  // measure 28
0100
0010
0220
0330
,  // measure 29
1001
0000
0001
0010
,  // measure 30
0001
0100
0220
0330
,  // measure 31
1001
0000
1000
0010
,  // measure 32
1000
0100
0020
0000
,  // measure 33
0032
0000
0203
0000
,  // measure 34
0320
0000
2030
3001
,  // measure 35
0020
0130
2000
3001
,  // measure 36
0200
0310
1000
1000
,  // measure 37
0020
0030
1000
1000
,  // measure 38
0200
0300
0001
0001
,  // measure 39
0020
0030
0001
0001
,  // measure 40
0200
0300
1001
1000
,  // measure 41
0001
0000
1001
0001
,  // measure 42
1000
0000
0001
0100
,  // measure 43
0010
1000
0100
0010
,  // measure 44
0001
0000
2002
0000
,  // measure 45
0000
3003
0000
0000
0001
0000
0000
0000
2002
0000
0000
0000
0000
0000
0000
0000
,  // measure 46
0000
3003
0000
0000
1000
0000
0000
0000
2020
0000
0000
0000
0000
0000
0000
0000
,  // measure 47
0000
3030
0000
0000
1001
0000
0000
0000
0022
0000
0000
0000
0000
0000
0000
0000
,  // measure 48
0000
0033
0000
0000
0110
0000
0000
0000
2002
0000
0000
0000
0000
0000
0000
0000
,  // measure 49
0000
3003
0000
0000
1000
0000
0000
0000
2002
0000
0000
0000
0000
0000
0000
0000
,  // measure 50
0000
3003
0000
0000
0001
0000
0000
0000
0022
0000
0000
0000
0000
0000
0000
0000
,  // measure 51
0000
0033
0000
0000
1001
0000
0000
0000
2020
0000
0000
0000
0000
0000
0000
0000
,  // measure 52
0000
3030
0000
0000
0110
0000
0000
0000
0202
0000
0000
0000
0000
0000
0000
0000
,  // measure 53
0303
1001
0022
0033
,  // measure 54
0001
0010
0110
0000
,  // measure 55
1000
0010
0110
0000
,  // measure 56
0001
0010
2200
0000
,  // measure 57
3300
1001
2020
3030
,  // measure 58
1000
0010
0110
0000
,  // measure 59
0001
0010
0110
0000
,  // measure 60
2000
0000
0002
0000
0000
0000
0000
3003
;

//---------------dance-single - ----------------
#NOTEDATA:;
#CHARTNAME:;
#STEPSTYPE:dance-single;
#DESCRIPTION:;
#CHARTSTYLE:;
#DIFFICULTY:Beginner;
#METER:2;
#RADARVALUES:0.129554,0.177516,0.101633,0.117269,0.000000,116.000000,103.000000,13.000000,15.000000,0.000000,0.000000,0.000000,0.000000,0.000000,0.129554,0.177516,0.101633,0.117269,0.000000,116.000000,103.000000,13.000000,15.000000,0.000000,0.000000,0.000000,0.000000,0.000000;
#CREDIT:;
#OFFSET:-0.051280;
#BPMS:0.000000=122.000000
;
#STOPS:;
#DELAYS:;
#WARPS:;
#TIMESIGNATURES:0.000000=4=4
;
#TICKCOUNTS:0.000000=4
;
#COMBOS:0.000000=1
;
#SPEEDS:0.000000=1.000000=0.000000=0
;
#SCROLLS:0.000000=1.000000
;
#FAKES:;
#LABELS:0.000000=Song Start
;
#NOTES:
// measure 0
0000
0000
0000
0000
,  // measure 1
0000
0000
0000
0000
,  // measure 2
0000
0000
0000
0000
,  // measure 3
0000
0000
0000
0000
,  // measure 4
0001
0000
0000
0000
,  // measure 5
1000
0000
0001
0000
,  // measure 6
1000
0000
0000
0000
,  // measure 7
0001
0000
1000
0000
,  // measure 8
1001
0000
0000
0000
,  // measure 9
0000
0000
0000
0000
,  // measure 10
0110
0000
0000
0000
,  // measure 11
0000
0000
0000
0000
,  // measure 12
1001
0000
0000
0000
,  // measure 13
0010
0000
0010
0000
,  // measure 14
1001
0000
0000
0000
,  // measure 15
0100
0000
0100
0000
,  // measure 16
0100
0000
0001
0000
,  // measure 17
0001
0000
0001
0000
,  // measure 18
1000
1000
1000
0000
,  // measure 19
1000
0000
1000
0000
,  // measure 20
0001
0001
0001
0000
,  // measure 21
0010
0000
0001
0000
,  // measure 22
1000
1000
1000
0000
,  // measure 23
0010
0000
1000
0000
,  // measure 24
1001
0000
0001
0000
,  // measure 25
0001
0000
0010
0010
,  // measure 26
0010
0000
0100
0000
,  // measure 27
1000
0000
0010
0010
,  // measure 28
0010
0000
0100
0000
,  // measure 29
0001
0000
1000
1000
,  // measure 30
1000
0000
0100
0000
,  // measure 31
0010
0000
0001
0001
,  // measure 32
0001
0000
0100
0000
,  // measure 33
0000
0000
0100
0000
,  // measure 34
0000
0000
0010
0000
,  // measure 35
0000
0000
0010
0000
,  // measure 36
0000
0000
1000
0000
,  // measure 37
0000
0000
0001
0000
,  // measure 38
0000
0000
1000
0000
,  // measure 39
0000
0000
0001
0000
,  // measure 40
0000
0000
0010
0000
,  // measure 41
0010
0000
0100
0000
,  // measure 42
0100
0000
0010
0000
,  // measure 43
0010
0000
0100
0000
,  // measure 44
0100
0000
1000
0000
,  // measure 45
0001
0000
1000
0000
,  // measure 46
0001
0000
0100
0000
,  // measure 47
0010
0000
0100
0000
,  // measure 48
0010
0000
2000
0000
,  // measure 49
0000
3000
0020
0000
,  // measure 50
0000
0030
2002
0000
,  // measure 51
0000
3003
2002
0000
,  // measure 52
0000
3003
0002
0000
,  // measure 53
0000
0003
0020
0000
,  // measure 54
0000
0030
2002
0000
,  // measure 55
0000
3003
2002
0000
,  // measure 56
0000
3003
0002
0000
,  // measure 57
0003
0010
0010
0000
,  // measure 58
0001
0000
1001
0000
,  // measure 59
0010
0000
1001
0000
,  // measure 60
0010
0000
2000
0000
,  // measure 61
3000
0010
0010
0000
,  // measure 62
1000
0000
1001
0000
,  // measure 63
0010
0000
1001
0000
,  // measure 64
0010
0000
0020
0000
0000
0000
0000
0030
;
