#VERSION:0.83;
#TITLE:Orchid;
#SUBTITLE:;
#ARTIST:Thaehan;
#TITLETRANSLIT:;
#SUBTITLETRANSLIT:;
#ARTISTTRANSLIT:;
#GENRE:Electro Baroque;
#ORIGIN:;
#CREDIT:;
#BANNER:Orchid.png;
#BACKGROUND:Orchid-bg.png;
#PREVIEWVID:;
#JACKET:Orchid-jacket.png;
#CDIMAGE:;
#DISCIMAGE:;
#LYRICSPATH:;
#CDTITLE:cdtitle.png;
#MUSIC:Orchid.ogg;
#OFFSET:-0.328614;
#SAMPLESTART:0.329614;
#SAMPLELENGTH:14.545453;
#SELECTABLE:YES;
#BPMS:0.000=132.000;
#STOPS:;
#DELAYS:;
#WARPS:;
#TIMESIGNATURES:0.000=4=4;
#TICKCOUNTS:0.000=4;
#COMBOS:0.000=1;
#SPEEDS:0.000=1.000=0.000=0;
#SCROLLS:0.000=1.000;
#FAKES:;
#LABELS:0.000=Song Start;
#BGCHANGES:;
#KEYSOUNDS:;
#ATTACKS:
;

//---------------dance-single - ----------------
#NOTEDATA:;
#CHARTNAME:;
#STEPSTYPE:dance-single;
#DESCRIPTION:;
#CHARTSTYLE:;
#DIFFICULTY:Challenge;
#METER:16;
#RADARVALUES:0.864286,1.643333,0.125000,0.350000,1.012500,726.000000,711.000000,15.000000,42.000000,0.000000,0.000000,12.000000,0.000000,0.000000,0.864286,1.643333,0.125000,0.350000,1.012500,726.000000,711.000000,15.000000,42.000000,0.000000,0.000000,12.000000,0.000000,0.000000;
#CREDIT:;
#OFFSET:-0.328614;
#BPMS:0.000000=132.000000
,160.000000=66.000000
,176.000000=264.000000
,240.000000=132.000000
;
#STOPS:;
#DELAYS:;
#WARPS:;
#TIMESIGNATURES:0.000000=4=4
;
#TICKCOUNTS:0.000000=4
;
#COMBOS:0.000000=1
;
#SPEEDS:0.000000=1.000000=0.000000=0
,168.000000=2.000000=7.000000=0
;
#SCROLLS:0.000000=1.000000
,175.000000=0.500000
,176.000000=0.250000
,240.000000=0.500000
;
#FAKES:;
#LABELS:0.000000=Song Start
;
#NOTES:
// measure 0
0000
0000
0000
0000
,  // measure 1
0000
0000
0000
0000
,  // measure 2
0000
0000
0000
0000
,  // measure 3
0000
0000
0000
0000
,  // measure 4
0002
0000
0013
0000
0001
1000
0002
0000
0203
0000
0310
1000
0010
2000
0000
3000
,  // measure 5
0002
0000
1003
0100
1000
0100
0020
0000
0031
0100
0010
0000
0010
0100
0001
0000
,  // measure 6
2000
0000
3010
0000
1000
0001
1000
0100
0020
0000
0031
0100
0001
1000
0100
0010
,  // measure 7
0100
0000
0100
0000
1000
0001
1000
0000
0001
0100
0010
0100
1000
0100
0010
0100
,  // measure 8
0101
0000
1000
0010
1000
0000
1010
0000
0011
0000
1000
0100
1000
0200
0000
0300
,  // measure 9
1001
0000
0001
0100
0010
1000
0100
0010
0001
1000
0010
0000
0010
1000
0001
0000
,  // measure 10
1000
0100
0010
0001
0100
0000
0010
0010
1000
0001
0010
0100
1000
0001
0100
0010
,  // measure 11
1000
0000
0000
0000
1000
0000
0000
0000
0001
0000
0010
0001
0010
0000
0001
0000
1000
0000
0010
0000
0100
0000
0010
0000
0001
0000
0010
0000
0100
0000
0010
0000
,  // measure 12
1010
0000
0001
0100
0001
0000
0101
0000
1100
0000
0001
0010
0001
0200
0000
0300
,  // measure 13
1001
0000
1000
0100
0010
0001
0100
0010
1000
0001
0010
0000
0010
0001
1000
0000
,  // measure 14
0001
0100
0010
1000
0100
0000
0010
0010
0100
1000
0001
0100
0010
1000
0100
0010
,  // measure 15
0001
0000
0000
0000
0001
0000
0000
0000
1000
0000
0010
1000
0010
0000
1000
0000
0001
0000
0010
0000
0100
0000
0010
0000
1000
0000
0010
0000
0100
0000
0010
0000
,  // measure 16
0001
0000
1000
0000
0001
1000
0001
0000
0100
0000
0010
0000
1000
0000
0001
0000
1000
0000
0100
0000
1000
0000
0001
0000
0100
0000
0001
0000
1000
0000
0100
0000
,  // measure 17
0010
0001
1000
0001
0100
0001
1000
0001
0010
0001
0100
0010
1000
0100
1000
0001
,  // measure 18
0100
0010
0100
0000
0001
1000
0100
0000
0100
0010
0100
0000
2000
0000
0000
0000
,  // measure 19
3010
0000
0100
0010
0100
0000
0001
0000
1000
0000
0100
0000
0010
0000
0001
0000
0100
0000
0010
0000
0100
0000
0001
0000
1000
0000
0100
0000
1000
0000
0100
0000
,  // measure 20
0010
0000
0001
0000
1000
0001
1000
0000
0010
0000
0100
0000
0001
0000
1000
0000
0001
0000
0010
0000
0001
0000
1000
0000
0010
0000
1000
0000
0001
0000
0010
0000
,  // measure 21
0100
1000
0001
1000
0010
1000
0001
1000
0100
0010
0100
1000
0010
0100
0001
1000
,  // measure 22
0100
0010
0001
0000
1000
0001
0100
0000
0100
0010
1000
0000
0002
0000
0000
0000
,  // measure 23
0013
0000
0100
0010
0100
0000
1000
0000
0001
0000
0100
0000
0010
0000
1000
0000
0100
0000
0010
0000
0001
0000
1000
0000
0010
0000
0100
0000
0010
0000
0100
0000
,  // measure 24
0001
0000
0010
0001
0100
0000
0010
0000
1000
0000
0001
0000
0001
1000
0001
0000
,  // measure 25
1000
0000
0100
0000
0020
0000
0000
0000
0130
0000
1000
0000
1000
0001
1000
0000
,  // measure 26
0001
0000
0000
0001
0100
0000
0010
1000
0001
0000
0010
0000
0010
0100
0010
0000
,  // measure 27
0001
0000
0100
0000
0020
0000
0000
0000
2030
0000
0000
0000
3001
0000
0001
1000
,  // measure 28
0001
0000
0100
0001
0010
0000
1000
0000
0010
0000
0001
0000
0001
1000
0001
0000
,  // measure 29
0100
0000
1000
0000
0100
0000
0001
0000
0010
0000
0100
0000
0100
0010
0100
0000
,  // measure 30
1000
0010
0100
0010
0001
0010
0100
0010
1000
0000
0100
0010
0001
1000
0001
0000
,  // measure 31
0101
0000
0000
0000
2100
0000
0000
0000
0002
0000
0000
0000
3003
0000
1000
0001
,  // measure 32
0200
0000
0300
0010
1000
0000
0001
0000
0010
0000
0100
1000
0100
0010
0001
1000
,  // measure 33
0010
0000
1000
0001
0010
0000
0000
0000
0004
0000
0403
0000
0340
0000
4030
0000
,  // measure 34
3002
0000
1003
0100
0020
0000
1030
0000
0010
0100
1000
0001
0100
0010
0100
0000
,  // measure 35
0004
0000
0043
0000
0430
0000
4300
0000
3002
0000
0003
0000
0010
0001
0100
0010
,  // measure 36
2000
0000
3200
0000
0302
0000
0203
0000
2300
0000
0000
0000
3010
1000
0010
1000
,  // measure 37
0002
0000
0203
0000
2300
0000
3200
0000
0302
0000
0000
0000
0013
0001
0100
0010
,  // measure 38
1000
0001
1000
0010
1000
0100
0010
0100
0001
0000
0001
0100
0010
0100
1000
0000
,  // measure 39
0001
0100
0010
1000
0001
0010
0100
1000
0004
0400
0000
0000
0000
0000
0303
0000
,  // measure 40
0200
0000
0000
0000
,  // measure 41
0000
0000
0000
0000
0000
0000
0000
0300
,  // measure 42
0001
1000
0001
1000
0100
0010
0100
0010
0001
1000
0001
1000
0010
0100
0010
0100
0001
0010
0001
0010
0100
1000
0100
1000
0001
0100
0001
0100
0010
1000
0010
1000
,  // measure 43
0001
0010
0100
1000
0001
1000
0100
0010
0001
1000
0010
0100
0001
0100
0010
1000
0001
0010
0100
1000
0001
0100
0010
1000
0200
0000
0000
0000
0000
0000
0000
0000
,  // measure 44
0310
0001
1000
0010
0100
0010
1000
0001
,  // measure 45
0010
0100
0010
1000
0010
0100
0010
0001
,  // measure 46
1000
0010
0100
0001
0100
0010
0100
1000
,  // measure 47
0100
0010
1000
0001
0010
0100
1000
0001
,  // measure 48
1000
0010
0100
1000
0100
0010
1000
0001
,  // measure 49
0010
0100
0010
1000
0010
0001
1000
0001
,  // measure 50
0100
0010
1000
0100
1000
0010
0100
0001
,  // measure 51
0040
0400
0000
0000
0000
0000
0030
0300
,  // measure 52
1000
0010
0100
0001
0010
0001
0100
0010
,  // measure 53
1000
0100
0001
0100
1000
0010
0100
0001
,  // measure 54
0010
0001
1000
0010
0001
0010
1000
0100
,  // measure 55
0010
0001
1000
0010
0100
0001
0010
0001
,  // measure 56
0100
1000
0100
0010
1000
0001
1000
0100
,  // measure 57
0010
0001
0010
0100
0001
0100
1000
0001
,  // measure 58
0100
0010
1000
0010
0001
0010
0100
0001
,  // measure 59
1000
0100
0010
0001
1000
0010
0100
0001
,  // measure 60
2000
0000
3010
0000
1000
0001
2000
0000
3200
0000
0310
0001
0010
0002
0000
0003
,  // measure 61
2000
0000
3001
0100
0001
0100
0020
0000
1030
0100
0010
0000
0010
0100
1000
0000
,  // measure 62
0002
0000
0013
0000
0001
1000
0001
0100
0020
0000
1030
0100
1000
0001
0100
0010
,  // measure 63
0100
0000
0100
0000
0001
1000
0001
0000
1000
0100
0010
0100
0001
0100
0010
0100
,  // measure 64
1100
0000
1000
0010
1000
0000
1010
0000
0011
0000
0001
0010
0001
0200
0000
0300
,  // measure 65
1001
0000
0001
0100
0010
1000
0100
0010
0001
1000
0010
0000
0010
1000
0001
0000
,  // measure 66
0100
0001
0010
0100
1000
0000
0001
0001
0100
0010
1000
0100
0010
0001
0100
0010
,  // measure 67
1000
0000
0000
0000
1000
0000
0000
0000
0010
0000
0100
0010
0100
0000
0001
0000
1000
0000
0100
0000
0010
0000
0100
0000
0001
0000
0100
0000
0010
0000
0001
0000
,  // measure 68
1001
0000
0000
0000
;

//---------------dance-single - ----------------
#NOTEDATA:;
#CHARTNAME:;
#STEPSTYPE:dance-single;
#DESCRIPTION:;
#CHARTSTYLE:;
#DIFFICULTY:Hard;
#METER:13;
#RADARVALUES:0.579762,0.850000,0.033333,0.475000,0.320833,487.000000,483.000000,4.000000,57.000000,0.000000,0.000000,3.000000,0.000000,0.000000,0.579762,0.850000,0.033333,0.475000,0.320833,487.000000,483.000000,4.000000,57.000000,0.000000,0.000000,3.000000,0.000000,0.000000;
#CREDIT:;
#OFFSET:-0.328614;
#BPMS:0.000000=132.000000
,160.000000=66.000000
,176.000000=264.000000
,240.000000=132.000000
;
#STOPS:;
#DELAYS:;
#WARPS:;
#TIMESIGNATURES:0.000000=4=4
;
#TICKCOUNTS:0.000000=4
;
#COMBOS:0.000000=1
;
#SPEEDS:0.000000=1.000000=0.000000=0
,168.000000=2.000000=7.000000=0
;
#SCROLLS:0.000000=1.000000
,175.000000=0.500000
,176.000000=0.250000
,240.000000=0.500000
;
#FAKES:;
#LABELS:0.000000=Song Start
;
#NOTES:
// measure 0
0000
0000
0000
0000
,  // measure 1
0000
0000
0000
0000
,  // measure 2
0000
0000
0000
0000
,  // measure 3
0000
0000
0000
0000
,  // measure 4
2000
0000
0000
0000
3010
0000
1000
0000
0002
0000
0000
0000
0013
0002
0000
0000
,  // measure 5
0203
0000
0000
0000
0310
0000
1000
0000
0001
0100
0001
0000
1000
0100
1000
0000
,  // measure 6
0002
0000
0000
0000
0013
0000
0100
1000
0200
0000
0000
0000
1300
0001
1000
0001
,  // measure 7
0100
0200
0010
0000
0301
0100
1000
0100
,  // measure 8
0002
0000
0010
0000
0013
0000
0200
0000
2300
0000
0010
0000
3010
0200
0000
0000
,  // measure 9
0302
0000
1000
0000
1003
0000
0001
0000
0010
0100
1000
0000
0010
0100
0001
0000
,  // measure 10
2000
0000
0010
0000
3010
0000
1000
0001
2000
0000
3100
0000
0010
0001
0010
0001
,  // measure 11
1000
2000
0001
3001
0100
1000
0001
0010
,  // measure 12
2000
0000
0010
0000
3010
0000
2000
0000
3200
0000
0001
0000
0301
0200
0000
0000
,  // measure 13
2300
0000
0010
0000
3010
0000
1000
0000
0001
0010
0100
0000
1000
0010
0100
0000
,  // measure 14
0002
0000
0010
0000
0013
0000
0001
0100
0002
0000
0103
0000
0010
1000
0010
1000
,  // measure 15
0100
0200
0001
0301
0100
1000
0010
0100
,  // measure 16
0001
0010
1000
0010
0001
0100
1000
0100
,  // measure 17
0010
0000
1000
0000
0001
0000
1000
0000
0100
0000
1000
0000
0001
0000
1000
0010
,  // measure 18
1000
0010
1000
0000
0001
0010
0001
0000
1000
0010
1000
0000
0200
0000
0000
0000
,  // measure 19
0310
0001
0100
1000
0100
0001
0010
0001
,  // measure 20
1000
0010
0001
0010
1000
0100
0001
0100
,  // measure 21
0010
0000
0001
0000
1000
0000
0001
0000
0100
0000
0001
0000
1000
0000
0001
0010
,  // measure 22
0001
0010
0001
0000
1000
0010
1000
0000
0001
0010
0001
0000
0200
0000
0000
0000
,  // measure 23
0310
0000
1000
0000
0100
0000
0001
0000
0100
0000
1000
0000
0001
0100
0001
0100
,  // measure 24
0001
0000
0000
0010
0001
0000
1000
0000
0010
0000
0200
0000
0310
0100
0020
0000
,  // measure 25
1030
0000
0002
0000
0023
0000
0000
0000
0130
0000
2000
0000
3001
1000
0002
0000
,  // measure 26
0103
0000
0000
0010
1000
0000
0001
0010
0001
0000
1000
0000
0001
0100
0001
0000
,  // measure 27
1001
0000
0000
0000
1200
0000
0000
0000
0001
0000
0000
0000
1300
0000
0010
1000
,  // measure 28
0010
0000
0000
1000
0100
0000
0010
0000
0001
0000
0200
0000
0310
0100
0020
0000
,  // measure 29
1030
0000
0200
0000
0301
0000
0100
0000
0010
0000
0002
0000
1003
0001
2000
0000
,  // measure 30
3001
0000
0100
0000
1000
0000
0100
0000
0010
0000
1000
0000
0001
1000
0001
0000
,  // measure 31
1001
0000
0000
0000
0201
0000
0000
0000
1000
0000
0000
0000
0301
0000
1000
0001
,  // measure 32
1000
0000
0000
0100
0000
0000
0010
0000
0001
0000
0100
0000
1000
0000
0100
0000
,  // measure 33
0001
0000
0010
0100
0010
0000
0000
0000
0001
0000
0100
0000
1000
0000
0001
0000
,  // measure 34
0010
0000
1000
0010
1000
0000
0001
0000
1000
0000
0100
0000
0010
0100
0010
0000
,  // measure 35
0001
0010
1000
0001
0200
0000
1300
0001
,  // measure 36
1000
0000
0010
0000
0100
0000
0001
0000
2000
0000
0000
0000
3001
0010
0001
0010
,  // measure 37
0001
0000
0100
0000
0010
0000
1000
0000
0002
0000
0000
0000
1003
0010
1000
0010
,  // measure 38
1000
0000
0100
0000
0001
0000
0100
0000
0010
0000
0001
0000
1000
0001
1000
0000
,  // measure 39
0010
0100
0010
1000
0004
0000
0000
0000
,  // measure 40
0003
0000
0000
0000
,  // measure 41
0000
0000
0000
0000
,  // measure 42
1000
0100
0001
0100
1000
0010
0001
0010
0100
1000
0100
0001
0010
1000
0010
0001
,  // measure 43
0100
1000
0001
0010
1000
0100
0001
1000
0010
0001
0100
0010
2000
0000
0000
0000
,  // measure 44
3001
0000
0010
0000
0100
0010
0001
0000
,  // measure 45
1000
0000
0010
0000
0100
0010
1000
0000
,  // measure 46
0001
0000
0100
0000
0010
1000
0100
0000
,  // measure 47
1000
0000
0010
0000
0100
0001
0010
0000
,  // measure 48
0100
0000
1000
0000
0001
0100
0010
0000
,  // measure 49
0100
0000
0001
0000
1000
0100
0010
0000
,  // measure 50
0001
0000
1000
0000
0010
0100
0001
0000
,  // measure 51
0040
0400
0000
0000
0000
0000
0030
0300
,  // measure 52
1000
0000
0010
0000
0100
0001
0010
0000
,  // measure 53
1000
0000
0010
0000
0100
0010
0001
0000
,  // measure 54
0100
0000
1000
0000
0100
0010
1000
0000
,  // measure 55
0001
0000
0010
0000
0100
0001
0100
0000
,  // measure 56
0010
0000
0001
0000
1000
0010
0100
0000
,  // measure 57
1000
0000
0100
0000
0001
1000
0100
0000
,  // measure 58
0010
0000
1000
0000
0010
0001
0100
0000
,  // measure 59
0010
1000
0100
0010
,  // measure 60
0002
0000
0000
0000
0013
0000
0001
0000
0200
0000
0000
0000
0310
2000
0000
0000
,  // measure 61
3200
0000
0000
0000
1300
0000
0001
0000
1000
0010
1000
0000
0001
0010
0001
0000
,  // measure 62
2000
0000
0000
0000
3001
0000
0100
0010
0200
0000
0000
0000
0301
1000
0001
1000
,  // measure 63
0100
0200
0010
0000
0301
0100
0010
0100
,  // measure 64
2000
0000
0010
0000
3010
0000
0002
0000
0023
0000
1000
0000
1030
0002
0000
0000
,  // measure 65
2003
0000
0100
0000
3100
0000
0010
0000
0001
0100
0010
0000
1000
0100
0010
0000
,  // measure 66
0002
0000
0100
0000
0103
0000
0010
1000
0020
0000
0130
0000
0001
1000
0001
1000
,  // measure 67
0100
0000
0200
0000
0001
0000
0301
0000
0100
0000
0010
0000
0001
1000
0001
1000
,  // measure 68
0001
0000
0000
0000
;

//---------------dance-single - ----------------
#NOTEDATA:;
#CHARTNAME:;
#STEPSTYPE:dance-single;
#DESCRIPTION:;
#CHARTSTYLE:;
#DIFFICULTY:Medium;
#METER:10;
#RADARVALUES:0.417857,0.450000,0.275000,0.366667,0.037500,351.000000,318.000000,33.000000,44.000000,0.000000,0.000000,0.000000,0.000000,0.000000,0.417857,0.450000,0.275000,0.366667,0.037500,351.000000,318.000000,33.000000,44.000000,0.000000,0.000000,0.000000,0.000000,0.000000;
#CREDIT:;
#OFFSET:-0.328614;
#BPMS:0.000000=132.000000
,160.000000=66.000000
,176.000000=132.000000
;
#STOPS:;
#DELAYS:;
#WARPS:;
#TIMESIGNATURES:0.000000=4=4
;
#TICKCOUNTS:0.000000=4
;
#COMBOS:0.000000=1
;
#SPEEDS:0.000000=1.000000=0.000000=0
;
#SCROLLS:0.000000=1.000000
,168.000000=1.500000
,175.000000=1.000000
;
#FAKES:;
#LABELS:0.000000=Song Start
;
#NOTES:
// measure 0
0000
0000
0000
0000
,  // measure 1
0000
0000
0000
0000
,  // measure 2
0000
0000
0000
0000
,  // measure 3
0000
0000
0000
0000
,  // measure 4
0011
0000
0000
0000
0000
0000
0001
0000
1000
0000
0000
0000
0000
0001
0000
0000
,  // measure 5
0100
0000
0000
0010
0100
0000
0100
0000
,  // measure 6
1010
0000
0000
1000
0001
0000
0000
1000
,  // measure 7
0100
0100
0000
0000
0010
0001
0100
0010
,  // measure 8
1010
0000
0000
0000
0001
0000
0010
0000
0011
0000
0000
0000
1000
0010
0000
0000
,  // measure 9
0110
0000
0001
0100
0101
0000
1001
0000
,  // measure 10
1100
0000
0010
0001
1001
0000
1000
0010
,  // measure 11
0100
0100
0001
0000
1000
0010
0100
0001
,  // measure 12
0011
0000
0000
0000
1000
0000
0010
0000
1010
0000
0000
0000
0001
0010
0000
0000
,  // measure 13
0110
0000
1000
0100
1100
0000
1001
0000
,  // measure 14
0101
0000
0010
1000
1001
0000
0001
0010
,  // measure 15
0100
0100
1000
0000
0001
0100
0010
1000
,  // measure 16
0002
0023
2030
3020
,  // measure 17
0032
0000
0203
0000
2300
0000
3100
0001
,  // measure 18
1000
0100
0020
0000
0031
0100
0020
0000
,  // measure 19
2030
3020
0230
0302
,  // measure 20
0023
2030
3020
0032
,  // measure 21
0203
0000
2300
0000
3200
0000
0301
0010
,  // measure 22
0100
1000
0020
0000
0130
0001
0020
0000
,  // measure 23
0130
1000
0001
0100
0020
0000
0100
0100
,  // measure 24
0130
0000
0000
0010
0000
0000
1000
0000
0001
0000
0000
0000
0001
0000
0000
0000
,  // measure 25
0011
1002
0103
0100
,  // measure 26
0001
0000
0000
0100
0000
0000
0010
0000
1000
0000
0001
0000
0010
0000
0000
0000
,  // measure 27
0011
0000
2001
0000
3020
0000
0130
0100
,  // measure 28
0001
0000
0000
0010
0000
0000
0100
0000
1000
0000
0000
0000
1000
0000
0000
0000
,  // measure 29
1010
0000
0001
1000
0100
0000
0100
0000
,  // measure 30
1000
0100
0001
0100
0001
0100
1000
0000
,  // measure 31
1100
1002
0200
0303
,  // measure 32
1000
0000
0000
0010
0000
0000
1000
0000
0100
0000
0000
0000
0010
0000
0001
0000
,  // measure 33
1000
0001
0100
0000
1000
0100
1000
0100
,  // measure 34
0001
0010
0100
0010
0001
1000
0010
0000
,  // measure 35
0001
0010
0001
0010
1000
0000
0010
1000
,  // measure 36
0001
0010
0001
0010
0100
0000
0010
0001
,  // measure 37
1000
0010
1000
0010
0100
0000
0001
0000
,  // measure 38
1000
0100
0010
0001
0100
0010
1000
0000
,  // measure 39
0011
2100
0002
0000
,  // measure 40
3003
0000
0000
0000
,  // measure 41
0000
0000
0000
0000
,  // measure 42
2000
0000
0020
3000
0200
0030
0002
0300
0020
0003
0002
0030
0200
0003
0020
0300
,  // measure 43
0200
0030
2000
0300
0200
3000
0002
0300
0020
0003
0200
0000
0330
0000
0000
0000
,  // measure 44
0010
0001
1000
0010
0100
0010
1000
0001
,  // measure 45
0010
0100
0010
1000
0010
0100
0010
0001
,  // measure 46
1000
0010
0100
0001
0100
0010
0100
1000
,  // measure 47
0100
0010
1000
0001
0010
0100
1000
0001
,  // measure 48
1000
0010
0100
1000
0100
0010
1000
0001
,  // measure 49
0010
0100
0010
1000
0010
0001
1000
0001
,  // measure 50
0100
0010
1000
0100
1000
0010
0100
0001
,  // measure 51
0010
1000
0010
0001
1000
0010
0100
0001
,  // measure 52
1000
0000
0000
0000
0000
0000
0001
0000
0010
0000
0000
0000
0000
0001
0000
0000
,  // measure 53
1000
0000
0000
0001
0100
0000
0100
0000
,  // measure 54
0101
0000
0000
1000
0010
0000
0000
1000
,  // measure 55
0001
0001
0000
0000
1000
0100
0010
0001
,  // measure 56
1001
0000
0000
0000
0010
0000
1000
0000
1001
0000
0000
0000
0001
0010
0000
0000
,  // measure 57
0110
0000
1000
0001
0101
0000
1001
0000
,  // measure 58
1100
0000
0010
0001
0101
0000
0010
1000
,  // measure 59
0100
0100
0010
0000
0001
0100
0010
1000
,  // measure 60
0001
0000
0000
0000
;

//---------------dance-single - ----------------
#NOTEDATA:;
#CHARTNAME:;
#STEPSTYPE:dance-single;
#DESCRIPTION:;
#CHARTSTYLE:;
#DIFFICULTY:Easy;
#METER:6;
#RADARVALUES:0.330952,0.375000,0.366667,0.275000,0.000000,278.000000,234.000000,44.000000,33.000000,0.000000,0.000000,0.000000,0.000000,0.000000,0.330952,0.375000,0.366667,0.275000,0.000000,278.000000,234.000000,44.000000,33.000000,0.000000,0.000000,0.000000,0.000000,0.000000;
#CREDIT:;
#OFFSET:-0.328614;
#BPMS:0.000000=132.000000
,160.000000=66.000000
,176.000000=132.000000
;
#STOPS:;
#DELAYS:;
#WARPS:;
#TIMESIGNATURES:0.000000=4=4
;
#TICKCOUNTS:0.000000=4
;
#COMBOS:0.000000=1
;
#SPEEDS:0.000000=1.000000=0.000000=0
;
#SCROLLS:0.000000=1.000000
,168.000000=1.500000
,175.000000=1.000000
;
#FAKES:;
#LABELS:0.000000=Song Start
;
#NOTES:
// measure 0
0000
0000
0000
0000
,  // measure 1
0000
0000
0000
0000
,  // measure 2
0000
0000
0000
0000
,  // measure 3
0000
0000
0000
0000
,  // measure 4
1010
0000
0101
0000
,  // measure 5
1001
0000
0100
0100
,  // measure 6
1001
0000
1100
0000
,  // measure 7
0011
0000
1000
0001
,  // measure 8
0101
1000
1100
0001
,  // measure 9
0011
1000
1010
1010
,  // measure 10
1001
0100
1001
0010
,  // measure 11
1000
0001
1000
0000
0010
0000
1000
0000
,  // measure 12
1100
0001
0101
1000
,  // measure 13
1010
0001
0011
0011
,  // measure 14
1001
0100
1001
0010
,  // measure 15
0001
1000
0001
0000
0100
0000
0100
0000
,  // measure 16
0002
0100
0000
0000
0010
0000
0000
2003
,  // measure 17
0100
0000
0000
3010
1000
0000
0000
0001
,  // measure 18
0010
2100
3010
0102
,  // measure 19
1003
0001
0100
0010
,  // measure 20
2000
0010
0000
0000
0100
0000
0000
3002
,  // measure 21
0010
0000
0000
0103
0001
0000
0000
1000
,  // measure 22
0100
0012
0103
2010
,  // measure 23
3001
0010
0100
1000
,  // measure 24
0001
0001
0100
0100
,  // measure 25
1000
0100
0001
0001
,  // measure 26
0010
1000
0010
0001
,  // measure 27
1000
0010
0200
0001
,  // measure 28
0310
1000
0001
0001
,  // measure 29
1000
0100
0001
0001
,  // measure 30
0100
1000
0010
0100
,  // measure 31
0101
1100
0202
0303
,  // measure 32
1000
0000
0010
0100
0010
0000
1000
0000
,  // measure 33
0001
0001
0001
0000
0020
0000
0230
0000
,  // measure 34
1300
0000
0001
0000
0100
0010
0100
0000
,  // measure 35
0002
0000
2003
0000
3001
0000
0010
0010
,  // measure 36
0010
0000
0001
0000
0100
0000
0010
1000
,  // measure 37
0010
0000
1000
0000
0100
0000
0010
0001
,  // measure 38
0010
0000
0001
0000
1000
0001
1000
0000
,  // measure 39
1100
0101
2200
0000
,  // measure 40
3300
0000
0000
0000
,  // measure 41
0000
0000
0000
0000
,  // measure 42
0002
0023
0230
2300
3020
0230
0302
2003
,  // measure 43
3200
0320
0032
2003
3020
0200
0330
0000
,  // measure 44
1000
0010
1000
0000
0001
0010
0001
0000
,  // measure 45
1000
0100
1000
0000
0001
0100
0001
0000
,  // measure 46
1000
0001
1000
0000
0100
0010
0100
0000
,  // measure 47
1000
0001
1000
0000
0020
0000
0230
0000
,  // measure 48
0301
0010
0001
0000
0100
0001
0100
0000
,  // measure 49
0010
1000
0010
0000
1000
0100
1000
0000
,  // measure 50
0001
0100
0001
0000
1000
0100
1000
0000
,  // measure 51
0001
0010
0001
0000
1000
0010
1000
0000
,  // measure 52
0011
0000
1100
0000
,  // measure 53
1001
0000
0100
0100
,  // measure 54
1001
0000
0101
0000
,  // measure 55
1010
0000
0001
1000
,  // measure 56
1010
0001
0011
1000
,  // measure 57
1100
0001
0101
0101
,  // measure 58
1001
0010
1001
0100
,  // measure 59
0001
1000
0001
0000
0100
0000
0010
0000
,  // measure 60
1001
0000
0000
0000
;

//---------------dance-single - ----------------
#NOTEDATA:;
#CHARTNAME:;
#STEPSTYPE:dance-single;
#DESCRIPTION:;
#CHARTSTYLE:;
#DIFFICULTY:Beginner;
#METER:2;
#RADARVALUES:0.146429,0.186667,0.000000,0.066667,0.000000,123.000000,123.000000,0.000000,8.000000,0.000000,0.000000,0.000000,0.000000,0.000000,0.146429,0.186667,0.000000,0.066667,0.000000,123.000000,123.000000,0.000000,8.000000,0.000000,0.000000,0.000000,0.000000,0.000000;
#CREDIT:;
#NOTES:
// measure 0
0000
0000
0000
0000
,  // measure 1
0000
0000
0000
0000
,  // measure 2
0000
0000
0000
0000
,  // measure 3
0000
0000
0000
0000
,  // measure 4
1000
0000
0001
0000
,  // measure 5
1000
0000
0001
0001
,  // measure 6
0001
0000
1000
0000
,  // measure 7
0001
0000
1000
1000
,  // measure 8
1000
0000
0010
0000
,  // measure 9
1000
0000
0001
0001
,  // measure 10
0001
0000
0010
0000
,  // measure 11
0001
0000
0100
0100
,  // measure 12
0100
0000
0001
0000
,  // measure 13
1000
0000
0100
0100
,  // measure 14
0100
0000
1000
0000
,  // measure 15
0010
0000
1000
1000
,  // measure 16
2000
0000
3000
0000
,  // measure 17
0200
0000
0300
0000
,  // measure 18
0010
0000
0010
0000
,  // measure 19
0001
0000
1000
0000
,  // measure 20
0002
0000
0003
0000
,  // measure 21
0200
0000
0300
0000
,  // measure 22
0010
0000
0010
0000
,  // measure 23
1000
0000
0001
0000
,  // measure 24
1000
0000
0100
0000
,  // measure 25
0100
0000
1000
0000
,  // measure 26
0001
0000
0100
0000
,  // measure 27
0100
0000
0001
0000
,  // measure 28
0010
0000
0001
0000
,  // measure 29
0001
0000
1000
0000
,  // measure 30
0010
0000
1000
0000
,  // measure 31
1000
0000
0001
0000
,  // measure 32
1000
0000
0100
0000
,  // measure 33
0010
0000
0001
0000
,  // measure 34
1000
0000
0010
0000
,  // measure 35
0100
0000
0001
0000
,  // measure 36
1000
0000
0100
0000
,  // measure 37
1000
0000
0010
0000
,  // measure 38
0100
0000
0001
0000
,  // measure 39
0010
0000
0001
0000
,  // measure 40
0000
0000
0000
0000
,  // measure 41
0000
0000
0000
0000
,  // measure 42
0000
0000
0000
0000
,  // measure 43
0000
0000
0000
0000
,  // measure 44
0002
0000
0000
0003
,  // measure 45
0200
0000
0000
0300
,  // measure 46
0020
0000
0000
0030
,  // measure 47
2000
0000
0000
3000
,  // measure 48
0001
0001
0001
0000
,  // measure 49
0010
0010
0010
0000
,  // measure 50
1000
1000
1000
0000
,  // measure 51
0100
0100
0100
0000
,  // measure 52
0001
0001
0001
0000
,  // measure 53
0010
0010
0010
0000
,  // measure 54
1000
1000
1000
0000
,  // measure 55
0100
0100
0100
0000
,  // measure 56
0001
0000
1000
0000
,  // measure 57
0001
0000
1000
1000
,  // measure 58
1000
0000
0001
0000
,  // measure 59
1000
0000
0001
0001
,  // measure 60
0001
0000
0010
0000
,  // measure 61
0100
0000
1000
1000
,  // measure 62
1000
0000
0010
0000
,  // measure 63
0100
0000
0001
0001
,  // measure 64
0001
0000
0000
0000
;
