#VERSION:0.83;
#TITLE:Online;
#SUBTITLE:;
#ARTIST:HiTECH NINJA;
#TITLETRANSLIT:;
#SUBTITLETRANSLIT:;
#ARTISTTRANSLIT:;
#GENRE:Hi-TECH Dance Speed;
#ORIGIN:;
#CREDIT:;
#BANNER:Online.png;
#BACKGROUND:Online-bg.png;
#PREVIEWVID:;
#JACKET:Online-jacket.png;
#CDIMAGE:;
#DISCIMAGE:;
#LYRICSPATH:;
#CDTITLE:cdtitle.png;
#MUSIC:Online.ogg;
#OFFSET:-0.020385;
#SAMPLESTART:55.834343;
#SAMPLELENGTH:11.162785;
#SELECTABLE:YES;
#BPMS:0.000=172.000;
#STOPS:;
#DELAYS:;
#WARPS:;
#TIMESIGNATURES:0.000=4=4;
#TICKCOUNTS:0.000=4;
#COMBOS:0.000=1;
#SPEEDS:0.000=1.000=0.000=0;
#SCROLLS:0.000=1.000;
#FAKES:;
#LABELS:0.000=Song Start;
#BGCHANGES:;
#KEYSOUNDS:;
#ATTACKS:
;

//---------------dance-single - ----------------
#NOTEDATA:;
#CHARTNAME:;
#STEPSTYPE:dance-single;
#DESCRIPTION:;
#CHARTSTYLE:;
#DIFFICULTY:Hard;
#METER:13;
#RADARVALUES:0.607066,0.664132,0.480303,0.244222,0.276785,522.000000,463.000000,59.000000,30.000000,0.000000,0.000000,0.000000,0.000000,0.000000,0.607066,0.664132,0.480303,0.244222,0.276785,522.000000,463.000000,59.000000,30.000000,0.000000,0.000000,0.000000,0.000000,0.000000;
#CREDIT:;
#NOTES:
// measure 0
0000
0000
0000
0000
,  // measure 1
0000
0000
0000
0000
,  // measure 2
0000
0000
0000
0000
,  // measure 3
0000
0000
0000
0000
,  // measure 4
1000
1000
0010
1000
,  // measure 5
0001
0000
0001
0000
0010
0000
0001
1000
,  // measure 6
0001
0001
0100
0001
,  // measure 7
1000
1000
0100
1001
,  // measure 8
1010
0000
0000
0110
0000
0000
2000
0000
0010
0000
0000
0000
3001
0000
0000
0000
,  // measure 9
1001
0000
0000
1100
0000
0000
1000
0000
0010
0000
1000
0000
0100
0000
0000
0000
,  // measure 10
0011
0000
0000
0110
0000
0000
0002
0000
0010
0000
0000
0000
1003
0000
0000
0000
,  // measure 11
1001
0000
0000
0101
0000
0000
0001
0000
0010
0000
0001
0000
0100
0000
0000
0000
,  // measure 12
1010
0000
0000
0101
0000
0000
0002
0000
0010
0000
0000
0000
0103
0000
0000
0000
,  // measure 13
0011
0000
0000
1100
0000
0000
1000
0000
0010
0000
0100
0000
0001
0000
0000
0000
,  // measure 14
1001
0000
0000
0110
0000
0000
2000
0000
0010
0000
0000
0000
3100
0000
0000
0000
,  // measure 15
0011
0000
0000
1000
0000
0000
1010
0000
0000
0001
0000
0000
0011
0000
0000
0000
,  // measure 16
2001
3010
2001
3100
,  // measure 17
1002
0013
1002
0103
,  // measure 18
0101
1010
0011
1100
,  // measure 19
0101
0011
1100
1010
,  // measure 20
1000
0100
1000
0100
0001
0100
0001
0100
,  // measure 21
1000
0010
1000
0010
0001
0010
0001
0010
,  // measure 22
1000
0010
0001
0010
1000
0010
0100
0001
,  // measure 23
0020
1000
0031
0110
,  // measure 24
1000
0000
0000
0010
0000
0100
0000
0000
0010
0000
0000
0001
0000
0000
0010
0000
,  // measure 25
1000
0000
0000
0100
0000
0010
0000
0000
0100
0000
0000
0001
0000
0000
0100
0000
,  // measure 26
1000
0000
0000
0010
0000
0100
0000
0000
0010
0000
0000
0001
0000
0000
0010
0000
,  // measure 27
1000
0000
0000
0100
0000
0001
0000
0000
0202
0000
0303
0000
2200
0000
3300
0000
,  // measure 28
0001
0000
0000
0010
0000
0100
0000
0000
0010
0000
0000
1000
0000
0000
0010
0000
,  // measure 29
0001
0000
0000
0100
0000
0010
0000
0000
0100
0000
0000
1000
0000
0000
0100
0000
,  // measure 30
0001
0000
0000
0010
0000
0100
0000
0000
0010
0000
0000
1000
0000
0000
0010
0000
,  // measure 31
0001
0100
1000
0100
0001
0000
0110
0000
,  // measure 32
1000
0000
0000
0010
0000
0001
0000
0000
1000
0000
0000
0001
0000
0000
0010
0000
,  // measure 33
1000
0000
0000
0100
0000
0001
0000
0000
0101
0000
0000
1100
0000
0000
1000
0000
,  // measure 34
0001
0000
0000
0010
0000
1000
0000
0000
0001
0000
0000
1000
0000
0000
0010
0000
,  // measure 35
0001
0000
0000
0100
0000
1000
0000
0000
2200
0000
3300
0000
0202
0000
0303
0000
,  // measure 36
0001
0000
0000
0100
0000
1000
0000
0000
0001
0000
0000
1000
0000
0000
0100
0000
,  // measure 37
0001
0000
0000
0010
0000
1000
0000
0000
0001
0000
0000
1000
0000
0000
0010
0000
,  // measure 38
0001
0000
0000
0100
0000
0010
0000
0000
1000
0000
0000
0100
0000
0000
0010
0000
,  // measure 39
0001
1000
0001
1000
0001
1000
0100
0010
,  // measure 40
1000
0010
0100
1000
0000
0001
0100
0010
,  // measure 41
0001
0010
0100
0001
0000
1000
0100
0010
,  // measure 42
0001
0100
1000
0001
0010
1000
0001
0100
,  // measure 43
0001
0100
0010
1000
0000
1000
0100
0001
,  // measure 44
1000
0001
0100
1000
0000
1000
0010
0001
,  // measure 45
1000
0001
0010
1000
0000
1000
0010
0100
,  // measure 46
0001
0010
1000
0001
0100
1000
0001
0010
,  // measure 47
0110
0000
0000
0011
0000
0000
1001
0000
0000
0000
0001
0000
0100
0000
0010
0000
,  // measure 48
2000
0000
0010
0000
,  // measure 49
0001
0001
0010
3001
,  // measure 50
0002
0000
0010
0000
,  // measure 51
1000
0000
1000
0000
0010
0000
1003
0001
,  // measure 52
0100
0000
1010
0000
0000
0001
0101
0000
,  // measure 53
0001
0000
0011
0000
0000
1000
1100
0000
,  // measure 54
0001
0000
1001
0000
0000
0001
1001
0000
,  // measure 55
0010
0000
1001
0000
1000
0100
0001
0100
,  // measure 56
2000
0100
0001
0010
,  // measure 57
3020
0001
0100
1030
,  // measure 58
0102
0100
1000
0010
,  // measure 59
0023
1000
0100
0031
,  // measure 60
0001
0010
1000
0000
0001
0100
1000
0000
,  // measure 61
1000
0010
0001
0000
1000
0100
0001
0000
,  // measure 62
1000
0010
0001
0010
1000
0100
0001
0100
,  // measure 63
2000
0000
0000
0000
3010
0000
0010
0000
0000
0010
0000
0000
1001
0000
0000
0000
,  // measure 64
1000
0000
0100
0000
0001
0000
0100
1000
0000
0000
1000
0000
0100
0000
0010
0000
,  // measure 65
0001
0000
0100
0000
1000
0000
0100
0001
0000
0000
0001
0000
0100
0000
0010
0000
,  // measure 66
1000
0000
0100
0000
0001
0000
0100
1000
0000
0000
1000
0000
0100
0000
0010
0000
,  // measure 67
0001
0000
1000
0010
0000
0010
1000
0000
0001
0000
0010
0000
0011
0000
0000
0000
,  // measure 68
1000
0000
0010
0000
0001
0000
0010
0100
0000
0000
0100
0000
0010
0000
1000
0000
,  // measure 69
0001
0000
0010
0000
1000
0000
0010
0100
0000
0000
0100
0000
0010
0000
0001
0000
,  // measure 70
1000
0000
0010
0000
0001
0000
0010
0100
0000
0000
0100
0000
0010
0000
1000
0000
,  // measure 71
1001
0000
0000
0011
0000
0000
2100
0000
0000
0000
3100
0000
0010
0000
0001
0000
,  // measure 72
1000
0000
0001
0000
0100
0000
1000
0001
0000
0000
1000
0000
0100
0000
0001
0000
,  // measure 73
1000
0000
0001
0000
0010
0000
1000
0001
0000
0000
1000
0000
0010
0000
0001
0000
,  // measure 74
1000
0000
0001
0000
0100
0000
1000
0001
0000
0000
1000
0000
0100
0000
0001
0000
,  // measure 75
1000
0000
0001
0010
0000
0010
0001
0000
1000
0000
0010
0000
0110
0000
0000
0000
,  // measure 76
0001
0010
1000
0100
0001
0000
0110
0000
,  // measure 77
1000
0010
0001
0100
1000
0000
0110
0000
,  // measure 78
1000
0010
0001
0010
1000
0100
0001
0100
,  // measure 79
1000
0000
0000
0010
0000
0000
1001
0000
0000
0000
0001
0000
0010
0000
0100
0000
,  // measure 80
2000
0010
0000
0010
,  // measure 81
3002
0010
0000
0010
,  // measure 82
2003
0100
0000
0100
,  // measure 83
3001
0000
0000
0100
0000
0000
0010
0000
0000
0100
0000
0000
0220
0000
0000
0000
,  // measure 84
0000
0000
0000
0000
,  // measure 85
0000
0000
0000
0000
0000
0000
0000
0330
;

//---------------dance-single - ----------------
#NOTEDATA:;
#CHARTNAME:;
#STEPSTYPE:dance-single;
#DESCRIPTION:;
#CHARTSTYLE:;
#DIFFICULTY:Medium;
#METER:10;
#RADARVALUES:0.501237,0.594223,0.602415,0.317489,0.000000,431.000000,357.000000,74.000000,39.000000,0.000000,0.000000,0.000000,0.000000,0.000000,0.501237,0.594223,0.602415,0.317489,0.000000,431.000000,357.000000,74.000000,39.000000,0.000000,0.000000,0.000000,0.000000,0.000000;
#CREDIT:;
#NOTES:
// measure 0
0000
0000
0000
0000
,  // measure 1
0000
0000
0000
0000
,  // measure 2
0000
0000
0000
0000
,  // measure 3
0000
0000
0000
0000
,  // measure 4
1000
1000
0010
1000
,  // measure 5
0001
0001
0010
0001
,  // measure 6
1000
1000
0100
1000
,  // measure 7
0001
0001
0100
1001
,  // measure 8
2010
0001
0200
3300
,  // measure 9
0011
0000
1100
0000
0010
0001
0010
0000
,  // measure 10
0012
1000
0200
0303
,  // measure 11
1010
0000
0101
0000
0010
1000
0010
0000
,  // measure 12
2001
0100
0020
3030
,  // measure 13
0011
0000
1010
0000
0100
0001
0100
0000
,  // measure 14
1002
0100
0020
0033
,  // measure 15
1010
0000
0011
0000
0100
1000
0100
0000
,  // measure 16
0012
1003
1002
0103
,  // measure 17
2010
3001
2001
3100
,  // measure 18
1100
0011
1100
0011
,  // measure 19
0101
1010
0101
1010
,  // measure 20
0001
0010
0001
0000
1000
0010
1000
0000
,  // measure 21
0001
0100
0001
0000
1000
0100
1000
0000
,  // measure 22
0002
0203
2300
3020
,  // measure 23
0032
0000
0003
1001
,  // measure 24
0100
0000
1010
0000
0100
0000
0010
1000
,  // measure 25
0100
0000
0011
0000
0100
0000
0010
0001
,  // measure 26
0100
0000
1010
0000
0100
0000
0010
1000
,  // measure 27
0100
0010
1001
1001
,  // measure 28
0010
0000
0101
0000
0010
0000
0100
0001
,  // measure 29
0010
0000
1100
0000
0010
0000
0100
1000
,  // measure 30
0010
0000
0101
0000
0010
0000
0100
0001
,  // measure 31
0010
0000
0100
1000
0010
0000
1001
0000
,  // measure 32
1000
0000
1010
0000
0001
0000
1000
0100
,  // measure 33
0001
0000
0011
0000
1000
0000
0001
0100
,  // measure 34
1000
0000
1010
0000
0001
0000
1000
0100
,  // measure 35
0001
0100
1001
1001
,  // measure 36
0010
0000
1100
0000
0001
0000
1000
0010
,  // measure 37
0001
0000
0101
0000
1000
0000
0001
0010
,  // measure 38
1000
1100
0001
0101
,  // measure 39
2002
0000
3003
1001
,  // measure 40
1000
0010
0100
0010
0000
0010
1000
0000
,  // measure 41
0001
0010
0100
0010
0000
0010
0001
0000
,  // measure 42
1000
0010
0000
0010
0100
0000
0001
1000
,  // measure 43
0001
0000
0010
0100
0000
0100
1000
0000
,  // measure 44
0001
0100
0010
0100
0000
1000
0100
0000
,  // measure 45
0001
0010
0100
0010
0000
1000
0010
0000
,  // measure 46
0001
1000
0000
1000
0001
0000
0100
0010
,  // measure 47
0200
0000
0000
0310
0000
0000
0110
0000
,  // measure 48
2001
0000
3010
0000
,  // measure 49
0010
1000
0100
0010
,  // measure 50
0002
0000
0013
0000
,  // measure 51
0010
0001
0100
0010
,  // measure 52
1000
1010
0000
1010
,  // measure 53
0100
0011
0000
0011
,  // measure 54
0100
1010
0000
1010
,  // measure 55
0100
0011
0100
1010
,  // measure 56
2001
0001
0010
0010
,  // measure 57
0001
0001
0100
3100
,  // measure 58
1002
1000
0010
0010
,  // measure 59
1000
1000
0100
0103
,  // measure 60
0102
0013
2100
3010
,  // measure 61
1020
0130
0021
0130
,  // measure 62
1001
0000
0110
0000
1000
0001
1000
0001
,  // measure 63
2000
0000
0000
0002
0000
3003
0110
0000
,  // measure 64
1000
0010
0100
0010
1000
0000
1000
0000
,  // measure 65
0001
0010
0100
0010
0001
0000
0001
0000
,  // measure 66
1000
0010
0100
0010
1000
0000
0100
0000
,  // measure 67
0011
0000
1100
0000
0010
0001
1000
0000
,  // measure 68
0001
0100
0010
0100
0001
0000
0001
0000
,  // measure 69
1000
0100
0010
0100
1000
0000
1000
0000
,  // measure 70
0001
0100
0010
0100
0001
0000
0010
0000
,  // measure 71
1001
0000
0000
0110
0000
0000
1001
0000
,  // measure 72
0001
0010
0100
1000
0010
0000
0010
0000
,  // measure 73
1000
0010
0100
0001
0010
0000
0010
0000
,  // measure 74
0001
0010
0100
1000
0010
0000
0100
0000
,  // measure 75
1010
0000
0101
0000
0010
1000
0001
0000
,  // measure 76
1000
0100
0001
0100
2000
0000
3000
0000
,  // measure 77
0001
0100
1000
0100
0002
0000
0003
0000
,  // measure 78
1000
0010
1000
0001
0010
0001
0010
0000
,  // measure 79
0200
0000
0000
0020
0000
0330
1001
0000
,  // measure 80
0002
0010
0000
0010
,  // measure 81
2003
0010
0000
0010
,  // measure 82
3002
0100
0000
0100
,  // measure 83
1003
0000
0000
0100
0000
0000
0220
0000
,  // measure 84
0000
0000
0000
0000
,  // measure 85
0000
0000
0000
0000
0000
0000
0000
0330
;

//---------------dance-single - ----------------
#NOTEDATA:;
#CHARTNAME:;
#STEPSTYPE:dance-single;
#DESCRIPTION:;
#CHARTSTYLE:;
#DIFFICULTY:Easy;
#METER:6;
#RADARVALUES:0.310511,0.489360,0.350052,0.268644,0.000000,267.000000,224.000000,43.000000,33.000000,0.000000,0.000000,0.000000,0.000000,0.000000,0.310511,0.489360,0.350052,0.268644,0.000000,267.000000,224.000000,43.000000,33.000000,0.000000,0.000000,0.000000,0.000000,0.000000;
#CREDIT:;
#NOTES:
// measure 0
0000
0000
0000
0000
,  // measure 1
0000
0000
0000
0000
,  // measure 2
0000
0000
0000
0000
,  // measure 3
0000
0000
0000
0000
,  // measure 4
1000
0000
0100
0000
,  // measure 5
1000
0000
0010
0000
,  // measure 6
0001
0000
0100
0000
,  // measure 7
0001
0000
0010
0000
,  // measure 8
1001
1001
1001
0000
,  // measure 9
0100
0100
0100
0000
,  // measure 10
1001
1001
1001
0000
,  // measure 11
0010
0010
0010
0000
,  // measure 12
1100
0011
1100
0000
,  // measure 13
0001
1000
0001
0000
,  // measure 14
0101
1010
0101
0000
,  // measure 15
0010
0010
1001
0110
,  // measure 16
2002
3003
2020
3030
,  // measure 17
2002
3003
0022
0033
,  // measure 18
1000
1000
0001
0001
,  // measure 19
1000
1000
0001
0001
,  // measure 20
0100
0010
0100
0010
,  // measure 21
1000
0001
0100
0010
,  // measure 22
2000
0000
0000
0000
,  // measure 23
0002
0000
3003
1001
,  // measure 24
1000
0100
0010
0000
,  // measure 25
0001
0100
0010
0000
,  // measure 26
1000
0100
0010
0000
,  // measure 27
0001
0100
1001
1001
,  // measure 28
0100
0001
0010
0000
,  // measure 29
0100
1000
0010
0000
,  // measure 30
0100
0001
0010
0000
,  // measure 31
2002
3003
1000
0001
,  // measure 32
1000
0100
0001
0000
,  // measure 33
0001
0100
1000
0000
,  // measure 34
0001
0100
1000
0000
,  // measure 35
0100
0001
1001
1001
,  // measure 36
0001
0010
1000
0000
,  // measure 37
1000
0010
0001
0000
,  // measure 38
1000
0010
0001
0000
,  // measure 39
0020
0000
1030
1000
,  // measure 40
0010
1000
0100
0000
,  // measure 41
0010
0001
0100
0000
,  // measure 42
0010
1000
0010
1000
,  // measure 43
0010
1000
0100
0000
,  // measure 44
1000
0010
0001
0000
,  // measure 45
0001
0010
1000
0000
,  // measure 46
0001
0010
0001
0010
,  // measure 47
0100
1000
0001
0000
,  // measure 48
2001
0000
3010
0000
,  // measure 49
1000
1000
1000
0000
,  // measure 50
0002
0000
0013
0000
,  // measure 51
0001
0001
0001
0000
,  // measure 52
0100
0101
0000
1010
,  // measure 53
0000
1100
0000
0011
,  // measure 54
0000
1001
0000
0110
,  // measure 55
0000
1000
0001
1000
,  // measure 56
2001
0000
0010
0000
,  // measure 57
0001
0000
3010
0000
,  // measure 58
1002
0000
0010
0000
,  // measure 59
1000
0000
0013
0000
,  // measure 60
0022
0033
2200
3300
,  // measure 61
2020
3030
0202
0303
,  // measure 62
1000
0010
0100
0001
,  // measure 63
0020
0000
0030
1001
,  // measure 64
0001
0100
1000
0000
,  // measure 65
0100
1000
0010
0000
,  // measure 66
1000
0010
0001
0000
,  // measure 67
0010
0001
0100
0010
,  // measure 68
1000
0100
0001
0000
,  // measure 69
0100
0001
0010
0000
,  // measure 70
0001
0010
1000
0010
,  // measure 71
2002
0000
0000
3003
0000
0000
1001
0000
,  // measure 72
1000
0100
0001
0000
,  // measure 73
0001
0010
1000
0000
,  // measure 74
0001
0100
1000
0000
,  // measure 75
1000
0010
0001
0000
,  // measure 76
0001
0010
1001
0000
,  // measure 77
1000
0010
1001
0000
,  // measure 78
1000
0100
0010
0001
,  // measure 79
0100
0010
1000
0000
,  // measure 80
2020
0000
0000
0030
,  // measure 81
0002
0000
0000
3000
,  // measure 82
0020
0000
0000
0003
,  // measure 83
0200
0000
0000
0030
,  // measure 84
0000
0000
0000
0000
,  // measure 85
0000
0000
0000
0000
0000
0000
0000
0300
;

//---------------dance-single - ----------------
#NOTEDATA:;
#CHARTNAME:;
#STEPSTYPE:dance-single;
#DESCRIPTION:;
#CHARTSTYLE:;
#DIFFICULTY:Beginner;
#METER:3;
#RADARVALUES:0.188400,0.306804,0.105830,0.105830,0.000000,162.000000,149.000000,13.000000,13.000000,0.000000,0.000000,0.000000,0.000000,0.000000,0.188400,0.306804,0.105830,0.105830,0.000000,162.000000,149.000000,13.000000,13.000000,0.000000,0.000000,0.000000,0.000000,0.000000;
#CREDIT:;
#NOTES:
// measure 0
0000
0000
0000
0000
,  // measure 1
0000
0000
0000
0000
,  // measure 2
0000
0000
0000
0000
,  // measure 3
0000
0000
0000
0000
,  // measure 4
2000
0000
3000
0000
,  // measure 5
0002
0000
0003
0000
,  // measure 6
2000
0000
3000
0000
,  // measure 7
0002
0000
0003
0000
,  // measure 8
1000
0000
1000
0000
,  // measure 9
0001
0000
0001
0000
,  // measure 10
1000
0000
1000
0000
,  // measure 11
0001
0000
0001
0000
,  // measure 12
0010
0000
0010
0000
,  // measure 13
0100
0000
0100
0000
,  // measure 14
0010
0000
0010
0000
,  // measure 15
0100
0000
0100
0000
,  // measure 16
1001
0000
1001
0000
,  // measure 17
0110
0000
0110
0000
,  // measure 18
0001
0000
1000
0000
,  // measure 19
0001
0000
1000
0000
,  // measure 20
0010
0000
0010
0000
,  // measure 21
0010
0000
0010
0000
,  // measure 22
0020
0000
0000
0000
,  // measure 23
0030
0000
0000
0000
,  // measure 24
1000
0000
0010
0000
,  // measure 25
1000
0000
0100
0000
,  // measure 26
1000
0000
0010
0000
,  // measure 27
1000
0000
0001
0001
,  // measure 28
0001
0000
0010
0000
,  // measure 29
0001
0000
0100
0000
,  // measure 30
0001
0000
1000
0000
,  // measure 31
1000
1000
1000
0000
,  // measure 32
0001
0000
0010
0000
,  // measure 33
0100
0000
1000
0000
,  // measure 34
0010
0000
0100
0000
,  // measure 35
0001
0000
1000
1000
,  // measure 36
1000
0000
0100
0000
,  // measure 37
0010
0000
0001
0000
,  // measure 38
0100
0000
0010
0000
,  // measure 39
0010
0010
0010
0000
,  // measure 40
1000
0000
0100
0000
,  // measure 41
0001
0000
0100
0000
,  // measure 42
1000
0000
1000
0000
,  // measure 43
0010
0000
1000
0000
,  // measure 44
0001
0000
0100
0000
,  // measure 45
1000
0000
0100
0000
,  // measure 46
0001
0000
0001
0000
,  // measure 47
0010
0000
0001
0000
,  // measure 48
2000
0000
3000
0000
,  // measure 49
0000
0000
0000
0000
,  // measure 50
0002
0000
0003
0000
,  // measure 51
0000
0000
0000
0000
,  // measure 52
1000
0000
1000
0000
,  // measure 53
0100
0000
0100
0000
,  // measure 54
0010
0000
0010
0000
,  // measure 55
0001
0000
1000
0000
,  // measure 56
1001
0000
0010
0000
,  // measure 57
0010
0000
0010
0000
,  // measure 58
1001
0000
0100
0000
,  // measure 59
0100
0000
0100
0000
,  // measure 60
1001
0000
1001
0000
,  // measure 61
1001
0000
1001
0000
,  // measure 62
0001
0000
1000
0000
,  // measure 63
0100
0000
0000
0000
,  // measure 64
1000
0000
0010
0000
,  // measure 65
0001
0000
0010
0000
,  // measure 66
1000
0000
0001
0000
,  // measure 67
1000
1000
1000
0000
,  // measure 68
0001
0000
0010
0000
,  // measure 69
1000
0000
0010
0000
,  // measure 70
0001
0000
1000
0000
,  // measure 71
0001
0001
0001
0000
,  // measure 72
1000
0000
0010
0000
,  // measure 73
0100
0000
0001
0000
,  // measure 74
0010
0000
0001
0000
,  // measure 75
0100
0000
0010
0000
,  // measure 76
1000
1000
1000
0000
,  // measure 77
0001
0001
0001
0000
,  // measure 78
1001
0000
0110
0000
,  // measure 79
2002
0000
3003
0000
,  // measure 80
2000
0000
0000
3000
,  // measure 81
0200
0000
0000
0300
,  // measure 82
0020
0000
0000
0030
,  // measure 83
0002
0000
0000
0003
;

//---------------dance-single - ----------------
#NOTEDATA:;
#CHARTNAME:;
#STEPSTYPE:dance-single;
#DESCRIPTION:;
#CHARTSTYLE:;
#DIFFICULTY:Challenge;
#METER:16;
#RADARVALUES:0.853614,0.978720,0.610555,0.341911,0.879200,734.000000,659.000000,75.000000,42.000000,0.000000,0.000000,0.000000,0.000000,0.000000,0.853614,0.978720,0.610555,0.341911,0.879200,734.000000,659.000000,75.000000,42.000000,0.000000,0.000000,0.000000,0.000000,0.000000;
#CREDIT:;
#NOTES:
// measure 0
0000
0000
0000
0000
,  // measure 1
0000
0000
0000
0000
,  // measure 2
0000
0000
0000
0000
,  // measure 3
0000
0000
0000
0000
,  // measure 4
1000
0000
0000
0010
0000
0000
0100
0000
0000
0010
0000
0000
1000
0000
0000
0000
,  // measure 5
0001
0000
0000
0010
0000
0000
0100
0000
0000
0010
0000
0000
0001
0000
0000
0000
,  // measure 6
1000
0000
0000
0010
0000
0000
0100
0000
0000
0001
0000
0000
0010
0000
0000
0000
,  // measure 7
0001
0000
0000
0100
0000
0000
0010
0000
0000
1000
0000
0000
1001
0000
0000
0000
,  // measure 8
0011
0000
0000
0110
0000
0000
0011
0000
1000
0000
0000
0000
0010
0000
1000
0000
,  // measure 9
0100
0000
0010
0100
0010
0000
0001
0000
0100
0000
1000
0000
0100
0000
0001
0000
,  // measure 10
1010
0000
0000
0110
0000
0000
1010
0000
0001
0000
0000
0000
0010
0000
0001
0000
,  // measure 11
0100
0000
0010
0100
0010
0000
1000
0000
0100
0000
0001
0000
0100
0000
1000
0000
,  // measure 12
1010
0000
0000
1001
0000
0000
1100
0000
0001
0000
0000
0000
0010
0000
0001
0000
,  // measure 13
0100
0000
1000
0100
1000
0000
0100
0000
0001
0000
0010
0000
0100
0000
0010
0000
,  // measure 14
0011
0000
0000
1001
0000
0000
0101
0000
1000
0000
0000
0000
0010
0000
1000
0000
,  // measure 15
0100
0000
0001
0100
0001
0000
0100
0000
1000
0000
0010
0000
1000
0010
0100
0001
,  // measure 16
2000
0000
3010
1000
1002
0000
0013
0001
,  // measure 17
1002
0000
0103
0001
2001
0000
3100
1000
,  // measure 18
1001
1010
1001
0011
,  // measure 19
0101
1100
0011
1010
,  // measure 20
1002
0010
0010
0013
2001
0010
0010
3010
,  // measure 21
1002
0100
0100
0103
2001
0100
0100
3100
,  // measure 22
1000
0100
1000
0100
0010
0001
0010
0001
1000
0100
0010
0001
1000
0001
0010
0100
,  // measure 23
2000
0010
3001
1001
,  // measure 24
0001
0000
0100
0010
0000
0100
0000
0010
1000
0000
0001
0010
0000
0100
0010
0100
,  // measure 25
1000
0000
0010
0100
0000
0010
0000
0100
0001
0000
0010
0100
0000
1000
0010
0100
,  // measure 26
0001
0000
0010
0100
0000
0010
0000
0100
1000
0000
0001
0100
0000
0010
0100
0010
,  // measure 27
1000
0000
0100
0001
0000
0100
1000
0000
0220
0000
0330
0000
2002
0000
3003
0000
,  // measure 28
1000
0000
0100
0010
0000
0100
0000
0010
0001
0000
1000
0010
0000
0100
0010
0100
,  // measure 29
0001
0000
0010
0100
0000
0010
0000
0100
1000
0000
0010
0100
0000
0001
0010
0100
,  // measure 30
1000
0000
0010
0100
0000
0010
0000
0100
0001
0000
1000
0100
0000
0010
0001
1000
,  // measure 31
0100
0000
0100
0000
0100
0000
0100
0000
0010
0001
0000
1000
0020
0000
0000
0000
,  // measure 32
1030
0000
0010
0100
0000
1000
0000
0100
0010
0000
1000
0001
0000
1000
0100
0010
,  // measure 33
0001
0000
0100
0010
0000
1000
0000
0001
0010
0000
0000
1001
0000
0001
0100
0010
,  // measure 34
1000
0000
0100
0010
0000
1000
0000
0010
0100
0000
1000
0001
0000
1000
0010
0100
,  // measure 35
0001
0000
0100
1000
0000
0100
0001
0000
0220
0000
0330
0000
2002
0000
3003
0000
,  // measure 36
0001
0000
0010
0100
0000
0001
0000
0100
0010
0000
0001
1000
0000
0001
0100
0010
,  // measure 37
1000
0000
0100
0010
0000
0001
0000
1000
0010
0000
1000
0001
0000
1000
0100
0010
,  // measure 38
0001
0000
1000
0010
1000
0000
0001
0010
0001
0000
1000
0010
1000
0000
0001
0010
,  // measure 39
0100
0100
0100
0100
0100
1000
0001
1000
,  // measure 40
2001
0010
3001
1001
0000
0001
0010
0001
,  // measure 41
1002
0010
1003
1001
0000
1000
0010
1000
,  // measure 42
2001
0010
3001
1002
0010
1003
2001
3010
,  // measure 43
1002
0010
1003
1001
0000
0001
0100
0010
,  // measure 44
2010
0001
3100
1100
0000
1000
0100
0010
,  // measure 45
0012
1000
0103
0101
0000
0001
0100
0010
,  // measure 46
2010
0001
3100
0012
1000
0103
1010
0001
,  // measure 47
0011
0000
0000
1100
0000
0000
0011
0000
0000
0010
0001
0100
0010
0000
1000
0000
,  // measure 48
2001
0000
0010
0000
,  // measure 49
0001
0001
0010
3001
,  // measure 50
0002
0000
0010
0000
,  // measure 51
1000
0000
1000
0000
0010
0000
1003
0001
,  // measure 52
0100
0010
1010
0010
0000
0001
0101
0000
,  // measure 53
0001
0010
1000
0010
0001
0100
0010
1000
,  // measure 54
0100
0010
0011
0010
0000
1000
1100
0000
,  // measure 55
1000
0000
0010
0000
0001
0000
0010
0000
1000
0000
0100
0000
0010
0001
0100
0010
,  // measure 56
2000
0010
0001
0100
,  // measure 57
3200
0001
0010
1300
,  // measure 58
1002
0010
1000
0100
,  // measure 59
0203
1000
0010
0301
,  // measure 60
0101
0001
0010
0000
1100
1000
0010
0000
,  // measure 61
1010
0100
0001
0000
0011
0100
1000
0000
,  // measure 62
0001
0100
0001
0100
0010
1000
0010
1000
0001
0100
0010
1000
0001
1000
0010
0100
,  // measure 63
0002
0000
0000
0000
0013
0000
0010
0000
0000
0010
0000
0000
1001
0000
0000
0000
,  // measure 64
1000
0010
0100
0010
1000
0010
0100
0010
0000
1000
0000
1000
0100
0000
0010
0000
,  // measure 65
0001
0010
0100
0010
0001
0010
0100
0010
0000
0001
0000
0001
0100
0010
0100
0010
,  // measure 66
1000
0100
0010
0100
1000
0100
0010
0100
0000
1000
0000
1000
0010
0000
0100
0000
,  // measure 67
0001
0010
0100
1000
0000
0010
0100
0000
0001
0000
0010
0001
0000
0100
0010
1000
,  // measure 68
0001
1000
0100
1000
0001
1000
0100
1000
0000
0001
0000
0001
0100
0000
0010
0000
,  // measure 69
1000
0001
0100
0001
1000
0001
0100
0001
0000
1000
0000
1000
0100
0010
0100
0010
,  // measure 70
0001
1000
0010
1000
0001
1000
0010
1000
0000
0001
0000
0001
0010
0000
0100
0000
,  // measure 71
1100
0000
0000
1010
0000
0000
0201
0000
0000
0301
1000
0100
0010
0000
0001
0000
,  // measure 72
1000
0010
0100
0010
1000
0100
0010
0100
0000
0100
0000
0001
0100
0000
1000
0000
,  // measure 73
0001
0010
0100
0010
0001
0100
0010
0100
0000
0100
0000
1000
0100
0010
0100
0010
,  // measure 74
1000
0100
0010
0001
1000
0010
0100
0001
0000
0010
0000
1000
0010
0000
0001
0000
,  // measure 75
1000
0010
0100
0001
0000
0010
0100
0000
1000
0000
0001
0100
0000
0001
0100
0001
,  // measure 76
1000
0100
0010
0001
0100
0001
0010
0100
1000
0000
0000
0000
1001
0000
0000
0000
,  // measure 77
0001
0100
0010
1000
0100
1000
0010
0100
0001
0000
0000
0000
1001
0000
0000
0000
,  // measure 78
1000
0001
0100
0001
0010
0001
0100
0001
1000
0001
0100
0001
0010
0100
1000
0001
,  // measure 79
0010
0000
0000
1100
0000
0000
0021
0000
0000
0000
0031
0000
0010
0000
0100
0000
,  // measure 80
2000
0000
0000
0001
0000
0000
0001
0000
0000
0001
0000
0000
0010
0000
0000
0000
,  // measure 81
3002
0000
0000
1000
0000
0000
1000
0000
0000
1000
0000
0000
0010
0000
0000
0000
,  // measure 82
2003
0000
0000
0001
0000
0000
0001
0000
0000
0001
0000
0000
0100
0000
0000
0000
,  // measure 83
3001
0000
0000
1001
0000
0000
1010
0000
0000
0110
0000
0000
0202
0000
0000
0000
,  // measure 84
0000
0000
0000
0000
,  // measure 85
0000
0000
0000
0000
0000
0000
0000
0303
;
