#VERSION:0.83;
#TITLE:OK, Alex;
#SUBTITLE:;
#ARTIST:Blaqk Audio;
#TITLETRANSLIT:;
#SUBTITLETRANSLIT:;
#ARTISTTRANSLIT:;
#GENRE:Electronic;
#ORIGIN:;
#CREDIT:;
#BANNER:OK, Alex.png;
#BACKGROUND:OK, Alex-bg.png;
#PREVIEWVID:;
#JACKET:OK, Alex-jacket.png;
#CDIMAGE:;
#DISCIMAGE:;
#LYRICSPATH:;
#CDTITLE:cdtitle.png;
#MUSIC:OK, Alex.ogg;
#OFFSET:-0.057256;
#SAMPLESTART:32.057259;
#SAMPLELENGTH:11.636360;
#SELECTABLE:YES;
#BPMS:0.000=165.000;
#STOPS:45.500=0.727,
83.500=0.727,
226.500=0.364;
#DELAYS:;
#WARPS:;
#TIMESIGNATURES:0.000=4=4;
#TICKCOUNTS:0.000=4;
#COMBOS:0.000=1;
#SPEEDS:0.000=1.000=0.000=0;
#SCROLLS:0.000=1.000;
#FAKES:;
#LABELS:0.000=Song Start;
#BGCHANGES:;
#KEYSOUNDS:;
#ATTACKS:
;

//---------------dance-single - ----------------
#NOTEDATA:;
#CHARTNAME:;
#STEPSTYPE:dance-single;
#DESCRIPTION:;
#CHARTSTYLE:;
#DIFFICULTY:Challenge;
#METER:12;
#RADARVALUES:0.599767,0.593931,0.318439,0.636879,0.008380,501.000000,463.000000,38.000000,76.000000,32.000000,0.000000,0.000000,0.000000,0.000000,0.599767,0.593931,0.318439,0.636879,0.008380,501.000000,463.000000,38.000000,76.000000,32.000000,0.000000,0.000000,0.000000,0.000000;
#CREDIT:;
#OFFSET:-0.057256;
#BPMS:0.000000=165.000000
;
#STOPS:45.500000=0.727274
,83.500000=0.727272
,226.500000=0.363636
;
#DELAYS:;
#WARPS:;
#TIMESIGNATURES:0.000000=4=4
;
#TICKCOUNTS:0.000000=4
;
#COMBOS:0.000000=1
;
#SPEEDS:0.000000=1.000000=0.000000=0
;
#SCROLLS:0.000000=1.000000
;
#FAKES:;
#LABELS:0.000000=Song Start
;
#NOTES:
// measure 0
0000
0000
0000
0000
,  // measure 1
0000
0000
0000
0000
,  // measure 2
0000
0000
0000
0000
,  // measure 3
0000
0000
0000
0000
,  // measure 4
0001
0000
0011
0000
0001
0000
0010
0001
,  // measure 5
0100
0000
0011
0000
0100
0001
0010
0001
,  // measure 6
0100
0000
1001
0000
1000
0010
0100
0001
,  // measure 7
0010
0001
0100
0010
1000
0000
0011
0000
,  // measure 8
0100
0000
1010
0000
1000
0000
0010
1000
,  // measure 9
0100
0000
1010
0000
0100
1000
1001
0000
,  // measure 10
0010
0000
1010
1000
0001
0010
0100
1000
,  // measure 11
0010
1000
0001
1001
2000
0010
0000
3020
,  // measure 12
0001
0000
0032
1000
0000
2003
0100
0000
,  // measure 13
3100
0010
0100
0001
1000
0000
1001
0000
,  // measure 14
1000
0010
1000
0001
0010
0001
1000
0010
,  // measure 15
0100
0001
0010
0000
0002
0010
0000
0023
,  // measure 16
1000
0000
2030
0001
0000
3002
0100
0000
,  // measure 17
0203
0000
1300
0010
0100
0010
0100
0001
,  // measure 18
0010
0100
0010
0100
1000
0010
0001
0010
,  // measure 19
1000
0100
0001
0100
1000
0000
0110
0000
,  // measure 20
1000
1000
0100
0010
0001
0100
0010
1001
,  // measure 21
1000
0010
0001
0010
1000
1000
0010
0001
,  // measure 22
0010
1000
0010
0001
0010
1000
0100
0001
,  // measure 23
0100
2000
0001
0000
0010
3010
1000
0100
,  // measure 24
0010
0000
0000
1000
0100
0000
0010
0000
0001
0000
0100
0000
0010
0000
1000
0000
,  // measure 25
0001
0010
1000
0010
0001
0001
0010
1000
,  // measure 26
0010
0001
0010
1000
0010
0001
0100
1000
,  // measure 27
0100
0002
1000
0000
0010
0013
0100
1000
,  // measure 28
0001
0100
0001
0011
0000
1010
1000
0000
,  // measure 29
2001
0000
3200
0000
0001
0302
0000
2003
,  // measure 30
0000
3002
0000
0203
0000
1000
1300
MMMM
,  // measure 31
1002
0000
0203
0000
1000
2300
0000
3002
,  // measure 32
0000
2003
0000
3200
0000
0001
0301
MMMM
,  // measure 33
1000
0010
1000
0000
0100
1000
0100
0000
,  // measure 34
1000
0010
1000
0000
0100
1000
1001
0000
,  // measure 35
0001
0010
0001
0000
0100
0001
0100
0000
,  // measure 36
0001
0010
0011
0000
1000
0010
1010
0000
,  // measure 37
0001
0010
0001
0010
0100
1000
0100
1000
,  // measure 38
0001
0010
0100
0001
0100
0010
0001
0000
,  // measure 39
1000
0010
1000
0010
0100
0001
0100
0001
,  // measure 40
1000
0010
0100
1000
0100
0010
1000
0000
,  // measure 41
1010
1000
0001
0000
1000
0100
1000
MMMM
,  // measure 42
0011
0001
1000
0000
0001
0100
0001
MMMM
,  // measure 43
0101
0001
1000
0000
0001
0010
0001
MMMM
,  // measure 44
1100
1000
0001
0000
1000
0010
1000
MMMM
,  // measure 45
0001
0010
0001
0010
1000
0010
1000
0010
,  // measure 46
0001
0100
0001
0100
1000
0100
0001
0100
,  // measure 47
1000
0100
1000
0100
0001
0010
0001
0100
,  // measure 48
1000
0100
0001
0010
1000
0010
0001
1000
,  // measure 49
0002
0000
0203
0000
0320
2030
0000
3002
,  // measure 50
0000
0203
0000
0320
0000
2030
0000
3002
,  // measure 51
0000
0200
0000
0000
0000
0000
0303
0000
,  // measure 52
0000
0000
0000
0000
,  // measure 53
2000
0000
3200
0000
0320
0032
0000
2003
,  // measure 54
0000
3200
0000
0320
0000
0032
0000
0203
,  // measure 55
0300
2020
3030
0200
0300
0022
0033
0202
,  // measure 56
0303
2020
3030
2200
3300
0011
0001
0010
,  // measure 57
1000
0010
0100
0100
0010
1000
0010
0001
,  // measure 58
0100
1000
0100
0001
0010
1000
0010
0002
,  // measure 59
1000
0000
0000
0000
0010
0000
0013
0000
0001
0000
0100
0000
0010
0000
0000
0001
,  // measure 60
0100
0010
1000
0100
0010
0001
1000
0010
,  // measure 61
0001
0010
0100
0100
0010
0001
0010
1000
,  // measure 62
0100
0001
0100
1000
0010
0001
0010
2000
,  // measure 63
0001
0000
0010
3010
0100
0001
1000
0100
,  // measure 64
0010
0011
0000
1010
1000
0000
0001
0100
,  // measure 65
0001
0100
0010
0001
0010
0100
0001
0010
,  // measure 66
0100
0001
0100
0001
0100
0010
0001
0000
,  // measure 67
1001
0000
0001
0100
0010
1000
0000
0110
,  // measure 68
0000
0001
0100
1000
0100
0001
1000
0100
,  // measure 69
1000
0100
0010
1000
0010
0100
1000
0010
,  // measure 70
0100
1000
0100
1000
0100
0010
1000
0000
,  // measure 71
1001
0000
1000
0100
0010
0001
0000
0001
,  // measure 72
1000
1010
0000
0011
0001
0000
1002
0000
,  // measure 73
0023
0000
1000
2030
0000
3002
0000
2003
,  // measure 74
0000
3020
0000
0001
0031
MMMM
2001
0000
,  // measure 75
3020
0000
0001
0032
0000
2003
0000
3002
,  // measure 76
0000
0023
0000
1000
1030
MMMM
0020
0030
,  // measure 77
0020
0030
0010
0020
0030
0020
0030
0020
,  // measure 78
0030
0020
0030
0020
0230
0320
0030
0000
;

//---------------dance-single - ----------------
#NOTEDATA:;
#CHARTNAME:;
#STEPSTYPE:dance-single;
#DESCRIPTION:;
#CHARTSTYLE:;
#DIFFICULTY:Hard;
#METER:11;
#RADARVALUES:0.532727,0.626927,0.620119,0.754198,0.000000,445.000000,371.000000,74.000000,90.000000,0.000000,0.000000,0.000000,0.000000,0.000000,0.532727,0.626927,0.620119,0.754198,0.000000,445.000000,371.000000,74.000000,90.000000,0.000000,0.000000,0.000000,0.000000,0.000000;
#CREDIT:;
#OFFSET:-0.057256;
#BPMS:0.000000=165.000000
;
#STOPS:45.500000=0.727274
,83.500000=0.727272
,226.500000=0.363636
;
#DELAYS:;
#WARPS:;
#TIMESIGNATURES:0.000000=4=4
;
#TICKCOUNTS:0.000000=4
;
#COMBOS:0.000000=1
;
#SPEEDS:0.000000=1.000000=0.000000=0
;
#SCROLLS:0.000000=1.000000
;
#FAKES:;
#LABELS:0.000000=Song Start
;
#NOTES:
// measure 0
0000
0000
0000
0000
,  // measure 1
0000
0000
0000
0000
,  // measure 2
0000
0000
0000
0000
,  // measure 3
0000
0000
0000
0000
,  // measure 4
0001
0000
1001
0000
0001
0000
1000
0001
,  // measure 5
0100
0000
1001
0000
1000
0001
0010
0001
,  // measure 6
1000
0000
1001
0000
0001
0100
0001
0100
,  // measure 7
0001
1000
0100
1000
0001
0000
0100
0000
,  // measure 8
0010
0000
1001
0000
1000
0000
0001
1000
,  // measure 9
0100
0000
1001
0000
0001
1000
1010
0000
,  // measure 10
0001
0000
1001
0000
1000
0100
1000
0001
,  // measure 11
0100
0001
1000
0100
0002
0000
0000
0023
,  // measure 12
0000
0000
2030
0000
0000
3020
0000
0000
,  // measure 13
0031
0000
0001
0100
0010
0000
1010
0000
,  // measure 14
1000
0010
1000
0010
0100
0001
0000
0012
,  // measure 15
0000
1000
1003
0001
2000
0000
0000
3020
,  // measure 16
0000
0000
0032
0000
0000
0023
0000
0000
,  // measure 17
2030
0000
3100
0010
0001
0000
0011
0000
,  // measure 18
0001
0010
0001
0010
0100
1000
0000
2010
,  // measure 19
0000
3001
0100
0010
1000
0000
0100
0010
,  // measure 20
0100
0010
0001
0100
0010
1000
0000
1001
,  // measure 21
1010
0000
0011
0000
0001
0100
0000
0101
,  // measure 22
0000
0011
0000
1100
0000
1010
0000
1001
,  // measure 23
0000
1000
0200
0000
1300
0100
0001
0100
,  // measure 24
0000
0110
0000
0100
0001
0100
1000
0000
,  // measure 25
0011
0000
1010
0000
1000
0100
0000
1100
,  // measure 26
0000
1010
0000
0101
0000
0011
0000
1001
,  // measure 27
0000
0001
0200
0000
0301
0100
0010
1000
,  // measure 28
0000
1000
0010
0001
0000
0010
1000
0000
,  // measure 29
2001
0000
3200
0000
0001
0302
0000
0203
,  // measure 30
0000
0302
0000
0203
0000
1000
1300
0000
,  // measure 31
1002
0000
0203
0000
1000
2300
0000
3200
,  // measure 32
0000
2300
0000
3200
0000
0001
0301
0000
,  // measure 33
2000
0100
3001
1001
,  // measure 34
0010
1001
1000
1001
,  // measure 35
0002
0100
1003
1001
,  // measure 36
0010
0000
1001
0000
0001
1000
0001
0000
,  // measure 37
1000
0010
0100
0000
0001
0010
0100
0000
,  // measure 38
1000
0010
0100
0000
0001
0010
0100
0000
,  // measure 39
0010
0001
0100
0000
0010
1000
0100
0000
,  // measure 40
0010
0001
0100
0000
0010
1000
0100
0000
,  // measure 41
0012
0013
0201
0301
,  // measure 42
2010
3010
1200
1300
,  // measure 43
0012
1003
0102
1003
,  // measure 44
2010
3001
2100
3001
,  // measure 45
0001
0100
1000
0000
1000
0100
0001
0000
,  // measure 46
0001
0010
1000
0000
1000
0010
0001
0000
,  // measure 47
1000
0010
0100
0000
0001
0010
0100
0000
,  // measure 48
1000
0010
0100
0001
0010
0100
1000
0000
,  // measure 49
0002
0000
0203
0000
0320
2030
0000
3002
,  // measure 50
0000
0203
0000
0320
0000
2030
0000
3002
,  // measure 51
0000
0200
0000
0000
0000
0000
0303
0000
,  // measure 52
0000
0000
0000
0000
,  // measure 53
2000
0000
3200
0000
0320
0032
0000
2003
,  // measure 54
0000
3200
0000
0320
0000
0032
0000
0203
,  // measure 55
0300
2020
3030
0200
0300
0022
0033
0202
,  // measure 56
0303
2020
3030
2200
3300
0011
1100
0000
,  // measure 57
0011
0000
1001
0100
0000
1010
0000
0101
,  // measure 58
0000
0011
0000
1100
0000
1010
0000
1002
,  // measure 59
0203
0000
0301
0100
1000
0100
0000
0110
,  // measure 60
0000
0100
1000
0100
0001
0000
0101
0000
,  // measure 61
1010
0000
1001
0100
0000
0011
0000
1100
,  // measure 62
0000
1010
0000
0101
0000
0011
0000
2001
,  // measure 63
3200
0000
1300
0100
0010
0001
0000
0001
,  // measure 64
0010
1000
0000
0010
0001
0000
1000
0010
,  // measure 65
0100
0000
0010
0000
0100
0010
1000
0100
,  // measure 66
0010
0100
1000
0000
1001
0000
0001
0000
,  // measure 67
0110
0000
1000
0010
0100
0001
0000
1001
,  // measure 68
0000
0001
0010
0100
1000
0000
0001
0010
,  // measure 69
0100
0000
0010
0000
0100
0010
0001
0100
,  // measure 70
0010
0100
0001
0000
1001
0000
1000
0000
,  // measure 71
0110
0000
0001
0100
0001
1000
0000
0001
,  // measure 72
0010
1000
0000
0010
0001
0000
2001
0000
,  // measure 73
3020
0000
0001
0032
0000
0023
0000
0032
,  // measure 74
0000
0023
0000
1000
1030
0000
1002
0000
,  // measure 75
0023
0000
1000
2030
0000
3020
0000
2030
,  // measure 76
0000
3020
0000
0001
0031
0000
0200
0300
,  // measure 77
0200
0300
0100
0200
0300
0200
0300
0200
,  // measure 78
0300
0200
0300
0200
0320
0230
0300
0000
;

//---------------dance-single - ----------------
#NOTEDATA:;
#CHARTNAME:;
#STEPSTYPE:dance-single;
#DESCRIPTION:;
#CHARTSTYLE:;
#DIFFICULTY:Medium;
#METER:8;
#RADARVALUES:0.397451,0.502013,0.301679,0.544699,0.000000,332.000000,296.000000,36.000000,65.000000,0.000000,0.000000,0.000000,0.000000,0.000000,0.397451,0.502013,0.301679,0.544699,0.000000,332.000000,296.000000,36.000000,65.000000,0.000000,0.000000,0.000000,0.000000,0.000000;
#CREDIT:;
#OFFSET:-0.057256;
#BPMS:0.000000=165.000000
;
#STOPS:;
#DELAYS:;
#WARPS:;
#TIMESIGNATURES:0.000000=4=4
;
#TICKCOUNTS:0.000000=4
;
#COMBOS:0.000000=1
;
#SPEEDS:0.000000=1.000000=0.000000=0
;
#SCROLLS:0.000000=1.000000
,45.500000=0.000000
,47.000000=1.000000
,85.500000=0.000000
,87.000000=1.000000
;
#FAKES:;
#LABELS:0.000000=Song Start
;
#NOTES:
// measure 0
0000
0000
0000
0000
,  // measure 1
0000
0000
0000
0000
,  // measure 2
0000
0000
0000
0000
,  // measure 3
0000
0000
0000
0000
,  // measure 4
0001
0000
0000
0000
0001
0000
0100
0001
,  // measure 5
1000
0000
0001
0010
,  // measure 6
0001
0000
0001
0100
,  // measure 7
0001
0000
1000
0100
1000
0000
0000
0000
,  // measure 8
0001
0000
0000
0000
1000
0000
0100
1000
,  // measure 9
0001
0000
1000
1010
,  // measure 10
1000
0000
1000
0100
,  // measure 11
1000
0000
0001
0100
0000
0000
0000
0000
,  // measure 12
0002
0000
0000
0203
0000
0000
0320
0000
,  // measure 13
0000
2030
0000
0000
3001
0000
1000
0100
,  // measure 14
0010
0000
0100
0000
0010
0001
0100
0000
,  // measure 15
0010
1000
0000
0002
0000
0000
1003
0000
,  // measure 16
2000
0000
0000
3200
0000
0000
0320
0000
,  // measure 17
0000
0032
0000
0000
0203
0000
0301
0100
,  // measure 18
0010
0000
0100
0000
0010
1000
0100
0000
,  // measure 19
0010
0001
0000
2000
0000
0000
3000
0000
,  // measure 20
0001
0101
1000
1100
,  // measure 21
0010
0001
0000
1001
0000
0000
0000
0000
,  // measure 22
2000
0000
3020
0000
0032
0023
0000
2030
,  // measure 23
0000
3020
0000
0032
0000
0023
0000
2030
,  // measure 24
0000
3002
0100
0000
1003
0000
0010
0100
,  // measure 25
0000
0100
0000
0100
0001
0000
1001
0000
,  // measure 26
0002
0000
0023
0000
2030
3020
0000
0032
,  // measure 27
0000
0023
0000
2030
0000
3020
0000
0032
,  // measure 28
0000
2003
0100
0000
3001
0000
1000
0100
,  // measure 29
0000
0100
0000
0011
0000
1000
0010
0000
,  // measure 30
1000
0100
1000
0100
,  // measure 31
1000
0000
0100
0000
0010
0100
1000
0000
,  // measure 32
0001
0100
0001
0100
,  // measure 33
0001
0000
0100
0000
0010
0100
0001
0000
,  // measure 34
2002
3003
1000
0100
,  // measure 35
0010
0001
0100
0010
,  // measure 36
2002
3003
0001
0100
,  // measure 37
0010
1000
0100
0010
,  // measure 38
0001
0001
0100
0100
,  // measure 39
0001
0000
0100
0000
0010
1000
0001
0000
,  // measure 40
1000
1000
0100
0100
,  // measure 41
1000
0000
0100
0000
0010
0001
1000
0000
,  // measure 42
2020
3030
1001
0100
,  // measure 43
0022
0033
1001
0100
,  // measure 44
0202
0303
1001
0100
,  // measure 45
2200
3300
1001
0100
,  // measure 46
1010
0100
0011
0100
,  // measure 47
0101
0100
1100
0100
,  // measure 48
1001
0010
1001
0010
,  // measure 49
1100
0011
0101
1010
,  // measure 50
0001
0000
0100
0000
0001
0000
0000
0001
,  // measure 51
0000
0100
0000
0001
0000
0100
0000
0001
,  // measure 52
0000
2000
0000
0000
0000
0000
3000
0000
,  // measure 53
0000
0000
0000
0000
,  // measure 54
1000
0000
0100
0000
1000
0000
0000
1000
,  // measure 55
0000
0100
0000
1000
0000
0100
0000
1000
,  // measure 56
0000
1001
0000
1000
0000
1001
0000
0110
,  // measure 57
0000
1001
0000
0110
0000
1001
0000
0000
,  // measure 58
0002
0000
0023
0000
2030
3020
0000
0032
,  // measure 59
0000
0203
0000
2300
0000
3200
0000
0302
,  // measure 60
0000
2003
0100
0000
3001
0000
0010
0100
,  // measure 61
0000
0100
0000
0100
1000
0000
1001
0000
,  // measure 62
2000
0000
3020
0000
0032
0023
0000
2030
,  // measure 63
0000
3200
0000
0302
0000
0203
0000
2300
,  // measure 64
0000
3002
0100
0000
1003
0000
0001
0100
,  // measure 65
0000
0100
0000
1010
0000
0001
0010
0000
,  // measure 66
0001
1000
0001
0000
0100
0000
0010
0000
,  // measure 67
1000
0001
1000
0000
0100
0000
0010
0000
,  // measure 68
0001
0000
1000
0000
0010
0000
1000
0010
,  // measure 69
0000
0100
0000
0001
0010
0000
0011
0000
,  // measure 70
1000
0010
1000
0000
0100
0000
0010
0000
,  // measure 71
0001
0010
0001
0000
0100
0000
0010
0000
,  // measure 72
1000
0000
0001
0000
0001
0000
1000
0100
,  // measure 73
0000
0100
0000
0011
0000
1000
0010
0000
,  // measure 74
1000
0100
1000
0100
,  // measure 75
1000
0000
0100
0000
0001
0100
1000
0000
,  // measure 76
0001
0100
0001
0100
,  // measure 77
0001
0000
0100
0000
1000
0100
0001
0000
,  // measure 78
0020
0000
0000
0000
,  // measure 79
0000
0000
0000
0000
0000
0000
0000
0030
;

//---------------dance-single - ----------------
#NOTEDATA:;
#CHARTNAME:;
#STEPSTYPE:dance-single;
#DESCRIPTION:;
#CHARTSTYLE:;
#DIFFICULTY:Easy;
#METER:5;
#RADARVALUES:0.278934,0.368143,0.226260,0.117320,0.000000,233.000000,206.000000,27.000000,14.000000,0.000000,0.000000,0.000000,0.000000,0.000000,0.278934,0.368143,0.226260,0.117320,0.000000,233.000000,206.000000,27.000000,14.000000,0.000000,0.000000,0.000000,0.000000,0.000000;
#CREDIT:;
#OFFSET:-0.057256;
#BPMS:0.000000=165.000000
;
#STOPS:;
#DELAYS:;
#WARPS:;
#TIMESIGNATURES:0.000000=4=4
;
#TICKCOUNTS:0.000000=4
;
#COMBOS:0.000000=1
;
#SPEEDS:0.000000=1.000000=0.000000=0
;
#SCROLLS:0.000000=1.000000
,45.500000=0.000000
,47.000000=1.000000
,85.500000=0.000000
,87.000000=1.000000
;
#FAKES:;
#LABELS:0.000000=Song Start
;
#NOTES:
// measure 0
0000
0000
0000
0000
,  // measure 1
0000
0000
0000
0000
,  // measure 2
0000
0000
0000
0000
,  // measure 3
0000
0000
0000
0000
,  // measure 4
0001
0000
0001
0010
,  // measure 5
0100
0000
0100
0010
,  // measure 6
0001
0000
0001
0100
,  // measure 7
0001
0100
0010
0000
,  // measure 8
1000
0000
1000
0010
,  // measure 9
0100
0000
0010
1001
,  // measure 10
0100
0000
1000
0100
,  // measure 11
0010
0001
0000
0000
,  // measure 12
0002
0000
0203
0000
,  // measure 13
2300
0000
3100
0000
,  // measure 14
0001
0001
0100
0000
,  // measure 15
0010
1000
0100
0000
,  // measure 16
2000
0000
3200
0000
,  // measure 17
0302
0000
0203
0000
,  // measure 18
1300
1000
0100
0000
,  // measure 19
0010
0001
0100
0000
,  // measure 20
0001
0001
0100
0000
,  // measure 21
0020
0000
0000
0030
0000
0000
0000
0000
,  // measure 22
1000
0010
1010
0000
,  // measure 23
1000
0010
1000
0010
,  // measure 24
1010
0000
0001
0000
,  // measure 25
0001
1000
0010
0100
,  // measure 26
0001
0010
0011
0000
,  // measure 27
0001
0010
0001
0010
,  // measure 28
0011
0000
1000
0000
,  // measure 29
1000
0000
1001
1001
,  // measure 30
1000
0010
1000
0010
,  // measure 31
1000
0010
1000
1000
,  // measure 32
0001
0010
0001
0010
,  // measure 33
0001
0010
0001
0001
,  // measure 34
0200
0300
0100
0000
,  // measure 35
0100
0000
0100
0000
,  // measure 36
0020
0030
0010
0000
,  // measure 37
0110
0000
1001
0000
,  // measure 38
1000
0100
1000
0000
,  // measure 39
0100
0010
0001
0000
,  // measure 40
1000
0010
1000
0000
,  // measure 41
0010
0100
0001
0000
,  // measure 42
1001
0000
0010
0000
,  // measure 43
1001
0000
0100
0000
,  // measure 44
0011
0000
0100
0000
,  // measure 45
1010
0000
0100
0000
,  // measure 46
1001
0000
1100
0000
,  // measure 47
1001
0000
0101
0000
,  // measure 48
1000
1000
0001
0001
,  // measure 49
1000
0010
0100
0001
,  // measure 50
2000
0000
3000
0000
,  // measure 51
1000
0000
0100
0000
,  // measure 52
2000
0000
0000
3000
,  // measure 53
0000
0000
0000
0000
,  // measure 54
0002
0000
0003
0000
,  // measure 55
0001
0000
0100
0000
,  // measure 56
0001
0000
0001
0000
,  // measure 57
1001
0000
1001
0000
,  // measure 58
0001
0010
0011
0000
,  // measure 59
0001
0010
0001
0100
,  // measure 60
0101
0000
1000
0000
,  // measure 61
1000
0001
0010
0100
,  // measure 62
1000
0010
1010
0000
,  // measure 63
1000
0010
1000
0100
,  // measure 64
1100
0000
0001
0000
,  // measure 65
0001
0000
1001
1001
,  // measure 66
0001
0100
0010
0000
,  // measure 67
0100
0010
1000
0000
,  // measure 68
0001
0000
0001
0000
,  // measure 69
0010
0001
0100
0010
,  // measure 70
1000
0100
0010
0000
,  // measure 71
0100
0010
0001
0000
,  // measure 72
1000
0001
1000
0001
,  // measure 73
1000
0000
1001
1001
,  // measure 74
1000
0010
1000
0010
,  // measure 75
1000
0010
0100
0100
,  // measure 76
0001
0010
0001
0010
,  // measure 77
0001
0010
0100
0100
,  // measure 78
0020
0000
0000
0000
,  // measure 79
0000
0000
0000
0000
0000
0000
0000
0030
;

//---------------dance-single - ----------------
#NOTEDATA:;
#CHARTNAME:;
#STEPSTYPE:dance-single;
#DESCRIPTION:;
#CHARTSTYLE:;
#DIFFICULTY:Beginner;
#METER:2;
#RADARVALUES:0.180768,0.234273,0.025140,0.075420,0.000000,151.000000,148.000000,3.000000,9.000000,0.000000,0.000000,0.000000,0.000000,0.000000,0.180768,0.234273,0.025140,0.075420,0.000000,151.000000,148.000000,3.000000,9.000000,0.000000,0.000000,0.000000,0.000000,0.000000;
#CREDIT:;
#OFFSET:-0.057256;
#BPMS:0.000000=165.000000
;
#STOPS:;
#DELAYS:;
#WARPS:;
#TIMESIGNATURES:0.000000=4=4
;
#TICKCOUNTS:0.000000=4
;
#COMBOS:0.000000=1
;
#SPEEDS:0.000000=1.000000=0.000000=0
;
#SCROLLS:0.000000=1.000000
;
#FAKES:;
#LABELS:0.000000=Song Start
;
#NOTES:
// measure 0
0000
0000
0000
0000
,  // measure 1
0000
0000
0000
0000
,  // measure 2
0000
0000
0000
0000
,  // measure 3
0000
0000
0000
0000
,  // measure 4
0001
0000
0001
0000
,  // measure 5
0010
0000
0010
0000
,  // measure 6
0001
0000
0010
0000
,  // measure 7
0001
0000
0001
0000
,  // measure 8
1000
0000
1000
0000
,  // measure 9
0010
0000
0010
0000
,  // measure 10
1000
0000
0010
0000
,  // measure 11
2000
0000
0000
3000
0000
0000
0000
0000
,  // measure 12
0020
0000
0000
0030
0000
0000
2000
0000
,  // measure 13
0000
3000
0000
0000
0000
0000
0000
0000
,  // measure 14
0001
0000
1000
0000
,  // measure 15
0001
0000
1000
0000
,  // measure 16
0002
0000
0000
0003
0000
0000
0020
0000
,  // measure 17
0000
0030
0000
0000
0001
0000
0000
0000
,  // measure 18
1000
0000
0001
0000
,  // measure 19
0100
0000
0010
0000
,  // measure 20
0100
0000
0100
0000
,  // measure 21
0200
0000
0000
0300
0000
0000
0000
0000
,  // measure 22
0001
0001
0001
0000
,  // measure 23
0001
0001
0001
0000
,  // measure 24
0001
0000
0010
0000
,  // measure 25
0100
0000
1000
0000
,  // measure 26
1000
1000
1000
0000
,  // measure 27
1000
1000
1000
0000
,  // measure 28
1000
0000
0010
0000
,  // measure 29
0100
0000
1001
0000
,  // measure 30
0001
0001
0001
0000
,  // measure 31
0001
0000
0001
0000
,  // measure 32
0001
0001
0001
0000
,  // measure 33
0001
0000
0001
0000
,  // measure 34
2000
0000
3000
0000
,  // measure 35
0100
0000
0100
0000
,  // measure 36
0020
0000
0030
0000
,  // measure 37
0001
0000
1000
0000
,  // measure 38
0001
0000
0001
0000
,  // measure 39
0001
0000
0100
0000
,  // measure 40
1000
0000
1000
0000
,  // measure 41
1000
0000
0100
0000
,  // measure 42
0001
0000
0001
0000
,  // measure 43
1000
0000
1000
0000
,  // measure 44
0100
0000
0100
0000
,  // measure 45
0010
0000
0010
0000
,  // measure 46
0001
0000
1000
0000
,  // measure 47
0001
0000
1000
0000
,  // measure 48
0010
0000
0010
0000
,  // measure 49
0010
0010
0010
0000
,  // measure 50
0100
0000
0000
0000
,  // measure 51
0000
0000
0000
0000
,  // measure 52
0000
0000
0000
0000
,  // measure 53
0000
0000
0000
0000
,  // measure 54
0100
0000
0000
0000
,  // measure 55
0100
0000
0000
0000
,  // measure 56
0100
0000
0100
0000
,  // measure 57
0100
0000
0100
0000
,  // measure 58
0001
0001
0001
0000
,  // measure 59
0010
0010
0010
0000
,  // measure 60
0001
0000
0010
0000
,  // measure 61
0100
0000
1000
0000
,  // measure 62
1000
1000
1000
0000
,  // measure 63
0010
0010
0010
0000
,  // measure 64
1000
0000
0010
0000
,  // measure 65
0100
0000
1001
0000
,  // measure 66
0001
0000
0010
0000
,  // measure 67
1000
0000
0010
0000
,  // measure 68
0001
0001
0001
0000
,  // measure 69
1000
0000
0001
0000
,  // measure 70
1000
0000
0010
0000
,  // measure 71
0001
0000
0010
0000
,  // measure 72
1000
1000
1000
0000
,  // measure 73
1000
0000
1001
0000
,  // measure 74
1000
1000
1000
0000
,  // measure 75
1000
0000
1000
0000
,  // measure 76
1000
1000
1000
0000
,  // measure 77
1000
0000
1000
0000
,  // measure 78
0200
0000
0000
0000
,  // measure 79
0000
0000
0000
0000
0000
0000
0000
0300
;
